<?xml version="1.0" standalone="no"?>
<!DOCTYPE svg PUBLIC "-//W3C//DTD SVG 1.1//EN" "http://www.w3.org/Graphics/SVG/1.1/DTD/svg11.dtd" >
<svg xmlns="http://www.w3.org/2000/svg" xmlns:xlink="http://www.w3.org/1999/xlink" version="1.1">
<metadata>
Created by FontForge 20170731 at Sun Nov 15 17:46:27 2015
 By Aleksey,,,
VWAG TheSans was created exclusively for Volkswagen AG in cooperation with MetaDesign AG. Copyright 1994-2015 Luc(as) de Groot. All rights reserved.
</metadata>
<defs>
<font id="VWAGTheSans-Bold" horiz-adv-x="550" >
  <font-face 
    font-family="VWAG TheSans"
    font-weight="700"
    font-stretch="normal"
    units-per-em="1000"
    panose-1="2 11 8 2 5 3 2 2 2 3"
    ascent="740"
    descent="-260"
    x-height="497"
    cap-height="675"
    bbox="-383 -319 1305 980"
    underline-thickness="104"
    underline-position="-299"
    unicode-range="U+000D-FB04"
  />
<missing-glyph 
d="M450 100v350h-350v-350h350zM250 350v50h150v-250h-50v100h-100v50h100v50h-100zM50 50v450h450v-450h-450zM150 150v250h50v-200h100v-50h-150z" />
    <glyph glyph-name="ellipsis" unicode="&#x2e;&#x2e;&#x2e;" horiz-adv-x="723" 
d="M204 67q0 -32 -23.5 -55t-55.5 -23t-55 23t-23 55t23 55t55 23t55.5 -23t23.5 -55zM437 67q0 -32 -23 -55t-55 -23t-55 23t-23 55t23 55t55 23t55 -23t23 -55zM670 67q0 -32 -23 -55t-55 -23t-55 23t-23 55t23 55t55 23t55 -23t23 -55z" />
    <glyph glyph-name="f_f" unicode="ff" horiz-adv-x="656" 
d="M640 497v-99h-116v-398h-128v398h-174v-398h-127v398h-87v99h87v36q0 106 49.5 155.5t150.5 49.5q17 0 29.5 -1t17.5 -2v-105q-5 1 -17.5 2.5t-26.5 1.5q-41 0 -58.5 -21.5t-17.5 -73.5v-42h174v36q0 106 50 155.5t151 49.5q23 0 42.5 -2t27.5 -4v-106q-8 2 -27 5t-40 3
q-41 0 -58.5 -21.5t-17.5 -73.5v-42h116z" />
    <glyph glyph-name="f_i" unicode="fi" horiz-adv-x="595" 
d="M542 646q0 -31 -22.5 -53t-54.5 -22t-54.5 22t-22.5 53t22.5 53t54.5 22t54.5 -22t22.5 -53zM399 0v398h-177v-398h-127v398h-87v99h87v36q0 106 49.5 155.5t150.5 49.5q17 0 29.5 -1t17.5 -2v-105q-5 1 -17.5 2.5t-26.5 1.5q-41 0 -58.5 -21.5t-17.5 -73.5v-42h304v-497
h-127z" />
    <glyph glyph-name="f_dotlessi" unicode="f&#x131;" horiz-adv-x="595" 
d="M8 497h87v33q0 53 13 92.5t38 65t61.5 38t84.5 12.5q20 0 36 -1.5t22 -2.5v-106q-7 2 -22 4t-33 2q-19 0 -32.5 -5.5t-22.5 -17t-13.5 -29.5t-4.5 -42v-43h304v-497h-127v398h-177v-398h-127v398h-87v99z" />
    <glyph glyph-name="f_f_i" unicode="ffi" horiz-adv-x="895" 
d="M844 646q0 -31 -22.5 -53t-54.5 -22t-54.5 22t-22.5 53t22.5 53t54.5 22t54.5 -22t22.5 -53zM828 497v-497h-128v398h-176v-398h-128v398h-174v-398h-127v398h-87v99h87v36q0 106 49.5 155.5t150.5 49.5q17 0 29.5 -1t17.5 -2v-105q-5 1 -17.5 2.5t-26.5 1.5
q-41 0 -58.5 -21.5t-17.5 -73.5v-42h174v36q0 106 50 155.5t151 49.5q17 0 29.5 -1t17.5 -2v-105q-5 1 -17.5 2.5t-26.5 1.5q-41 0 -58.5 -21.5t-17.5 -73.5v-42h304z" />
    <glyph glyph-name="f_l" unicode="fl" horiz-adv-x="595" 
d="M399 0v629q-38 6 -76 6q-52 0 -76.5 -24.5t-24.5 -77.5v-36h105v-99h-105v-398h-127v398h-87v99h87v32q0 49 13 87.5t41.5 65.5t75 41.5t111.5 14.5q56 0 110.5 -5.5t79.5 -9.5v-723h-127z" />
    <glyph glyph-name="f_f_l" unicode="ffl" horiz-adv-x="895" 
d="M629 398h-105v-398h-128v398h-174v-398h-127v398h-87v99h87v36q0 106 49.5 155.5t150.5 49.5q17 0 29.5 -1t17.5 -2v-105q-5 1 -17.5 2.5t-26.5 1.5q-41 0 -58.5 -21.5t-17.5 -73.5v-42h174v32q0 101 57 155t185 54q56 0 110.5 -5.5t79.5 -9.5v-723h-128v629
q-9 2 -30.5 4t-45.5 2q-52 0 -76 -24.5t-24 -77.5v-36h105v-99z" />
    <glyph glyph-name=".notdef" 
d="M450 100v350h-350v-350h350zM250 350v50h150v-250h-50v100h-100v50h100v50h-100zM50 50v450h450v-450h-450zM150 150v250h50v-200h100v-50h-150z" />
    <glyph glyph-name=".null" horiz-adv-x="0" 
 />
    <glyph glyph-name=".null" horiz-adv-x="0" 
 />
    <glyph glyph-name="nonmarkingreturn" unicode="&#xd;" horiz-adv-x="500" 
 />
    <glyph glyph-name="space" unicode=" " horiz-adv-x="218" 
 />
    <glyph glyph-name="exclam" unicode="!" horiz-adv-x="321" 
d="M247 65q0 -32 -22.5 -54t-56.5 -22q-33 0 -55.5 22t-22.5 54t22.5 54t55.5 22q34 0 56.5 -22t22.5 -54zM225 188h-110l-21 520h150z" />
    <glyph glyph-name="quotedbl" unicode="&#x22;" horiz-adv-x="405" 
d="M156 448h-96l-16 254h128zM344 448h-95l-16 254h128z" />
    <glyph glyph-name="numbersign" unicode="#" horiz-adv-x="583" 
d="M467 411l-15 -143h80v-90h-90l-18 -178h-102l19 178h-132l-19 -178h-102l19 178h-79v90h88l16 143h-80v89h89l18 175h102l-19 -175h132l19 175h102l-19 -175h79v-89h-88zM234 411l-16 -143h132l15 143h-131z" />
    <glyph glyph-name="dollar" unicode="$" horiz-adv-x="494" 
d="M448 215q0 -34 -11 -64.5t-32.5 -55.5t-52.5 -42.5t-69 -26.5v-122h-92v115q-33 1 -61 4t-55 8v117q14 -5 30.5 -9t34 -6.5t34.5 -4t32 -1.5q24 0 43.5 4.5t34 13.5t22 23.5t7.5 33.5q0 26 -17.5 42.5t-51.5 30.5t-69 28.5t-63.5 34t-47 52.5t-18.5 82q0 33 11 62.5
t32 53t50.5 39t64.5 22.5v101h91v-94q26 -1 51 -3.5t47 -7.5v-111q-30 8 -60 13t-55 5q-26 0 -45.5 -5t-31.5 -14.5t-17.5 -21.5t-5.5 -26q0 -24 18 -40t51 -30t69.5 -29.5t65.5 -36t47.5 -53.5t18.5 -81z" />
    <glyph glyph-name="percent" unicode="%" horiz-adv-x="760" 
d="M247 527q0 43 -13.5 61.5t-42.5 18.5q-24 0 -39.5 -21t-15.5 -57q0 -43 14 -62t42 -19q24 0 39.5 21t15.5 58zM625 148q0 42 -13.5 60.5t-41.5 18.5q-25 0 -40.5 -20.5t-15.5 -56.5q0 -43 14 -62t43 -19q23 0 38.5 21.5t15.5 57.5zM343 534q0 -36 -12 -67t-33 -53
t-50 -34t-62 -12q-72 0 -110 41.5t-38 114.5q0 35 12 65.5t33 52t50 33.5t62 12q70 0 109 -39t39 -114zM168 -22l-80 57l501 661l80 -58zM722 154q0 -36 -12 -66.5t-33.5 -52.5t-50 -34t-61.5 -12q-72 0 -110 41t-38 115q0 35 11.5 65.5t33 52t50 33.5t61.5 12
q70 0 109.5 -39t39.5 -115z" />
    <glyph glyph-name="ampersand" unicode="&#x26;" horiz-adv-x="797" 
d="M444 146q-26 20 -55 43t-54.5 45.5t-48.5 43t-42 38.5q-16 -15 -28 -29.5t-20 -28.5t-12 -28t-4 -29q0 -21 7.5 -40t22.5 -33t37 -22t50 -8q41 0 79 13t68 35zM340 581q0 27 -15.5 44t-46.5 17q-28 0 -45.5 -17.5t-17.5 -45.5q0 -11 2.5 -23t9 -26t17 -30t25.5 -33
q17 14 30.5 28t22.5 27.5t13.5 28.5t4.5 30zM673 -25q-17 13 -34.5 25t-34.5 25t-34.5 25.5t-34.5 25.5q-24 -19 -52.5 -35t-61 -27.5t-69 -18t-76.5 -6.5q-58 0 -101.5 15t-71.5 42t-42 63t-14 77q0 26 6 49.5t17 44.5t26 40t33.5 37t41.5 36q-22 26 -37 49t-25 44.5
t-15 43t-5 42.5q0 34 13 64t38.5 53t63 36t84.5 13q85 0 131.5 -40t46.5 -107q0 -18 -3.5 -35t-10 -33t-16.5 -32t-23 -31.5t-31 -32t-40 -34.5q35 -33 85.5 -74t103.5 -80q10 15 17.5 31t14.5 34t12 36.5t8 38t4.5 39.5t0.5 40h127q1 -39 -4.5 -78t-17 -76t-29 -71.5
t-39.5 -64.5q25 -19 49 -36t78 -56z" />
    <glyph glyph-name="quotesingle" unicode="'" horiz-adv-x="216" 
d="M156 448h-96l-16 254h128z" />
    <glyph glyph-name="parenleft" unicode="(" horiz-adv-x="306" 
d="M200 -215q-80 125 -114 248t-34 252q0 126 35.5 252.5t113.5 249.5l93 -43q-57 -101 -86.5 -216.5t-29.5 -237.5q0 -254 119 -460z" />
    <glyph glyph-name="parenright" unicode=")" horiz-adv-x="306" 
d="M256 288q0 -127 -35.5 -254t-113.5 -249l-93 43q57 101 87 216.5t30 238.5q0 250 -118 460l97 44q79 -126 112.5 -248.5t33.5 -250.5z" />
    <glyph glyph-name="asterisk" unicode="*" horiz-adv-x="384" 
d="M305 453l-85 68l16 -108h-91l16 108l-86 -68l-44 78l101 40l-101 40l45 79l85 -68l-16 108h91l-16 -108l85 68l45 -78l-101 -40l101 -41z" />
    <glyph glyph-name="plus" unicode="+" 
d="M336 244v-186h-122v186h-175v107h175v185h122v-185h175v-107h-175z" />
    <glyph glyph-name="comma" unicode="," horiz-adv-x="258" 
d="M128 149q35 0 58 -27.5t23 -72.5t-29.5 -103t-99.5 -119l-53 47q52 55 58.5 90.5t-17.5 63.5q-14 17 -16 37.5t6 39.5t26 31.5t44 12.5z" />
    <glyph glyph-name="hyphen" unicode="-" horiz-adv-x="334" 
d="M44 226v103h246v-103h-246z" />
    <glyph glyph-name="hyphen" unicode="&#xad;" horiz-adv-x="334" 
d="M44 226v103h246v-103h-246z" />
    <glyph glyph-name="period" unicode="." horiz-adv-x="258" 
d="M211 71q0 -34 -24 -58t-58 -24t-58 24t-24 58q0 33 24 57t58 24t58 -24t24 -57z" />
    <glyph glyph-name="slash" unicode="/" horiz-adv-x="463" 
d="M176 0h-127l258 675h126z" />
    <glyph glyph-name="zero" unicode="0" 
d="M377 338q0 69 -6.5 115.5t-19 73.5t-31 38.5t-45.5 11.5q-23 0 -41.5 -12t-32 -39t-21 -72.5t-7.5 -109.5q0 -70 5.5 -116.5t17.5 -75t31.5 -41t47.5 -12.5q50 0 76 57t26 182zM515 342q0 -89 -19.5 -156t-53.5 -110.5t-78.5 -65t-94.5 -21.5q-57 0 -99.5 18.5t-73 59
t-46 108.5t-15.5 165q0 85 18 150t50.5 108.5t78 65t99.5 21.5q57 0 100 -19t73 -60t45.5 -106.5t15.5 -157.5z" />
    <glyph glyph-name="one" unicode="1" 
d="M58 0v115h169v426l-155 -52v121l192 65h95v-560h148v-115h-449z" />
    <glyph glyph-name="two" unicode="2" 
d="M51 0v104l96 100q58 58 92 96t53.5 66.5t27.5 52.5t8 51q0 43 -28.5 70.5t-79.5 27.5q-37 0 -75 -12t-77 -33v120q39 19 82.5 30.5t95.5 11.5q58 0 100 -15t69.5 -42t41 -61.5t13.5 -74.5q0 -37 -8 -68.5t-26.5 -64.5t-49.5 -71t-79 -86l-79 -80l-2 -2q54 2 116.5 3
t150.5 1v-124h-442z" />
    <glyph glyph-name="three" unicode="3" 
d="M486 212q0 -51 -19.5 -92.5t-56.5 -70.5t-89 -44t-116 -15q-36 0 -70.5 4t-63.5 11v116q31 -10 68.5 -16t75.5 -6q64 0 97.5 27t33.5 73q0 45 -35 71.5t-107 26.5q-27 0 -51 -1.5t-51 -4.5v102h29q46 0 83.5 6t64 19t41 32.5t14.5 45.5q0 38 -28 59.5t-80 21.5
q-39 0 -75 -9t-70 -26v114q39 14 81 21.5t90 7.5q106 0 161 -44t55 -122q0 -55 -30 -94t-83 -57l-1 -2q31 -6 56 -20t42 -34.5t25.5 -46t8.5 -53.5z" />
    <glyph glyph-name="four" unicode="4" 
d="M315 547h-1l-168 -279q28 1 75 1.5t94 0.5v277zM439 155v-155h-126v155h-283l-12 107l247 413h174v-405h90v-115h-90z" />
    <glyph glyph-name="five" unicode="5" 
d="M489 222q0 -53 -19.5 -96t-55.5 -73.5t-87.5 -47t-113.5 -16.5q-35 0 -70 4t-64 11v115q66 -19 141 -19q60 0 94 28t34 80q0 51 -39 78.5t-105 27.5q-33 0 -62.5 -2t-52.5 -6v369h372v-122l-250 1v-139q11 1 21 1.5t18 0.5q56 0 101 -14t75.5 -40.5t46.5 -62t16 -78.5z
" />
    <glyph glyph-name="six" unicode="6" 
d="M383 216q0 51 -27.5 80.5t-79.5 29.5q-24 0 -43.5 -9t-33 -24.5t-20.5 -34t-7 -36.5q0 -54 28.5 -89t81.5 -35q46 0 73.5 33t27.5 85zM513 234q0 -55 -17 -100.5t-49 -78t-76 -49.5t-96 -17q-112 0 -175.5 75.5t-63.5 219.5q0 99 25 174.5t71 125.5t108.5 75t136.5 25
q21 0 40.5 -1t34.5 -3v-114q-21 4 -40 6t-41 2q-155 0 -196 -165q-6 -17 -9 -40h1q22 30 58 46.5t77 16.5q50 0 90 -15t67 -42t40.5 -63t13.5 -78z" />
    <glyph glyph-name="seven" unicode="7" 
d="M499 565q-34 -64 -66 -134.5t-60.5 -143.5t-54 -145.5t-45.5 -141.5h-144q22 73 48.5 148.5t55.5 147.5t59 137t59 119q-11 0 -34 -0.5t-54 -0.5t-67.5 -0.5t-74 -0.5h-71.5v125h449v-110z" />
    <glyph glyph-name="eight" unicode="8" 
d="M378 172q0 35 -28 60.5t-89 53.5q-44 -27 -65.5 -53t-21.5 -56q0 -38 26.5 -60.5t75.5 -22.5q46 0 74 21t28 57zM363 514q0 32 -23 51.5t-66 19.5t-67 -21.5t-24 -53.5q0 -29 22.5 -52t73.5 -48q44 26 64 51.5t20 52.5zM510 186q0 -47 -19 -84.5t-52.5 -62.5t-78.5 -38
t-96 -13q-106 0 -164.5 48t-58.5 130q0 48 27 89.5t89 81.5q-54 34 -77.5 71.5t-23.5 87.5q0 43 16.5 78.5t47 61.5t72 39.5t91.5 13.5q48 0 87 -12t66.5 -34.5t42 -52.5t14.5 -66q0 -49 -26 -88t-84 -78q67 -36 97 -77.5t30 -94.5z" />
    <glyph glyph-name="nine" unicode="9" 
d="M367 455q0 56 -27 89t-75 33q-47 0 -75.5 -33t-28.5 -82q0 -52 26.5 -82.5t73.5 -30.5q24 0 44 9t34 24t21 34t7 39zM509 396q0 -198 -89 -302t-261 -104q-47 0 -88 7v115q24 -6 49.5 -9t50.5 -3q77 0 126 40t64 115q2 12 3.5 21.5t2.5 15.5h-1q-21 -26 -56.5 -40.5
t-80.5 -14.5q-92 0 -144 56t-52 152q0 54 17 98.5t49 76.5t76 49t97 17q52 0 95.5 -17t75 -53t49 -91t17.5 -129z" />
    <glyph glyph-name="colon" unicode=":" horiz-adv-x="298" 
d="M242 71q0 -34 -23.5 -58t-57.5 -24t-58 24t-24 58q0 33 24 57t58 24t57.5 -24t23.5 -57zM242 390q0 -33 -23.5 -57t-57.5 -24t-58 24t-24 57q0 34 24 58t58 24t57.5 -24t23.5 -58z" />
    <glyph glyph-name="semicolon" unicode=";" horiz-adv-x="298" 
d="M160 149q36 0 59 -27.5t23 -72.5t-29.5 -103t-99.5 -119l-53 47q51 55 57.5 90.5t-16.5 63.5q-14 17 -16 37.5t6 39.5t25.5 31.5t43.5 12.5zM242 391q0 -34 -23.5 -58t-57.5 -24t-58 24t-24 58q0 33 24 57t58 24t57.5 -24t23.5 -57z" />
    <glyph glyph-name="less" unicode="&#x3c;" 
d="M382 6l-319 295l318 294l84 -84l-237 -209l238 -209z" />
    <glyph glyph-name="equal" unicode="=" 
d="M53 150v103h444v-103h-444zM53 341v103h444v-103h-444z" />
    <glyph glyph-name="greater" unicode="&#x3e;" 
d="M169 6l-84 84l237 209l-238 209l84 87l319 -295z" />
    <glyph glyph-name="question" unicode="?" horiz-adv-x="451" 
d="M271 65q0 -32 -22.5 -54t-55.5 -22t-55.5 22t-22.5 54t22.5 54t55.5 22t55.5 -22t22.5 -54zM404 514q0 -39 -13 -68.5t-30 -48.5t-47 -47t-45.5 -48.5t-20.5 -48.5t6 -65h-125q-15 45 -12.5 79.5t17 60t40.5 50.5t45.5 43t32 37t12.5 43q0 45 -45.5 72t-151.5 27v117
q90 0 155 -17t105 -46t58.5 -65t18.5 -75z" />
    <glyph glyph-name="at" unicode="@" horiz-adv-x="1024" 
d="M574 401q-20 6 -48 6t-50 -16t-36.5 -42.5t-22 -57.5t-7.5 -61q0 -76 40 -76q34 0 65.5 50.5t49.5 147.5zM952 364q0 -72 -18.5 -131t-53 -100.5t-81.5 -63t-103 -21.5q-60 0 -92 31t-31 78h-2q-11 -22 -26.5 -41t-35 -34.5t-43.5 -24.5t-51 -9q-56 0 -90.5 42.5
t-34.5 121.5q0 62 16.5 115.5t50 94t83 63t113.5 22.5q53 0 95 -8.5t60 -14.5l-40 -213q-11 -59 0.5 -89t45.5 -30q26 0 48.5 13.5t39.5 40t26.5 65t9.5 87.5q0 51 -16 97t-50.5 82.5t-89 58t-129.5 21.5q-76 0 -143 -28t-117.5 -80t-79 -124t-28.5 -157q0 -146 81 -227
t243 -81q94 0 201 33l15 -95q-54 -18 -117 -28t-114 -10q-102 0 -181 27.5t-132.5 80t-81 125.5t-27.5 163q0 107 37 199.5t104 160t155.5 104t189.5 36.5q95 0 169.5 -27t124.5 -75.5t75 -112t25 -137.5z" />
    <glyph glyph-name="A" unicode="A" horiz-adv-x="626" 
d="M335 458q-8 26 -15 51.5t-12 49.5h-2q-5 -24 -12 -50t-14 -50l-70 -212h195zM480 0l-46 144h-254l-47 -144h-131l226 675h169l227 -675h-144z" />
    <glyph glyph-name="B" unicode="B" horiz-adv-x="581" 
d="M403 201q0 47 -34 71.5t-108 24.5h-35t-26 -1v-191q11 -1 32.5 -2t40.5 -1q64 0 97 27t33 72zM383 488q0 41 -27 64.5t-88 23.5q-16 0 -32.5 -0.5t-35.5 -1.5v-179q11 -1 23 -1h35q62 0 93.5 24.5t31.5 69.5zM543 207q0 -40 -16 -77t-49.5 -67t-86 -47.5t-122.5 -17.5
q-18 0 -85 1t-114 1v674q27 1 85.5 3t121.5 2q121 0 182 -44t61 -128q0 -49 -26 -89t-72 -58v-1q28 -7 50 -21t38 -33.5t24.5 -44t8.5 -53.5z" />
    <glyph glyph-name="C" unicode="C" horiz-adv-x="566" 
d="M516 15q-41 -11 -83 -17t-87 -6q-84 0 -143.5 25.5t-95.5 70t-52.5 103.5t-16.5 128q0 80 21.5 146t63.5 114.5t105 75t144 26.5q35 0 70 -4.5t69 -13.5v-130q-77 32 -147 32q-47 0 -82 -17t-57.5 -48.5t-33 -74t-10.5 -94.5q0 -108 47 -165t142 -57q34 0 73 6.5t73 17.5
v-118z" />
    <glyph glyph-name="D" unicode="D" horiz-adv-x="667" 
d="M490 339q0 56 -11.5 98.5t-36.5 72t-65.5 45t-97.5 15.5q-23 0 -43 -1t-36 -2v-455q14 -2 33 -3.5t38 -1.5q48 0 88 14t69.5 42.5t45.5 72.5t16 103zM630 349q0 -85 -26.5 -151.5t-76 -111t-118 -67.5t-151.5 -23q-44 0 -98.5 2t-89.5 3v673q58 2 110.5 3.5t107.5 1.5
q80 0 143 -18.5t107.5 -58.5t68 -103t23.5 -150z" />
    <glyph glyph-name="E" unicode="E" horiz-adv-x="536" 
d="M70 0v675h407v-109h-277v-167h255v-104h-255v-183h280v-112h-410z" />
    <glyph glyph-name="F" unicode="F" horiz-adv-x="500" 
d="M200 564v-176h253v-106h-253v-282h-130v675h399v-111h-269z" />
    <glyph glyph-name="G" unicode="G" horiz-adv-x="675" 
d="M608 32q-50 -20 -110 -31t-121 -11q-82 0 -146 23.5t-107.5 67.5t-65.5 105t-22 137q0 81 24.5 147.5t72 114.5t118 74t160.5 26q42 0 87 -6t83 -17v-127q-81 34 -178 34q-58 0 -101.5 -18t-71 -50t-40.5 -73.5t-13 -90.5q0 -108 55.5 -169t159.5 -61q47 0 86 12v235h130
v-322z" />
    <glyph glyph-name="H" unicode="H" horiz-adv-x="686" 
d="M486 0v293h-286v-293h-130v675h130v-270h286v270h131v-675h-131z" />
    <glyph glyph-name="I" unicode="I" horiz-adv-x="270" 
d="M70 0v675h130v-675h-130z" />
    <glyph glyph-name="J" unicode="J" horiz-adv-x="270" 
d="M-13 -127q24 15 39.5 29.5t25.5 32t14 39.5t4 52v649h130v-641q0 -41 -6.5 -74.5t-23.5 -62t-46 -54t-74 -50.5z" />
    <glyph glyph-name="K" unicode="K" horiz-adv-x="600" 
d="M436 0l-236 324v-324h-130v675h130v-306l228 306h154l-249 -322l265 -353h-162z" />
    <glyph glyph-name="L" unicode="L" horiz-adv-x="454" 
d="M70 0v675h130v-562h246v-113h-376z" />
    <glyph glyph-name="M" unicode="M" horiz-adv-x="896" 
d="M732 0l-41 332q-7 57 -11 115.5t-5 104.5h-2q-9 -45 -21.5 -92t-28.5 -96l-122 -364h-121l-117 350q-15 46 -31 104t-24 98h-2q-1 -44 -4.5 -102t-9.5 -121l-35 -329h-126l81 675h181l118 -350q10 -30 19.5 -66t15.5 -71h2q8 41 16 75.5t17 61.5l118 350h183l83 -675
h-133z" />
    <glyph glyph-name="N" unicode="N" horiz-adv-x="686" 
d="M490 0h-11l-212 342q-38 62 -51.5 88.5t-27.5 57.5h-2q2 -23 3.5 -53t2.5 -57.5t2.5 -75.5t1.5 -118v-184h-126v675h126h22l199 -320q45 -75 56.5 -97t24.5 -51h2q-2 26 -4.5 77.5t-3.5 85.5t-1.5 65.5t-0.5 75.5v164h126v-675h-126z" />
    <glyph glyph-name="O" unicode="O" horiz-adv-x="713" 
d="M538 335q0 110 -46 172t-136 62q-40 0 -73 -15t-57.5 -44t-37.5 -72t-13 -97q0 -55 11.5 -98.5t34 -74t56.5 -46.5t79 -16q40 0 73.5 15t57.5 44t37.5 72t13.5 98zM677 350q0 -85 -26 -153t-71.5 -114.5t-105.5 -70t-128 -23.5q-75 0 -133.5 22.5t-97.5 66t-59 105.5
t-20 142q0 85 26 153t71.5 114.5t105.5 70t128 23.5q75 0 133.5 -22.5t97.5 -66t59 -105.5t20 -142z" />
    <glyph glyph-name="P" unicode="P" horiz-adv-x="553" 
d="M530 462q0 -52 -18 -96.5t-54 -78.5t-88 -52.5t-117 -18.5q-12 0 -23.5 0.5t-20.5 1l-9 0.5v-218h-130v675q11 0 38.5 1t70.5 2t85 1q130 0 198 -58t68 -159zM396 448q0 57 -34.5 90.5t-105.5 33.5q-32 0 -56 -1v-243q3 -1 11.5 -2t22 -2t27.5 -1q64 0 99.5 34.5
t35.5 90.5z" />
    <glyph glyph-name="Q" unicode="Q" horiz-adv-x="713" 
d="M539 335q0 110 -46.5 172t-136.5 62q-40 0 -73.5 -15t-57.5 -44t-37.5 -72t-13.5 -97q0 -55 11.5 -98.5t34.5 -74t57 -46.5t79 -16q40 0 73.5 15t58 44t38 72t13.5 98zM706 -66q-59 -8 -99.5 -2.5t-90 24t-74.5 26t-68 7.5h-28q-75 0 -133.5 22.5t-97.5 66t-59 105.5
t-20 142q0 85 26 153t71.5 114.5t105.5 70t128 23.5q75 0 133.5 -22.5t97.5 -66t59 -105.5t20 -142q0 -42 -6.5 -80t-18.5 -71t-29.5 -60t-39.5 -46.5t-47 -31.5q18 1 38.5 -4t37.5 -9t40 -6t54 2v-110z" />
    <glyph glyph-name="R" unicode="R" horiz-adv-x="575" 
d="M381 472q0 101 -122 101q-17 0 -34 -1t-25 -2v-200q7 0 23 -0.5t32 -0.5q60 0 93 27t33 76zM406 0l-170 272h-36v-272h-130v675q23 1 77.5 2.5t120.5 1.5q59 0 105 -11.5t78.5 -35t49.5 -60.5t17 -88q0 -39 -11.5 -71t-32 -55.5t-48 -39.5t-60.5 -24q7 -9 22.5 -29.5
t29.5 -43.5l146 -221h-158z" />
    <glyph glyph-name="S" unicode="S" horiz-adv-x="504" 
d="M469 198q0 -45 -17 -83.5t-50 -66.5t-81 -43.5t-109 -15.5q-87 0 -157 19v124q34 -13 78.5 -21.5t83.5 -8.5q25 0 46 5t36 15t23 26t8 38q0 30 -19.5 50t-58 37.5t-74.5 33t-66.5 37.5t-50.5 57t-20 87q0 44 17 80.5t50 62.5t81 40.5t107 14.5q27 0 58 -3.5t59 -8.5v-115
q-29 9 -62.5 14t-62.5 5q-55 0 -83.5 -20.5t-28.5 -57.5q0 -28 19.5 -47t57.5 -36t75.5 -33.5t69 -39t51.5 -58.5t20 -88z" />
    <glyph glyph-name="T" unicode="T" horiz-adv-x="510" 
d="M320 564v-564h-130v564h-175v111h480v-111h-175z" />
    <glyph glyph-name="U" unicode="U" horiz-adv-x="681" 
d="M611 262q0 -137 -72 -205t-208 -68q-77 0 -128.5 19.5t-80.5 53t-40.5 76.5t-11.5 96v441h130v-433q0 -34 6.5 -60t22 -45t43 -29.5t68.5 -10.5q76 0 109 36t33 121v421h129v-413z" />
    <glyph glyph-name="V" unicode="V" horiz-adv-x="628" 
d="M399 0h-169l-227 675h144l130 -404q11 -39 21.5 -78t18.5 -72h2q9 37 19.5 77t21.5 75l131 402h134z" />
    <glyph glyph-name="W" unicode="W" horiz-adv-x="958" 
d="M765 0h-161l-103 369q-7 26 -12.5 59t-9.5 64h-2q-12 -88 -21 -123l-101 -369h-162l-169 675h139l90 -369q9 -46 16.5 -87t12.5 -81h2q6 41 13.5 82.5t18.5 83.5l102 371h130l105 -375q11 -39 20 -81t15 -81h2q6 46 12 85t14 75l89 377h128z" />
    <glyph glyph-name="X" unicode="X" horiz-adv-x="628" 
d="M454 0l-145 248l-145 -248h-154l215 345l-202 330h151l137 -234l136 234h148l-199 -329l222 -346h-164z" />
    <glyph glyph-name="Y" unicode="Y" horiz-adv-x="561" 
d="M345 249v-249h-130v248l-217 427h143l94 -190q14 -29 25 -55t21 -52h2q10 25 22.5 53t29.5 63l90 181h138z" />
    <glyph glyph-name="Z" unicode="Z" horiz-adv-x="537" 
d="M45 0v100l243 396q15 23 24 36.5t20 27.5q-22 -1 -50 -1.5t-73 -0.5h-156v117h436v-105l-257 -405q-13 -20 -18 -28.5t-13 -18.5q8 1 26 1.5t43.5 0.5h76.5h146v-120h-448z" />
    <glyph glyph-name="bracketleft" unicode="[" horiz-adv-x="328" 
d="M71 -205v982h221v-101h-101v-778h101v-103h-221z" />
    <glyph glyph-name="backslash" unicode="\" horiz-adv-x="479" 
d="M296 0l-258 675h126l258 -675h-126z" />
    <glyph glyph-name="bracketright" unicode="]" horiz-adv-x="328" 
d="M36 -205v103h100v778h-100v101h220v-982h-220z" />
    <glyph glyph-name="asciicircum" unicode="^" 
d="M396 337l-131 247l-125 -247l-85 45l164 293h98l171 -292z" />
    <glyph glyph-name="underscore" unicode="_" 
d="M0 -246v103h550v-103h-550z" />
    <glyph glyph-name="grave" unicode="`" horiz-adv-x="350" 
d="M228 558l-163 129l70 76l150 -144z" />
    <glyph glyph-name="a" unicode="a" horiz-adv-x="524" 
d="M325 214h-46q-33 0 -56 -4.5t-36.5 -13t-19.5 -20.5t-6 -28q0 -26 16.5 -43t44.5 -17q22 0 41 9.5t33 25.5t21.5 36.5t7.5 42.5v12zM333 0q0 20 2 40t5 40l-1 1q-18 -41 -60 -66t-95 -25q-69 0 -107.5 40t-38.5 103q0 42 17 73t48.5 51.5t76.5 30t102 9.5h43v21
q0 47 -21.5 69.5t-74.5 22.5q-36 0 -76 -8.5t-75 -22.5v101q38 13 81.5 20.5t84.5 7.5q59 0 99.5 -12.5t64.5 -36t34.5 -56.5t10.5 -76v-108.5v-109.5v-109h-120z" />
    <glyph glyph-name="b" unicode="b" horiz-adv-x="559" 
d="M389 261q0 140 -85 140q-24 0 -44 -13t-34 -35.5t-21.5 -51.5t-7.5 -60v-139q29 -10 67 -10q28 0 50.5 9.5t39.5 29.5t26 52.5t9 77.5zM523 274q0 -63 -18 -115.5t-53 -90t-85 -58t-113 -20.5q-47 0 -98.5 7t-86.5 17v716h128v-214q0 -23 -2 -50.5t-6 -46.5h1
q19 41 59 64.5t91 23.5q89 0 136 -61t47 -172z" />
    <glyph glyph-name="c" unicode="c" horiz-adv-x="418" 
d="M384 7q-31 -8 -61 -12t-63 -4q-53 0 -95 14t-71 43.5t-44.5 76t-15.5 109.5q0 64 17 114.5t49 86t79 53.5t106 18q24 0 48.5 -3t46.5 -9v-117q-25 10 -48.5 15.5t-46.5 5.5q-58 0 -87.5 -40t-29.5 -113q0 -33 6.5 -59t20 -45t36.5 -29.5t55 -10.5q39 0 98 14v-108z" />
    <glyph glyph-name="d" unicode="d" horiz-adv-x="559" 
d="M362 397q-18 4 -34.5 6t-32.5 2q-58 0 -91.5 -40.5t-33.5 -128.5q0 -141 85 -141q24 0 44 13t34 36t21.5 52.5t7.5 61.5v139zM370 0q0 19 1.5 41t4.5 42h-2q-21 -43 -62 -68.5t-95 -25.5q-89 0 -135 62t-46 171q0 63 18 115t52 90t83 58.5t110 20.5q17 0 32 -1t31 -3v228
h127v-730h-119z" />
    <glyph glyph-name="e" unicode="e" horiz-adv-x="514" 
d="M350 303q2 54 -22 82t-66 28q-41 0 -68 -29t-30 -81h186zM475 293q0 -22 -1.5 -44t-2.5 -32h-307q2 -128 131 -128q73 0 156 25v-99q-39 -12 -83.5 -18.5t-86.5 -6.5q-121 0 -184 63t-63 193q0 55 15.5 103t46 83.5t74.5 55t99 19.5q53 0 92 -16t64.5 -45t37.5 -68
t12 -85z" />
    <glyph glyph-name="f" unicode="f" horiz-adv-x="354" 
d="M365 626q-8 2 -27 5t-40 3q-41 0 -58.5 -21.5t-17.5 -73.5v-42h116v-99h-116v-398h-127v398h-87v99h87v36q0 106 49.5 155.5t150.5 49.5q23 0 42.5 -2t27.5 -4v-106z" />
    <glyph glyph-name="g" unicode="g" horiz-adv-x="538" 
d="M453 398q12 -27 12 -57q0 -43 -14.5 -76.5t-41.5 -58.5t-66 -38.5t-93 -13.5h-18.5t-18.5 1q-19 -14 -19 -30q0 -14 15 -20.5t58 -8.5l70 -3q89 -4 133.5 -41.5t44.5 -107.5q0 -41 -18.5 -76.5t-53.5 -62t-84.5 -41.5t-112.5 -15q-101 0 -159.5 37t-58.5 108
q0 38 21.5 70.5t56.5 54.5q-42 25 -42 74q0 56 57 90q-38 24 -55.5 59.5t-17.5 78.5q0 39 13.5 73.5t40 59.5t66.5 39.5t94 14.5q46 0 84 -11h166v-99h-59zM205 -5v-1q-23 -15 -35.5 -35.5t-12.5 -40.5q0 -35 28.5 -55t79.5 -20q62 0 92 24.5t30 59.5q0 27 -19.5 44.5
t-65.5 19.5l-76 2zM343 329q0 38 -23 62t-64 24q-40 0 -63.5 -24t-23.5 -62t22.5 -62t64.5 -24t64.5 24t22.5 62z" />
    <glyph glyph-name="h" unicode="h" horiz-adv-x="571" 
d="M374 0v318q0 41 -14 61.5t-48 20.5q-24 0 -45 -12.5t-36.5 -35t-24.5 -52t-9 -61.5v-239h-128v730h128v-214q0 -26 -2 -53t-7 -48h2q22 43 64.5 67.5t98.5 24.5q41 0 69.5 -12t46 -33.5t25 -50t7.5 -62.5v-349h-127z" />
    <glyph glyph-name="i" unicode="i" horiz-adv-x="266" 
d="M69 0v497h128v-497h-128zM213 648q0 -32 -23.5 -54.5t-56.5 -22.5t-56 22.5t-23 54.5t23 55t56 23t56.5 -22.5t23.5 -55.5z" />
    <glyph glyph-name="j" unicode="j" horiz-adv-x="266" 
d="M213 648q0 -32 -23.5 -54.5t-56.5 -22.5t-56.5 22.5t-23.5 54.5t23.5 55t56.5 23t56.5 -22.5t23.5 -55.5zM197 -20q0 -45 -8 -80.5t-27 -63.5t-49 -49.5t-73 -39.5l-53 87q22 12 37.5 23.5t25.5 27.5t14.5 38.5t4.5 56.5v517h128v-517z" />
    <glyph glyph-name="k" unicode="k" horiz-adv-x="523" 
d="M351 0l-154 246v-246h-128v730h128v-440l145 207h150l-171 -222l190 -275h-160z" />
    <glyph glyph-name="l" unicode="l" horiz-adv-x="266" 
d="M69 0v730h128v-730h-128z" />
    <glyph glyph-name="m" unicode="m" horiz-adv-x="866" 
d="M669 0v314q0 43 -13 64.5t-46 21.5q-21 0 -41.5 -11.5t-37 -33.5t-26 -52t-9.5 -65v-238h-126v315q0 41 -12.5 63t-46.5 22q-22 0 -42.5 -12t-36.5 -34t-25.5 -52t-9.5 -64v-238h-128v497h121q0 -19 -1.5 -44t-4.5 -45l1 -1q23 46 66 73t98 27q32 0 57 -8.5t41 -22.5
t25.5 -31.5t13.5 -36.5q9 19 24 36.5t35.5 31.5t46.5 22.5t56 8.5q75 0 112 -40.5t37 -124.5v-342h-128z" />
    <glyph glyph-name="n" unicode="n" horiz-adv-x="571" 
d="M374 0v318q0 41 -14 61.5t-48 20.5q-23 0 -44 -12.5t-37 -35t-25 -51.5t-9 -61v-240h-128v497h121q0 -20 -2 -45.5t-5 -43.5h1q23 45 66.5 72t102.5 27q41 0 69.5 -12t46 -34.5t25 -52t7.5 -64.5v-344h-127z" />
    <glyph glyph-name="o" unicode="o" horiz-adv-x="553" 
d="M388 248q0 73 -29 112t-81 39q-26 0 -47 -9.5t-35.5 -28.5t-22.5 -47t-8 -65q0 -150 111 -150q51 0 81.5 37.5t30.5 111.5zM520 260q0 -58 -17 -107t-49.5 -86t-80 -57t-106.5 -20q-54 0 -97 15t-73.5 45.5t-47 77t-16.5 109.5q0 58 17 107t49.5 86t80 57t106.5 20
q113 0 173.5 -63t60.5 -184z" />
    <glyph glyph-name="p" unicode="p" horiz-adv-x="559" 
d="M389 261q0 141 -85 141q-24 0 -44 -13t-34 -36t-21.5 -52.5t-7.5 -61.5v-138q30 -9 67 -9q28 0 50.5 9.5t39.5 29.5t26 52.5t9 77.5zM523 275q0 -65 -17 -117t-50 -89t-82 -56.5t-113 -19.5q-19 0 -34 1t-30 3v-238h-128v738h119q0 -21 -1 -43t-4 -40h2q21 44 61 68.5
t95 24.5q88 0 135 -60.5t47 -171.5z" />
    <glyph glyph-name="q" unicode="q" horiz-adv-x="559" 
d="M362 398q-18 3 -34 5t-33 2q-58 0 -91.5 -40.5t-33.5 -128.5q0 -141 84 -141q24 0 44.5 13t34.5 36.5t21.5 53t7.5 62.5v138zM362 -241v225q0 25 1.5 49.5t5.5 46.5l-2 1q-20 -43 -59 -67.5t-88 -24.5q-90 0 -137 59.5t-47 173.5q0 63 18 115.5t52.5 90t85 58t115.5 20.5
q50 0 94.5 -4t87.5 -11v-732h-127z" />
    <glyph glyph-name="r" unicode="r" horiz-adv-x="355" 
d="M338 382q-141 27 -141 -179v-203h-128v497h121q0 -20 -2.5 -47.5t-6.5 -52.5h2q10 25 23.5 46t32 36.5t43.5 23t56 4.5v-125z" />
    <glyph glyph-name="s" unicode="s" horiz-adv-x="417" 
d="M378 151q0 -34 -13 -63.5t-40 -51.5t-67 -34t-93 -12q-30 0 -58 3t-55 9v107q27 -9 57.5 -14.5t60.5 -5.5q37 0 56 13t19 37q0 20 -13.5 32.5t-38.5 23t-52.5 22t-49.5 27t-36 42.5t-14 66q0 33 12.5 61t38.5 49.5t65.5 33.5t90.5 12q21 0 44 -2t47 -6v-102
q-20 6 -46 9.5t-49 3.5q-35 0 -53.5 -12.5t-18.5 -34.5q0 -19 13.5 -31.5t38.5 -22.5t53.5 -22t50.5 -28t36 -43t14 -66z" />
    <glyph glyph-name="t" unicode="t" horiz-adv-x="375" 
d="M340 3q-26 -6 -51.5 -9.5t-48.5 -3.5q-43 0 -71 8.5t-44.5 26.5t-24 48t-7.5 76v249h-85v99h85v153l128 34v-187h119v-99h-119v-225q0 -44 12 -60t43 -16q26 0 64 8v-102z" />
    <glyph glyph-name="u" unicode="u" horiz-adv-x="570" 
d="M381 0q0 23 1.5 47.5t4.5 41.5h-1q-24 -46 -67 -72.5t-102 -26.5q-41 0 -69.5 12t-46 33.5t-25 50t-7.5 62.5v349h127v-318q0 -41 14 -61.5t48 -20.5q24 0 45 12.5t37 35t24.5 51.5t8.5 61v240h128v-497h-120z" />
    <glyph glyph-name="v" unicode="v" horiz-adv-x="506" 
d="M328 0h-152l-171 497h138l80 -240q11 -38 18.5 -66.5t13.5 -57.5h2q6 31 13.5 60.5t16.5 62.5l78 241h135z" />
    <glyph glyph-name="w" unicode="w" horiz-adv-x="796" 
d="M632 0h-143l-71 226q-8 30 -15 59.5t-12 56.5h-1q-6 -29 -13.5 -59t-18.5 -72l-62 -211h-137l-149 497h141l56 -207l14.5 -58t19.5 -84h1q7 35 15.5 72.5t17.5 70.5l62 206h127l63 -206q12 -43 20.5 -77t14.5 -67h2q5 32 13 64.5t20 78.5l58 207h130z" />
    <glyph glyph-name="x" unicode="x" horiz-adv-x="528" 
d="M356 0l-96 167l-96 -167h-143h-10l171 251l-161 246h10h143l96 -164l97 164h131h11l-156 -245l164 -252h-10h-151z" />
    <glyph glyph-name="y" unicode="y" horiz-adv-x="502" 
d="M313 -18q-23 -62 -48 -118.5t-51 -104.5h-140q34 57 60.5 111t44.5 106l9 24l-183 497h144l67 -195q11 -35 21 -70t20 -73h1q9 37 20.5 77t24.5 82l58 179h137z" />
    <glyph glyph-name="z" unicode="z" horiz-adv-x="450" 
d="M45 0v91l200 293q-16 -1 -44 -1.5t-62 -0.5h-88v115h348v-91l-196 -290q14 1 43 1h70h87v-117h-358z" />
    <glyph glyph-name="braceleft" unicode="{" horiz-adv-x="362" 
d="M306 -205q-97 0 -139.5 53t-42.5 170v135q0 60 -23.5 84.5t-76.5 27.5v96q27 2 45.5 7.5t30.5 17t18 32t6 51.5v87q0 112 42.5 166.5t139.5 54.5h21v-101q-25 0 -41 -5t-25.5 -18t-13.5 -35.5t-4 -59.5v-86q0 -76 -23.5 -113t-68.5 -45v-2q43 -6 67.5 -45.5t24.5 -115.5
v-134q0 -37 4 -60t13.5 -36t25.5 -18t41 -5v-103h-21z" />
    <glyph glyph-name="bar" unicode="|" horiz-adv-x="288" 
d="M91 -241v1000h102v-1000h-102z" />
    <glyph glyph-name="braceright" unicode="}" horiz-adv-x="362" 
d="M338 265q-53 -3 -76.5 -27.5t-23.5 -84.5v-135q0 -117 -42.5 -170t-139.5 -53h-21v103q25 0 41 5t25.5 18t13.5 36t4 60v134q0 76 24.5 115.5t67.5 45.5v2q-44 6 -68 43.5t-24 111.5v89q0 37 -4 59.5t-13.5 35.5t-25.5 18t-41 5v101h21q97 0 139.5 -54.5t42.5 -166.5v-84
q0 -32 6 -53t18 -33t30.5 -17.5t45.5 -7.5v-96z" />
    <glyph glyph-name="asciitilde" unicode="~" 
d="M509 566q0 -72 -41 -116t-110 -44q-38 0 -64 14t-49.5 44t-35 38t-25.5 8q-24 0 -35 -20t-12 -60h-95v18q0 72 41 116t110 44q35 0 62.5 -14t51 -44.5t35 -38.5t25.5 -8q24 0 35 20t12 61h95v-18z" />
    <glyph glyph-name="uni00A0" unicode="&#xa0;" horiz-adv-x="218" 
 />
    <glyph glyph-name="exclamdown" unicode="&#xa1;" horiz-adv-x="321" 
d="M227 -211h-150l19 520h110zM231 432q0 -32 -22 -54t-56 -22q-33 0 -55.5 22t-22.5 54t22.5 54t55.5 22q34 0 56 -22t22 -54z" />
    <glyph glyph-name="cent" unicode="&#xa2;" horiz-adv-x="454" 
d="M407 122q-20 -7 -42.5 -12t-45.5 -7v-127h-96v127q-45 6 -79 24.5t-56.5 49.5t-34 71.5t-11.5 89.5q0 47 12 88t35.5 73.5t57 54t76.5 29.5v111h96v-104q23 -2 44 -5t40 -8v-110q-59 19 -104 19q-59 0 -91.5 -37t-32.5 -104q0 -30 7 -54.5t21.5 -42.5t38 -28t56.5 -10
q27 0 53 5.5t56 15.5v-109z" />
    <glyph glyph-name="sterling" unicode="&#xa3;" horiz-adv-x="476" 
d="M42 0v89q24 17 40.5 33.5t27 34.5t15.5 38.5t5 44.5q0 14 -0.5 27.5t-3.5 33.5h-97v98h86q-5 31 -8 55.5t-3 45.5q0 91 53 139t151 48q23 0 49 -2.5t51 -7.5v-110q-25 7 -49 11t-44 4q-39 0 -60.5 -20.5t-21.5 -61.5q0 -15 2.5 -36.5l7.5 -64.5h135v-98h-123q2 -20 2 -49
q0 -23 -4 -43t-12 -38t-20.5 -34.5t-30.5 -31.5q17 3 48.5 4.5t58.5 1.5h154v-111h-409z" />
    <glyph glyph-name="currency" unicode="&#xa4;" 
d="M361 334q0 47 -20 73t-67 26q-34 0 -59.5 -25.5t-25.5 -76.5q0 -45 20 -74.5t66 -29.5q33 0 59.5 25.5t26.5 81.5zM417 47l-77 103q-35 -16 -74 -16q-16 0 -29.5 2.5t-25.5 6.5l-69 -95l-99 70l68 85q-16 23 -25 53t-9 70q0 73 39 123l-72 92l97 69l71 -97q32 13 72 13
q16 0 32.5 -2.5t31.5 -8.5l70 96l97 -71l-71 -89q14 -20 21.5 -48.5t7.5 -66.5q0 -35 -10 -65.5t-27 -53.5l79 -99z" />
    <glyph glyph-name="yen" unicode="&#xa5;" horiz-adv-x="601" 
d="M364 74v-74h-129v74h-155v80h155v71h-155v80h155v14l-214 356h145l84 -150q11 -21 26 -49.5t25 -50.5h1q15 30 28.5 56.5t26.5 48.5l83 145h139l-215 -356v-14h155v-80h-155v-71h155v-80h-155z" />
    <glyph glyph-name="brokenbar" unicode="&#xa6;" horiz-adv-x="288" 
d="M91 -241v378h102v-378h-102zM91 391v368h102v-368h-102z" />
    <glyph glyph-name="section" unicode="&#xa7;" horiz-adv-x="530" 
d="M342 230q0 24 -11 45t-29.5 41.5t-42.5 42t-51 47.5q-17 -13 -24.5 -30t-7.5 -34q0 -22 9 -41.5t26 -39.5t42 -43t57 -51q17 12 24.5 29t7.5 34zM458 247q0 -44 -21 -81.5t-56 -63.5q17 -21 27 -46.5t10 -57.5q0 -31 -12 -60.5t-39 -53t-70 -37.5t-104 -14q-17 0 -40 2.5
t-43 7.5l8 107q40 -12 77 -12q45 0 65.5 17.5t20.5 43.5q0 23 -16.5 43.5t-41 41.5t-53 45t-53 52.5t-41 63.5t-16.5 80t20.5 82t55.5 63q-18 23 -27.5 47.5t-9.5 56.5q0 33 11.5 62.5t37 52t65 36t96.5 13.5q20 0 41.5 -1.5t40.5 -6.5l-7 -106q-34 10 -71 10
q-41 0 -59 -14.5t-18 -41.5q0 -22 16.5 -42.5t41 -42.5t53.5 -46.5t53.5 -54t41 -65.5t16.5 -80z" />
    <glyph glyph-name="dieresis" unicode="&#xa8;" horiz-adv-x="471" 
d="M203 648q0 -29 -20 -49t-49 -20t-49 20t-20 49t20 49t49 20t49 -20t20 -49zM406 648q0 -29 -20 -49t-49 -20t-49 20t-20 49t20 49t49 20t49 -20t20 -49z" />
    <glyph glyph-name="copyright" unicode="&#xa9;" horiz-adv-x="762" 
d="M471 171q-44 -14 -94 -14q-80 0 -120 44.5t-40 126.5q0 41 12 75t34.5 58.5t55 37.5t72.5 13q21 0 40.5 -2.5t36.5 -6.5v-90q-17 8 -35.5 12t-36.5 4q-37 0 -55 -25.5t-18 -71.5q0 -87 74 -87q16 0 35 3.5t39 9.5v-87zM625 333q0 50 -19 95t-52.5 79.5t-78.5 53.5t-95 19
t-95 -19t-79 -53t-53 -79t-19 -95t19 -95t53 -79.5t79 -53.5t95 -19t95 19t78.5 53t52.5 79t19 95zM722 334q0 -70 -26.5 -132.5t-73.5 -109.5t-109.5 -73.5t-132.5 -26.5q-71 0 -133.5 26t-109.5 73.5t-73 109.5t-26 132t26.5 132.5t73.5 109.5t109.5 73.5t132.5 26.5
t132.5 -26.5t109.5 -73.5t73.5 -109t26.5 -132z" />
    <glyph glyph-name="ordfeminine" unicode="&#xaa;" horiz-adv-x="403" 
d="M240 476h-25q-40 0 -59 -10t-19 -35q0 -15 10.5 -25.5t27.5 -10.5q15 0 28 7t21 18t12 23.5t4 23.5v9zM45 176v93h312v-93h-312zM246 325q0 12 1 25t3 24h-1q-13 -27 -40.5 -41.5t-63.5 -14.5q-48 0 -77 28t-29 75q0 30 12.5 53t32.5 36.5t53.5 22.5t80.5 9h22v11
q0 9 -2.5 18.5t-8.5 17t-19 13t-33 5.5q-26 0 -54 -5.5t-55 -17.5v81q23 8 58 14t64 6q48 0 75.5 -9.5t44.5 -26t24.5 -37.5t7.5 -51v-151v-36v-31.5v-17.5h-96z" />
    <glyph glyph-name="guillemotleft" unicode="&#xab;" horiz-adv-x="534" 
d="M149 98l-107 194l110 197l98 -45l-85 -151l87 -149zM377 103l-118 189l120 192l96 -46l-92 -145l94 -143z" />
    <glyph glyph-name="logicalnot" unicode="&#xac;" 
d="M376 95v149h-337v107h450v-256h-113z" />
    <glyph glyph-name="registered" unicode="&#xae;" horiz-adv-x="564" 
d="M306 573q0 24 -30 24h-16v-51h11q18 0 26.5 8t8.5 19zM305 420l-38 85h-7v-85h-60v223h93q42 0 60.5 -17t18.5 -45q0 -26 -12.5 -41.5t-32.5 -21.5q9 -11 17 -27l33 -71h-72zM438 530q0 32 -12.5 61t-33.5 50.5t-49.5 34t-60.5 12.5q-33 0 -61.5 -12.5t-49.5 -33.5
t-33.5 -49.5t-12.5 -61.5q0 -32 12.5 -61t33.5 -50.5t49.5 -34t61.5 -12.5q32 0 60.5 12.5t49.5 33.5t33.5 49.5t12.5 61.5zM516 530q0 -48 -18.5 -90t-50.5 -73t-74.5 -49t-90.5 -18q-49 0 -92 18t-74.5 49t-49.5 73t-18 90t18.5 90.5t50 73.5t74.5 49t91 18
q49 0 91.5 -17.5t74 -48.5t50 -73.5t18.5 -91.5z" />
    <glyph glyph-name="macron" unicode="&#xaf;" horiz-adv-x="400" 
d="M65 600v92h270v-92h-270z" />
    <glyph glyph-name="macron" unicode="&#x2c9;" horiz-adv-x="400" 
d="M65 600v92h270v-92h-270z" />
    <glyph glyph-name="degree" unicode="&#xb0;" horiz-adv-x="388" 
d="M245 604q0 20 -12.5 39t-40.5 19q-24 0 -39.5 -16.5t-15.5 -43.5q0 -28 15 -43.5t39 -15.5q25 0 39.5 17t14.5 44zM340 604q0 -35 -13 -61.5t-34.5 -44.5t-49.5 -27t-57 -9q-67 0 -105.5 37t-38.5 102q0 33 13 59.5t34.5 44.5t48.5 27.5t55 9.5q39 0 67 -11t45.5 -30
t26 -44t8.5 -53z" />
    <glyph glyph-name="plusminus" unicode="&#xb1;" 
d="M43 0v107h464v-107h-464zM336 346v-183h-122v183h-175v106h175v182h122v-182h175v-106h-175z" />
    <glyph glyph-name="twosuperior" unicode="&#xb2;" horiz-adv-x="386" 
d="M37 347v93l96 95q40 39 56.5 65.5t16.5 49.5q0 26 -15.5 41.5t-47.5 15.5q-22 0 -44.5 -6t-49.5 -18v93q28 11 61 18t65 7q77 0 117.5 -34t40.5 -97q0 -24 -6 -45.5t-17.5 -41.5t-28 -39.5t-39.5 -41.5l-61 -59q29 2 74.5 3t94.5 1v-100h-313z" />
    <glyph glyph-name="threesuperior" unicode="&#xb3;" horiz-adv-x="377" 
d="M335 487q0 -68 -54.5 -108t-151.5 -40q-23 0 -48 2t-45 6v87q21 -6 45.5 -9.5t44.5 -3.5q44 0 65 16t21 42q0 33 -36 47.5t-115 7.5v78q71 0 105 16t34 46q0 22 -16 34t-48 12q-19 0 -45 -4.5t-49 -12.5v80q24 8 57 13t64 5q75 0 116 -29t41 -84q0 -35 -19 -59t-51 -38
q43 -13 64 -40.5t21 -63.5z" />
    <glyph glyph-name="acute" unicode="&#xb4;" horiz-adv-x="350" 
d="M122 558l-57 61l150 144l70 -75z" />
    <glyph glyph-name="mu1" unicode="&#xb5;" horiz-adv-x="582" 
d="M556 -4q-28 -5 -51 -5q-32 0 -53.5 7t-34.5 20t-18.5 30t-6.5 39h-1q-19 -44 -55 -69t-87 -25q-43 0 -64 23l15 -257h-131v738h128v-322q0 -78 61 -78q25 0 46.5 11.5t37 33.5t24 51.5t8.5 65.5v238h127v-318q0 -26 2.5 -42t8.5 -24.5t16.5 -12t27.5 -3.5v-101z" />
    <glyph glyph-name="paragraph" unicode="&#xb6;" horiz-adv-x="595" 
d="M293 231q-60 0 -105.5 17t-75 48t-44 71.5t-14.5 86.5q0 50 17.5 90.5t49.5 70t76 45t96 15.5v-444zM479 573v-669h-179v102h70v669h174v-102h-65z" />
    <glyph glyph-name="periodcentered" unicode="&#xb7;" horiz-adv-x="269" 
d="M218 298q0 -34 -24.5 -58.5t-58.5 -24.5q-35 0 -59 24.5t-24 58.5t24.5 58.5t58.5 24.5t58.5 -24.5t24.5 -58.5z" />
    <glyph glyph-name="periodcentered" unicode="&#x2219;" horiz-adv-x="269" 
d="M218 298q0 -34 -24.5 -58.5t-58.5 -24.5q-35 0 -59 24.5t-24 58.5t24.5 58.5t58.5 24.5t58.5 -24.5t24.5 -58.5z" />
    <glyph glyph-name="cedilla" unicode="&#xb8;" horiz-adv-x="279" 
d="M182 -40q37 -51 30.5 -100t-50.5 -94h-97q38 45 42 81.5t-31 79.5z" />
    <glyph glyph-name="onesuperior" unicode="&#xb9;" horiz-adv-x="306" 
d="M239 347h-120v343l-96 -32v94l114 40h102v-445z" />
    <glyph glyph-name="ordmasculine" unicode="&#xba;" horiz-adv-x="426" 
d="M283 502q0 46 -18 70.5t-52 24.5q-32 0 -51 -24.5t-19 -71.5q0 -23 4.5 -41t13.5 -30t22 -18.5t29 -6.5q33 0 52 25t19 72zM54 176v93h318v-93h-318zM386 509q0 -41 -12 -76t-35 -61t-56.5 -40.5t-76.5 -14.5q-38 0 -69 10.5t-53 32.5t-33.5 55t-11.5 78q0 41 12 76
t35.5 61.5t57 41t76.5 14.5q38 0 68.5 -10.5t52.5 -32.5t33.5 -55.5t11.5 -78.5z" />
    <glyph glyph-name="guillemotright" unicode="&#xbb;" horiz-adv-x="534" 
d="M154 103l-96 46l93 145l-94 143l100 47l118 -189zM382 98l-99 45l86 151l-87 149l103 46l107 -194z" />
    <glyph glyph-name="onequarter" unicode="&#xbc;" horiz-adv-x="833" 
d="M239 347h-120v343l-96 -32v94l114 40h102v-445zM105 -139l-79 55l645 895l78 -55zM750 -27v-93h-117v93h-203l-7 80l154 272h173v-260h59v-92h-59zM633 253l-107 -191q10 1 24.5 1.5t30 0.5h27.5h25v189z" />
    <glyph glyph-name="onehalf" unicode="&#xbd;" horiz-adv-x="866" 
d="M239 347h-120v343l-96 -32v94l114 40h102v-445zM105 -139l-79 55l645 895l78 -55zM517 -120v93l96 95q40 39 56.5 65.5t16.5 49.5q0 26 -15.5 41.5t-47.5 15.5q-22 0 -44.5 -6t-49.5 -18v93q28 11 61 18t65 7q77 0 117.5 -34t40.5 -97q0 -24 -6 -45.5t-17.5 -41.5
t-28 -39.5t-39.5 -41.5l-61 -59q29 2 74.5 3t94.5 1v-100h-313z" />
    <glyph glyph-name="threequarters" unicode="&#xbe;" horiz-adv-x="877" 
d="M149 -139l-79 55l645 895l78 -55zM335 487q0 -68 -54.5 -108t-151.5 -40q-23 0 -48 2t-45 6v87q21 -6 45.5 -9.5t44.5 -3.5q44 0 65 16t21 42q0 33 -36 47.5t-115 7.5v78q71 0 105 16t34 46q0 22 -16 34t-48 12q-19 0 -45 -4.5t-49 -12.5v80q24 8 57 13t64 5
q75 0 116 -29t41 -84q0 -35 -19 -59t-51 -38q43 -13 64 -40.5t21 -63.5zM794 -27v-93h-117v93h-203l-7 80l154 272h173v-260h59v-92h-59zM677 253l-107 -191q10 1 24.5 1.5t30 0.5h27.5h25v189z" />
    <glyph glyph-name="questiondown" unicode="&#xbf;" horiz-adv-x="451" 
d="M384 -220q-90 0 -155 17t-105 46t-58.5 65t-18.5 75t13 68.5t30 48.5t47 47t45.5 48.5t20.5 48.5t-6 65h125q15 -45 12.5 -79.5t-17 -60t-40.5 -50.5t-45.5 -43t-32 -37t-12.5 -43q0 -45 45.5 -72t151.5 -27v-117zM336 432q0 -32 -22.5 -54t-55.5 -22t-55.5 22t-22.5 54
t22.5 54t55.5 22t55.5 -22t22.5 -54z" />
    <glyph glyph-name="Agrave" unicode="&#xc0;" horiz-adv-x="626" 
d="M335 458q-8 26 -15 51.5t-12 49.5h-2q-5 -24 -12 -50t-14 -50l-70 -212h195zM480 0l-46 144h-254l-47 -144h-131l226 675h169l227 -675h-144zM372 716l-216 53l30 92l207 -75z" />
    <glyph glyph-name="Aacute" unicode="&#xc1;" horiz-adv-x="626" 
d="M335 458q-8 26 -15 51.5t-12 49.5h-2q-5 -24 -12 -50t-14 -50l-70 -212h195zM480 0l-46 144h-254l-47 -144h-131l226 675h169l227 -675h-144zM243 716l-21 70l208 75l29 -92z" />
    <glyph glyph-name="Acircumflex" unicode="&#xc2;" horiz-adv-x="626" 
d="M335 458q-8 26 -15 51.5t-12 49.5h-2q-5 -24 -12 -50t-14 -50l-70 -212h195zM480 0l-46 144h-254l-47 -144h-131l226 675h169l227 -675h-144zM446 715l-136 55l-137 -55l-29 66l168 84l164 -83z" />
    <glyph glyph-name="Atilde" unicode="&#xc3;" horiz-adv-x="626" 
d="M335 458q-8 26 -15 51.5t-12 49.5h-2q-5 -24 -12 -50t-14 -50l-70 -212h195zM480 0l-46 144h-254l-47 -144h-131l226 675h169l227 -675h-144zM499 810q-46 -82 -126 -82q-23 0 -40 6.5t-37 19t-28.5 17t-21.5 4.5q-33 0 -58 -43l-64 44q46 82 126 82q23 0 40.5 -6.5
t37 -19t28.5 -17t22 -4.5q17 0 31 10.5t26 31.5z" />
    <glyph glyph-name="Adieresis" unicode="&#xc4;" horiz-adv-x="626" 
d="M335 458q-8 26 -15 51.5t-12 49.5h-2q-5 -24 -12 -50t-14 -50l-70 -212h195zM480 0l-46 144h-254l-47 -144h-131l226 675h169l227 -675h-144zM486 788q0 -29 -20 -49t-49 -20t-49 20t-20 49t20 49t49 20t49 -20t20 -49zM270 788q0 -29 -20 -49t-49 -20t-49 20t-20 49
t20 49t49 20t49 -20t20 -49z" />
    <glyph glyph-name="Aring" unicode="&#xc5;" horiz-adv-x="626" 
d="M335 458q-8 26 -15 51.5t-12 49.5h-2q-5 -24 -12 -50t-14 -50l-70 -212h195zM480 0l-46 144h-254l-47 -144h-131l226 675h169l227 -675h-144zM447 828q0 -54 -38.5 -87t-99.5 -33q-62 0 -95.5 28t-33.5 83q0 54 39 87t100 33t94.5 -28t33.5 -83zM361 823q0 53 -47 53
q-21 0 -34 -13.5t-13 -38.5q0 -53 46 -53q21 0 34.5 13.5t13.5 38.5z" />
    <glyph glyph-name="AE" unicode="&#xc6;" horiz-adv-x="848" 
d="M385 567h-23q-14 -36 -28.5 -69.5t-33.5 -72.5l-89 -174h174v316zM385 0v149h-218l-72 -149h-133l334 675h494v-109h-278v-167h255v-104h-255v-183h280v-112h-407z" />
    <glyph glyph-name="Ccedilla" unicode="&#xc7;" horiz-adv-x="566" 
d="M516 15q-41 -11 -83 -17t-87 -6q-84 0 -143.5 25.5t-95.5 70t-52.5 103.5t-16.5 128q0 80 21.5 146t63.5 114.5t105 75t144 26.5q35 0 70 -4.5t69 -13.5v-130q-77 32 -147 32q-47 0 -82 -17t-57.5 -48.5t-33 -74t-10.5 -94.5q0 -108 47 -165t142 -57q34 0 73 6.5t73 17.5
v-118zM363 -40q37 -51 30.5 -100t-50.5 -94h-97q38 45 42 81.5t-31 79.5z" />
    <glyph glyph-name="Egrave" unicode="&#xc8;" horiz-adv-x="536" 
d="M70 0v675h407v-109h-277v-167h255v-104h-255v-183h280v-112h-410zM320 716l-216 53l30 92l207 -75z" />
    <glyph glyph-name="Eacute" unicode="&#xc9;" horiz-adv-x="536" 
d="M70 0v675h407v-109h-277v-167h255v-104h-255v-183h280v-112h-410zM206 716l-21 70l208 75l29 -92z" />
    <glyph glyph-name="Ecircumflex" unicode="&#xca;" horiz-adv-x="536" 
d="M70 0v675h407v-109h-277v-167h255v-104h-255v-183h280v-112h-410zM408 715l-136 55l-137 -55l-29 66l168 84l164 -83z" />
    <glyph glyph-name="Edieresis" unicode="&#xcb;" horiz-adv-x="536" 
d="M70 0v675h407v-109h-277v-167h255v-104h-255v-183h280v-112h-410zM449 788q0 -29 -20 -49t-49 -20t-49 20t-20 49t20 49t49 20t49 -20t20 -49zM233 788q0 -29 -20 -49t-49 -20t-49 20t-20 49t20 49t49 20t49 -20t20 -49z" />
    <glyph glyph-name="Igrave" unicode="&#xcc;" horiz-adv-x="270" 
d="M70 0v675h130v-675h-130zM197 716l-216 53l30 92l207 -75z" />
    <glyph glyph-name="Iacute" unicode="&#xcd;" horiz-adv-x="270" 
d="M70 0v675h130v-675h-130zM74 716l-21 70l208 75l29 -92z" />
    <glyph glyph-name="Icircumflex" unicode="&#xce;" horiz-adv-x="270" 
d="M70 0v675h130v-675h-130zM271 715l-136 55l-137 -55l-29 66l168 84l164 -83z" />
    <glyph glyph-name="Idieresis" unicode="&#xcf;" horiz-adv-x="270" 
d="M70 0v675h130v-675h-130zM305 788q0 -29 -20 -49t-49 -20t-49 20t-20 49t20 49t49 20t49 -20t20 -49zM103 788q0 -29 -20 -49t-49 -20t-49 20t-20 49t20 49t49 20t49 -20t20 -49z" />
    <glyph glyph-name="Eth" unicode="&#xd0;" horiz-adv-x="676" 
d="M499 339q0 57 -12 99.5t-37 72t-65.5 44.5t-97.5 15q-23 0 -43.5 -1t-35.5 -2v-170h122v-99h-122v-186q14 -2 33 -3.5t38 -1.5q49 0 89.5 14t69.5 43t45 73t16 102zM639 349q0 -83 -25.5 -149t-74.5 -111.5t-118 -69t-154 -23.5q-44 0 -53.5 0.5t-134.5 4.5v297h-75v99
h75v277q66 2 117.5 3.5t101.5 1.5q81 0 143.5 -19t107 -59t67.5 -103t23 -149z" />
    <glyph glyph-name="Ntilde" unicode="&#xd1;" horiz-adv-x="686" 
d="M490 0h-11l-212 342q-38 62 -51.5 88.5t-27.5 57.5h-2q2 -23 3.5 -53t2.5 -57.5t2.5 -75.5t1.5 -118v-184h-126v675h126h22l199 -320q45 -75 56.5 -97t24.5 -51h2q-2 26 -4.5 77.5t-3.5 85.5t-1.5 65.5t-0.5 75.5v164h126v-675h-126zM536 810q-46 -82 -126 -82
q-23 0 -40 6.5t-37 19t-28.5 17t-21.5 4.5q-33 0 -58 -43l-64 44q46 82 126 82q23 0 40.5 -6.5t37 -19t28.5 -17t22 -4.5q17 0 31 10.5t26 31.5z" />
    <glyph glyph-name="Ograve" unicode="&#xd2;" horiz-adv-x="713" 
d="M538 335q0 110 -46 172t-136 62q-40 0 -73 -15t-57.5 -44t-37.5 -72t-13 -97q0 -55 11.5 -98.5t34 -74t56.5 -46.5t79 -16q40 0 73.5 15t57.5 44t37.5 72t13.5 98zM677 350q0 -85 -26 -153t-71.5 -114.5t-105.5 -70t-128 -23.5q-75 0 -133.5 22.5t-97.5 66t-59 105.5
t-20 142q0 85 26 153t71.5 114.5t105.5 70t128 23.5q75 0 133.5 -22.5t97.5 -66t59 -105.5t20 -142zM417 716l-216 53l30 92l207 -75z" />
    <glyph glyph-name="Oacute" unicode="&#xd3;" horiz-adv-x="713" 
d="M538 335q0 110 -46 172t-136 62q-40 0 -73 -15t-57.5 -44t-37.5 -72t-13 -97q0 -55 11.5 -98.5t34 -74t56.5 -46.5t79 -16q40 0 73.5 15t57.5 44t37.5 72t13.5 98zM677 350q0 -85 -26 -153t-71.5 -114.5t-105.5 -70t-128 -23.5q-75 0 -133.5 22.5t-97.5 66t-59 105.5
t-20 142q0 85 26 153t71.5 114.5t105.5 70t128 23.5q75 0 133.5 -22.5t97.5 -66t59 -105.5t20 -142zM302 716l-21 70l208 75l29 -92z" />
    <glyph glyph-name="Ocircumflex" unicode="&#xd4;" horiz-adv-x="713" 
d="M538 335q0 110 -46 172t-136 62q-40 0 -73 -15t-57.5 -44t-37.5 -72t-13 -97q0 -55 11.5 -98.5t34 -74t56.5 -46.5t79 -16q40 0 73.5 15t57.5 44t37.5 72t13.5 98zM677 350q0 -85 -26 -153t-71.5 -114.5t-105.5 -70t-128 -23.5q-75 0 -133.5 22.5t-97.5 66t-59 105.5
t-20 142q0 85 26 153t71.5 114.5t105.5 70t128 23.5q75 0 133.5 -22.5t97.5 -66t59 -105.5t20 -142zM500 715l-136 55l-137 -55l-29 66l168 84l164 -83z" />
    <glyph glyph-name="Otilde" unicode="&#xd5;" horiz-adv-x="713" 
d="M538 335q0 110 -46 172t-136 62q-40 0 -73 -15t-57.5 -44t-37.5 -72t-13 -97q0 -55 11.5 -98.5t34 -74t56.5 -46.5t79 -16q40 0 73.5 15t57.5 44t37.5 72t13.5 98zM677 350q0 -85 -26 -153t-71.5 -114.5t-105.5 -70t-128 -23.5q-75 0 -133.5 22.5t-97.5 66t-59 105.5
t-20 142q0 85 26 153t71.5 114.5t105.5 70t128 23.5q75 0 133.5 -22.5t97.5 -66t59 -105.5t20 -142zM545 810q-46 -82 -126 -82q-23 0 -40 6.5t-37 19t-28.5 17t-21.5 4.5q-33 0 -58 -43l-64 44q46 82 126 82q23 0 40.5 -6.5t37 -19t28.5 -17t22 -4.5q17 0 31 10.5t26 31.5z
" />
    <glyph glyph-name="Odieresis" unicode="&#xd6;" horiz-adv-x="713" 
d="M538 335q0 110 -46 172t-136 62q-40 0 -73 -15t-57.5 -44t-37.5 -72t-13 -97q0 -55 11.5 -98.5t34 -74t56.5 -46.5t79 -16q40 0 73.5 15t57.5 44t37.5 72t13.5 98zM677 350q0 -85 -26 -153t-71.5 -114.5t-105.5 -70t-128 -23.5q-75 0 -133.5 22.5t-97.5 66t-59 105.5
t-20 142q0 85 26 153t71.5 114.5t105.5 70t128 23.5q75 0 133.5 -22.5t97.5 -66t59 -105.5t20 -142zM536 788q0 -29 -20 -49t-49 -20t-49 20t-20 49t20 49t49 20t49 -20t20 -49zM320 788q0 -29 -20 -49t-49 -20t-49 20t-20 49t20 49t49 20t49 -20t20 -49z" />
    <glyph glyph-name="multiply" unicode="&#xd7;" 
d="M425 69l-154 154l-154 -154l-70 70l154 154l-154 154l78 78l154 -154l154 154l70 -70l-154 -154l154 -154z" />
    <glyph glyph-name="Oslash" unicode="&#xd8;" horiz-adv-x="713" 
d="M212 166l206 395q-12 6 -29 9t-33 3q-41 0 -75.5 -15t-59.5 -44.5t-38.5 -73t-13.5 -99.5q0 -32 4 -59t10.5 -48.5t13.5 -37t15 -30.5zM501 509q-48 -92 -82 -157.5t-67.5 -129.5t-56.5 -108q13 -5 29.5 -8.5t31.5 -3.5q41 0 75.5 15t60 45t39 73.5t13.5 99.5
q0 59 -12.5 100t-30.5 74zM616 730l-52 -101q55 -40 84 -110t29 -169q0 -85 -26 -153t-71.5 -114.5t-105.5 -70t-128 -23.5q-29 0 -56.5 4t-50.5 12l-52 -102l-90 42l52 101q-27 20 -48 47t-35.5 62t-22 77.5t-7.5 92.5q0 85 26 153t71.5 114.5t105.5 70t128 23.5
q29 0 56.5 -4t50.5 -12l52 102z" />
    <glyph glyph-name="Ugrave" unicode="&#xd9;" horiz-adv-x="681" 
d="M611 262q0 -137 -72 -205t-208 -68q-77 0 -128.5 19.5t-80.5 53t-40.5 76.5t-11.5 96v441h130v-433q0 -34 6.5 -60t22 -45t43 -29.5t68.5 -10.5q76 0 109 36t33 121v421h129v-413zM380 716l-216 53l30 92l207 -75z" />
    <glyph glyph-name="Uacute" unicode="&#xda;" horiz-adv-x="681" 
d="M611 262q0 -137 -72 -205t-208 -68q-77 0 -128.5 19.5t-80.5 53t-40.5 76.5t-11.5 96v441h130v-433q0 -34 6.5 -60t22 -45t43 -29.5t68.5 -10.5q76 0 109 36t33 121v421h129v-413zM318 716l-21 70l208 75l29 -92z" />
    <glyph glyph-name="Ucircumflex" unicode="&#xdb;" horiz-adv-x="681" 
d="M611 262q0 -137 -72 -205t-208 -68q-77 0 -128.5 19.5t-80.5 53t-40.5 76.5t-11.5 96v441h130v-433q0 -34 6.5 -60t22 -45t43 -29.5t68.5 -10.5q76 0 109 36t33 121v421h129v-413zM479 715l-136 55l-137 -55l-29 66l168 84l164 -83z" />
    <glyph glyph-name="Udieresis" unicode="&#xdc;" horiz-adv-x="681" 
d="M611 262q0 -137 -72 -205t-208 -68q-77 0 -128.5 19.5t-80.5 53t-40.5 76.5t-11.5 96v441h130v-433q0 -34 6.5 -60t22 -45t43 -29.5t68.5 -10.5q76 0 109 36t33 121v421h129v-413zM517 788q0 -29 -20 -49t-49 -20t-49 20t-20 49t20 49t49 20t49 -20t20 -49zM301 788
q0 -29 -20 -49t-49 -20t-49 20t-20 49t20 49t49 20t49 -20t20 -49z" />
    <glyph glyph-name="Yacute" unicode="&#xdd;" horiz-adv-x="561" 
d="M345 249v-249h-130v248l-217 427h143l94 -190q14 -29 25 -55t21 -52h2q10 25 22.5 53t29.5 63l90 181h138zM251 716l-21 70l208 75l29 -92z" />
    <glyph glyph-name="Thorn" unicode="&#xde;" horiz-adv-x="545" 
d="M396 354q0 57 -34.5 90.5t-105.5 33.5q-16 0 -32 -0.5t-24 -1.5v-243q8 -1 25 -2.5t36 -1.5q64 0 99.5 34.5t35.5 90.5zM530 368q0 -52 -18 -96.5t-54 -78.5t-88 -52.5t-117 -18.5q-16 0 -31 1t-22 1v-124h-130v675h130v-91q8 0 26 0.5t38 0.5q130 0 198 -58t68 -159z
" />
    <glyph glyph-name="germandbls" unicode="&#xdf;" horiz-adv-x="607" 
d="M576 157q0 -37 -15 -68.5t-42.5 -53.5t-65.5 -34t-84 -12q-54 0 -101 13v106q21 -9 45.5 -14.5t47.5 -5.5q42 0 62.5 16t20.5 40q0 20 -12 34.5t-35 29t-46 28.5t-42 31.5t-31 44t-12 62.5q0 39 15 64.5t43.5 52.5t41.5 44t13 45t-20 43t-55 15q-52 0 -79.5 -34
t-27.5 -104v-500h-128v494q0 64 18.5 111t51.5 76t76 42.5t94 13.5q46 0 83.5 -10t64 -29.5t41 -47.5t14.5 -62q0 -43 -15.5 -69.5t-46 -51.5t-42.5 -39t-12 -39q0 -20 12 -34.5t35.5 -29.5t46.5 -29.5t42 -32.5t31.5 -44t12.5 -62z" />
    <glyph glyph-name="agrave" unicode="&#xe0;" horiz-adv-x="524" 
d="M325 214h-46q-33 0 -56 -4.5t-36.5 -13t-19.5 -20.5t-6 -28q0 -26 16.5 -43t44.5 -17q22 0 41 9.5t33 25.5t21.5 36.5t7.5 42.5v12zM333 0q0 20 2 40t5 40l-1 1q-18 -41 -60 -66t-95 -25q-69 0 -107.5 40t-38.5 103q0 42 17 73t48.5 51.5t76.5 30t102 9.5h43v21
q0 47 -21.5 69.5t-74.5 22.5q-36 0 -76 -8.5t-75 -22.5v101q38 13 81.5 20.5t84.5 7.5q59 0 99.5 -12.5t64.5 -36t34.5 -56.5t10.5 -76v-108.5v-109.5v-109h-120zM281 558l-163 129l70 76l150 -144z" />
    <glyph glyph-name="aacute" unicode="&#xe1;" horiz-adv-x="524" 
d="M325 214h-46q-33 0 -56 -4.5t-36.5 -13t-19.5 -20.5t-6 -28q0 -26 16.5 -43t44.5 -17q22 0 41 9.5t33 25.5t21.5 36.5t7.5 42.5v12zM333 0q0 20 2 40t5 40l-1 1q-18 -41 -60 -66t-95 -25q-69 0 -107.5 40t-38.5 103q0 42 17 73t48.5 51.5t76.5 30t102 9.5h43v21
q0 47 -21.5 69.5t-74.5 22.5q-36 0 -76 -8.5t-75 -22.5v101q38 13 81.5 20.5t84.5 7.5q59 0 99.5 -12.5t64.5 -36t34.5 -56.5t10.5 -76v-108.5v-109.5v-109h-120zM246 558l-57 61l150 144l70 -75z" />
    <glyph glyph-name="acircumflex" unicode="&#xe2;" horiz-adv-x="524" 
d="M325 214h-46q-33 0 -56 -4.5t-36.5 -13t-19.5 -20.5t-6 -28q0 -26 16.5 -43t44.5 -17q22 0 41 9.5t33 25.5t21.5 36.5t7.5 42.5v12zM333 0q0 20 2 40t5 40l-1 1q-18 -41 -60 -66t-95 -25q-69 0 -107.5 40t-38.5 103q0 42 17 73t48.5 51.5t76.5 30t102 9.5h43v21
q0 47 -21.5 69.5t-74.5 22.5q-36 0 -76 -8.5t-75 -22.5v101q38 13 81.5 20.5t84.5 7.5q59 0 99.5 -12.5t64.5 -36t34.5 -56.5t10.5 -76v-108.5v-109.5v-109h-120zM369 560l-103 81l-105 -81l-49 58l155 136l152 -135z" />
    <glyph glyph-name="atilde" unicode="&#xe3;" horiz-adv-x="524" 
d="M325 214h-46q-33 0 -56 -4.5t-36.5 -13t-19.5 -20.5t-6 -28q0 -26 16.5 -43t44.5 -17q22 0 41 9.5t33 25.5t21.5 36.5t7.5 42.5v12zM333 0q0 20 2 40t5 40l-1 1q-18 -41 -60 -66t-95 -25q-69 0 -107.5 40t-38.5 103q0 42 17 73t48.5 51.5t76.5 30t102 9.5h43v21
q0 47 -21.5 69.5t-74.5 22.5q-36 0 -76 -8.5t-75 -22.5v101q38 13 81.5 20.5t84.5 7.5q59 0 99.5 -12.5t64.5 -36t34.5 -56.5t10.5 -76v-108.5v-109.5v-109h-120zM444 666q-45 -89 -121 -89q-23 0 -39.5 7t-35.5 20.5t-27.5 18.5t-21.5 5q-30 0 -55 -45l-61 47q45 89 122 89
q22 0 38.5 -7t36 -20.5t28 -18.5t20.5 -5q30 0 55 45z" />
    <glyph glyph-name="adieresis" unicode="&#xe4;" horiz-adv-x="524" 
d="M325 214h-46q-33 0 -56 -4.5t-36.5 -13t-19.5 -20.5t-6 -28q0 -26 16.5 -43t44.5 -17q22 0 41 9.5t33 25.5t21.5 36.5t7.5 42.5v12zM333 0q0 20 2 40t5 40l-1 1q-18 -41 -60 -66t-95 -25q-69 0 -107.5 40t-38.5 103q0 42 17 73t48.5 51.5t76.5 30t102 9.5h43v21
q0 47 -21.5 69.5t-74.5 22.5q-36 0 -76 -8.5t-75 -22.5v101q38 13 81.5 20.5t84.5 7.5q59 0 99.5 -12.5t64.5 -36t34.5 -56.5t10.5 -76v-108.5v-109.5v-109h-120zM231 648q0 -29 -20 -49t-49 -20t-49 20t-20 49t20 49t49 20t49 -20t20 -49zM434 648q0 -29 -20 -49t-49 -20
t-49 20t-20 49t20 49t49 20t49 -20t20 -49z" />
    <glyph glyph-name="aring" unicode="&#xe5;" horiz-adv-x="524" 
d="M325 214h-46q-33 0 -56 -4.5t-36.5 -13t-19.5 -20.5t-6 -28q0 -26 16.5 -43t44.5 -17q22 0 41 9.5t33 25.5t21.5 36.5t7.5 42.5v12zM333 0q0 20 2 40t5 40l-1 1q-18 -41 -60 -66t-95 -25q-69 0 -107.5 40t-38.5 103q0 42 17 73t48.5 51.5t76.5 30t102 9.5h43v21
q0 47 -21.5 69.5t-74.5 22.5q-36 0 -76 -8.5t-75 -22.5v101q38 13 81.5 20.5t84.5 7.5q59 0 99.5 -12.5t64.5 -36t34.5 -56.5t10.5 -76v-108.5v-109.5v-109h-120zM398 675q0 -56 -38 -91t-98 -35q-61 0 -93.5 29t-32.5 87q0 27 10 50t28.5 40t43.5 26t55 9q61 0 93 -29
t32 -86zM314 669q0 29 -11.5 42t-34.5 13q-21 0 -34.5 -14t-13.5 -40q0 -55 47 -55q21 0 34 14t13 40z" />
    <glyph glyph-name="ae" unicode="&#xe6;" horiz-adv-x="800" 
d="M325 214h-46q-33 0 -56 -4.5t-36.5 -13t-19.5 -20.5t-6 -28q0 -26 16.5 -43t44.5 -17q22 0 41 9.5t33 25.5t21.5 36.5t7.5 42.5v12zM636 303q3 54 -21 82t-67 28q-41 0 -67.5 -29t-30.5 -81h186zM762 293q0 -36 -5 -76h-307q1 -31 9 -55t24 -40t40.5 -24.5t57.5 -8.5
q38 0 77 6.5t80 18.5v-99q-38 -12 -83 -18.5t-88 -6.5q-40 0 -72.5 7t-57 19.5t-41.5 30.5t-28 40h-1q-14 -22 -32.5 -40t-40.5 -30.5t-48 -19.5t-55 -7q-74 0 -113.5 39.5t-39.5 103.5q0 42 17 73t48.5 51.5t76.5 30t102 9.5h43v21q0 47 -21.5 69.5t-74.5 22.5
q-36 0 -76 -8.5t-75 -22.5v101q38 13 81.5 20.5t84.5 7.5q54 0 95.5 -14.5t66.5 -47.5h1q23 28 61 44.5t87 16.5q53 0 92 -16t64.5 -45t38 -68t12.5 -85z" />
    <glyph glyph-name="ccedilla" unicode="&#xe7;" horiz-adv-x="418" 
d="M384 7q-31 -8 -61 -12t-63 -4q-53 0 -95 14t-71 43.5t-44.5 76t-15.5 109.5q0 64 17 114.5t49 86t79 53.5t106 18q24 0 48.5 -3t46.5 -9v-117q-25 10 -48.5 15.5t-46.5 5.5q-58 0 -87.5 -40t-29.5 -113q0 -33 6.5 -59t20 -45t36.5 -29.5t55 -10.5q39 0 98 14v-108z
M278 -40q37 -51 30.5 -100t-50.5 -94h-97q38 45 42 81.5t-31 79.5z" />
    <glyph glyph-name="egrave" unicode="&#xe8;" horiz-adv-x="514" 
d="M350 303q2 54 -22 82t-66 28q-41 0 -68 -29t-30 -81h186zM475 293q0 -22 -1.5 -44t-2.5 -32h-307q2 -128 131 -128q73 0 156 25v-99q-39 -12 -83.5 -18.5t-86.5 -6.5q-121 0 -184 63t-63 193q0 55 15.5 103t46 83.5t74.5 55t99 19.5q53 0 92 -16t64.5 -45t37.5 -68
t12 -85zM283 558l-163 129l70 76l150 -144z" />
    <glyph glyph-name="eacute" unicode="&#xe9;" horiz-adv-x="514" 
d="M350 303q2 54 -22 82t-66 28q-41 0 -68 -29t-30 -81h186zM475 293q0 -22 -1.5 -44t-2.5 -32h-307q2 -128 131 -128q73 0 156 25v-99q-39 -12 -83.5 -18.5t-86.5 -6.5q-121 0 -184 63t-63 193q0 55 15.5 103t46 83.5t74.5 55t99 19.5q53 0 92 -16t64.5 -45t37.5 -68
t12 -85zM249 558l-57 61l150 144l70 -75z" />
    <glyph glyph-name="ecircumflex" unicode="&#xea;" horiz-adv-x="514" 
d="M350 303q2 54 -22 82t-66 28q-41 0 -68 -29t-30 -81h186zM475 293q0 -22 -1.5 -44t-2.5 -32h-307q2 -128 131 -128q73 0 156 25v-99q-39 -12 -83.5 -18.5t-86.5 -6.5q-121 0 -184 63t-63 193q0 55 15.5 103t46 83.5t74.5 55t99 19.5q53 0 92 -16t64.5 -45t37.5 -68
t12 -85zM370 560l-103 81l-105 -81l-49 58l155 136l152 -135z" />
    <glyph glyph-name="edieresis" unicode="&#xeb;" horiz-adv-x="514" 
d="M350 303q2 54 -22 82t-66 28q-41 0 -68 -29t-30 -81h186zM475 293q0 -22 -1.5 -44t-2.5 -32h-307q2 -128 131 -128q73 0 156 25v-99q-39 -12 -83.5 -18.5t-86.5 -6.5q-121 0 -184 63t-63 193q0 55 15.5 103t46 83.5t74.5 55t99 19.5q53 0 92 -16t64.5 -45t37.5 -68
t12 -85zM234 648q0 -29 -20 -49t-49 -20t-49 20t-20 49t20 49t49 20t49 -20t20 -49zM437 648q0 -29 -20 -49t-49 -20t-49 20t-20 49t20 49t49 20t49 -20t20 -49z" />
    <glyph glyph-name="igrave" unicode="&#xec;" horiz-adv-x="266" 
d="M69 0v497h128v-497h-128zM122 554l-111 167l92 49l94 -175z" />
    <glyph glyph-name="iacute" unicode="&#xed;" horiz-adv-x="266" 
d="M69 0v497h128v-497h-128zM135 556l-70 50l114 162l86 -58z" />
    <glyph glyph-name="icircumflex" unicode="&#xee;" horiz-adv-x="266" 
d="M69 0v497h128v-497h-128zM221 560l-88 81l-91 -81l-46 57l137 136l137 -134z" />
    <glyph glyph-name="idieresis" unicode="&#xef;" horiz-adv-x="266" 
d="M69 0v497h128v-497h-128zM295 648q0 -28 -20.5 -48.5t-48.5 -20.5q-29 0 -49 20.5t-20 48.5q0 29 20 49t49 20t49 -20t20 -49zM110 648q0 -28 -20.5 -48.5t-48.5 -20.5q-29 0 -49 20t-20 49t20 49t49 20t49 -20t20 -49z" />
    <glyph glyph-name="eth" unicode="&#xf0;" horiz-adv-x="555" 
d="M385 260q0 64 -26.5 101.5t-82.5 37.5q-22 0 -42 -9t-35 -27t-24 -46t-9 -67q0 -74 30 -112.5t83 -38.5q46 0 76 38.5t30 122.5zM518 278q0 -73 -19.5 -127t-53.5 -90t-79 -53.5t-97 -17.5t-95 15t-74.5 46t-49 78t-17.5 111q0 60 18 108.5t50.5 83.5t76.5 54t96 19
q23 0 45 -7t34 -24q-7 12 -13.5 22.5t-11.5 18.5q-10 17 -23 34t-30 35l-92 -41l-52 60l84 37q-17 14 -36 28.5t-40 28.5l125 53q36 -27 69 -60l89 39l51 -60l-86 -37q63 -78 97 -167.5t34 -186.5z" />
    <glyph glyph-name="ntilde" unicode="&#xf1;" horiz-adv-x="571" 
d="M374 0v318q0 41 -14 61.5t-48 20.5q-23 0 -44 -12.5t-37 -35t-25 -51.5t-9 -61v-240h-128v497h121q0 -20 -2 -45.5t-5 -43.5h1q23 45 66.5 72t102.5 27q41 0 69.5 -12t46 -34.5t25 -52t7.5 -64.5v-344h-127zM468 666q-45 -89 -121 -89q-23 0 -39.5 7t-35.5 20.5
t-27.5 18.5t-21.5 5q-30 0 -55 -45l-61 47q45 89 122 89q22 0 38.5 -7t36 -20.5t28 -18.5t20.5 -5q30 0 55 45z" />
    <glyph glyph-name="ograve" unicode="&#xf2;" horiz-adv-x="553" 
d="M388 248q0 73 -29 112t-81 39q-26 0 -47 -9.5t-35.5 -28.5t-22.5 -47t-8 -65q0 -150 111 -150q51 0 81.5 37.5t30.5 111.5zM520 260q0 -58 -17 -107t-49.5 -86t-80 -57t-106.5 -20q-54 0 -97 15t-73.5 45.5t-47 77t-16.5 109.5q0 58 17 107t49.5 86t80 57t106.5 20
q113 0 173.5 -63t60.5 -184zM296 558l-163 129l70 76l150 -144z" />
    <glyph glyph-name="oacute" unicode="&#xf3;" horiz-adv-x="553" 
d="M388 248q0 73 -29 112t-81 39q-26 0 -47 -9.5t-35.5 -28.5t-22.5 -47t-8 -65q0 -150 111 -150q51 0 81.5 37.5t30.5 111.5zM520 260q0 -58 -17 -107t-49.5 -86t-80 -57t-106.5 -20q-54 0 -97 15t-73.5 45.5t-47 77t-16.5 109.5q0 58 17 107t49.5 86t80 57t106.5 20
q113 0 173.5 -63t60.5 -184zM261 558l-57 61l150 144l70 -75z" />
    <glyph glyph-name="ocircumflex" unicode="&#xf4;" horiz-adv-x="553" 
d="M388 248q0 73 -29 112t-81 39q-26 0 -47 -9.5t-35.5 -28.5t-22.5 -47t-8 -65q0 -150 111 -150q51 0 81.5 37.5t30.5 111.5zM520 260q0 -58 -17 -107t-49.5 -86t-80 -57t-106.5 -20q-54 0 -97 15t-73.5 45.5t-47 77t-16.5 109.5q0 58 17 107t49.5 86t80 57t106.5 20
q113 0 173.5 -63t60.5 -184zM387 560l-103 81l-105 -81l-49 58l155 136l152 -135z" />
    <glyph glyph-name="otilde" unicode="&#xf5;" horiz-adv-x="553" 
d="M388 248q0 73 -29 112t-81 39q-26 0 -47 -9.5t-35.5 -28.5t-22.5 -47t-8 -65q0 -150 111 -150q51 0 81.5 37.5t30.5 111.5zM520 260q0 -58 -17 -107t-49.5 -86t-80 -57t-106.5 -20q-54 0 -97 15t-73.5 45.5t-47 77t-16.5 109.5q0 58 17 107t49.5 86t80 57t106.5 20
q113 0 173.5 -63t60.5 -184zM465 666q-45 -89 -121 -89q-23 0 -39.5 7t-35.5 20.5t-27.5 18.5t-21.5 5q-30 0 -55 -45l-61 47q45 89 122 89q22 0 38.5 -7t36 -20.5t28 -18.5t20.5 -5q30 0 55 45z" />
    <glyph glyph-name="odieresis" unicode="&#xf6;" horiz-adv-x="553" 
d="M388 248q0 73 -29 112t-81 39q-26 0 -47 -9.5t-35.5 -28.5t-22.5 -47t-8 -65q0 -150 111 -150q51 0 81.5 37.5t30.5 111.5zM520 260q0 -58 -17 -107t-49.5 -86t-80 -57t-106.5 -20q-54 0 -97 15t-73.5 45.5t-47 77t-16.5 109.5q0 58 17 107t49.5 86t80 57t106.5 20
q113 0 173.5 -63t60.5 -184zM249 648q0 -29 -20 -49t-49 -20t-49 20t-20 49t20 49t49 20t49 -20t20 -49zM452 648q0 -29 -20 -49t-49 -20t-49 20t-20 49t20 49t49 20t49 -20t20 -49z" />
    <glyph glyph-name="divide" unicode="&#xf7;" 
d="M352 97q0 -32 -23 -55t-55 -23t-55 23t-23 55t23 55t55 23t55 -23t23 -55zM39 244v107h472v-107h-472zM352 498q0 -32 -23 -55t-55 -23t-55 23t-23 55t23 55t55 23t55 -23t23 -55z" />
    <glyph glyph-name="oslash" unicode="&#xf8;" horiz-adv-x="553" 
d="M314 401q-7 3 -16.5 4.5t-18.5 1.5q-29 0 -52 -10.5t-39 -30.5t-24.5 -50t-8.5 -68q0 -55 20 -108zM398 249q0 56 -20 108l-139 -261q15 -6 35 -6q58 0 91 41.5t33 117.5zM520 260q0 -58 -17 -107t-49.5 -86t-80 -57t-106.5 -20q-43 0 -78 11l-50 -94l-71 31l50 93
q-42 31 -63.5 83t-21.5 123q0 58 17 107t49.5 86t80 57t106.5 20q43 0 78 -11l50 94l71 -31l-50 -93q42 -31 63.5 -83t21.5 -123z" />
    <glyph glyph-name="ugrave" unicode="&#xf9;" horiz-adv-x="570" 
d="M381 0q0 23 1.5 47.5t4.5 41.5h-1q-24 -46 -67 -72.5t-102 -26.5q-41 0 -69.5 12t-46 33.5t-25 50t-7.5 62.5v349h127v-318q0 -41 14 -61.5t48 -20.5q24 0 45 12.5t37 35t24.5 51.5t8.5 61v240h128v-497h-120zM295 558l-163 129l70 76l150 -144z" />
    <glyph glyph-name="uacute" unicode="&#xfa;" horiz-adv-x="570" 
d="M381 0q0 23 1.5 47.5t4.5 41.5h-1q-24 -46 -67 -72.5t-102 -26.5q-41 0 -69.5 12t-46 33.5t-25 50t-7.5 62.5v349h127v-318q0 -41 14 -61.5t48 -20.5q24 0 45 12.5t37 35t24.5 51.5t8.5 61v240h128v-497h-120zM277 558l-57 61l150 144l70 -75z" />
    <glyph glyph-name="ucircumflex" unicode="&#xfb;" horiz-adv-x="570" 
d="M381 0q0 23 1.5 47.5t4.5 41.5h-1q-24 -46 -67 -72.5t-102 -26.5q-41 0 -69.5 12t-46 33.5t-25 50t-7.5 62.5v349h127v-318q0 -41 14 -61.5t48 -20.5q24 0 45 12.5t37 35t24.5 51.5t8.5 61v240h128v-497h-120zM388 560l-103 81l-105 -81l-49 58l155 136l152 -135z" />
    <glyph glyph-name="udieresis" unicode="&#xfc;" horiz-adv-x="570" 
d="M381 0q0 23 1.5 47.5t4.5 41.5h-1q-24 -46 -67 -72.5t-102 -26.5q-41 0 -69.5 12t-46 33.5t-25 50t-7.5 62.5v349h127v-318q0 -41 14 -61.5t48 -20.5q24 0 45 12.5t37 35t24.5 51.5t8.5 61v240h128v-497h-120zM252 648q0 -29 -20 -49t-49 -20t-49 20t-20 49t20 49t49 20
t49 -20t20 -49zM455 648q0 -29 -20 -49t-49 -20t-49 20t-20 49t20 49t49 20t49 -20t20 -49z" />
    <glyph glyph-name="yacute" unicode="&#xfd;" horiz-adv-x="502" 
d="M313 -18q-23 -62 -48 -118.5t-51 -104.5h-140q34 57 60.5 111t44.5 106l9 24l-183 497h144l67 -195q11 -35 21 -70t20 -73h1q9 37 20.5 77t24.5 82l58 179h137zM252 558l-57 61l150 144l70 -75z" />
    <glyph glyph-name="thorn" unicode="&#xfe;" horiz-adv-x="559" 
d="M389 261q0 141 -85 141q-24 0 -44 -13t-34 -36t-21.5 -52.5t-7.5 -61.5v-138q30 -9 67 -9q28 0 50.5 9.5t39.5 29.5t26 52.5t9 77.5zM523 275q0 -65 -17 -117t-50 -89t-82 -56.5t-113 -19.5q-19 0 -34 1t-30 3v-238h-128v971h128v-204q0 -28 -1 -54.5t-4 -47.5h2
q20 38 57 60.5t90 22.5q88 0 135 -60.5t47 -171.5z" />
    <glyph glyph-name="ydieresis" unicode="&#xff;" horiz-adv-x="502" 
d="M313 -18q-23 -62 -48 -118.5t-51 -104.5h-140q34 57 60.5 111t44.5 106l9 24l-183 497h144l67 -195q11 -35 21 -70t20 -73h1q9 37 20.5 77t24.5 82l58 179h137zM222 648q0 -29 -20 -49t-49 -20t-49 20t-20 49t20 49t49 20t49 -20t20 -49zM425 648q0 -29 -20 -49t-49 -20
t-49 20t-20 49t20 49t49 20t49 -20t20 -49z" />
    <glyph glyph-name="Amacron" unicode="&#x100;" horiz-adv-x="626" 
d="M335 458q-8 26 -15 51.5t-12 49.5h-2q-5 -24 -12 -50t-14 -50l-70 -212h195zM480 0l-46 144h-254l-47 -144h-131l226 675h169l227 -675h-144zM162 741v81h293v-81h-293z" />
    <glyph glyph-name="amacron" unicode="&#x101;" horiz-adv-x="524" 
d="M325 214h-46q-33 0 -56 -4.5t-36.5 -13t-19.5 -20.5t-6 -28q0 -26 16.5 -43t44.5 -17q22 0 41 9.5t33 25.5t21.5 36.5t7.5 42.5v12zM333 0q0 20 2 40t5 40l-1 1q-18 -41 -60 -66t-95 -25q-69 0 -107.5 40t-38.5 103q0 42 17 73t48.5 51.5t76.5 30t102 9.5h43v21
q0 47 -21.5 69.5t-74.5 22.5q-36 0 -76 -8.5t-75 -22.5v101q38 13 81.5 20.5t84.5 7.5q59 0 99.5 -12.5t64.5 -36t34.5 -56.5t10.5 -76v-108.5v-109.5v-109h-120zM130 600v92h270v-92h-270z" />
    <glyph glyph-name="Abreve" unicode="&#x102;" horiz-adv-x="626" 
d="M335 458q-8 26 -15 51.5t-12 49.5h-2q-5 -24 -12 -50t-14 -50l-70 -212h195zM480 0l-46 144h-254l-47 -144h-131l226 675h169l227 -675h-144zM451 859q0 -28 -9 -53t-27.5 -43.5t-45.5 -29t-61 -10.5t-60.5 10.5t-44.5 29.5t-27 43.5t-9 52.5h76q0 -24 19 -40.5t47 -16.5
q30 0 48 16t18 41h76z" />
    <glyph glyph-name="abreve" unicode="&#x103;" horiz-adv-x="524" 
d="M325 214h-46q-33 0 -56 -4.5t-36.5 -13t-19.5 -20.5t-6 -28q0 -26 16.5 -43t44.5 -17q22 0 41 9.5t33 25.5t21.5 36.5t7.5 42.5v12zM333 0q0 20 2 40t5 40l-1 1q-18 -41 -60 -66t-95 -25q-69 0 -107.5 40t-38.5 103q0 42 17 73t48.5 51.5t76.5 30t102 9.5h43v21
q0 47 -21.5 69.5t-74.5 22.5q-36 0 -76 -8.5t-75 -22.5v101q38 13 81.5 20.5t84.5 7.5q59 0 99.5 -12.5t64.5 -36t34.5 -56.5t10.5 -76v-108.5v-109.5v-109h-120zM404 720q0 -31 -8.5 -58.5t-25.5 -49t-43.5 -33.5t-61.5 -12t-61 12.5t-42.5 33.5t-24 48.5t-7.5 58.5h83
q0 -27 14 -44t39 -17t39.5 15.5t14.5 45.5h84z" />
    <glyph glyph-name="Aogonek" unicode="&#x104;" horiz-adv-x="626" 
d="M335 458q-8 26 -15 51.5t-12 49.5h-2q-5 -24 -12 -50t-14 -50l-70 -212h195zM643 -211q-26 -13 -54.5 -19.5t-58.5 -6.5q-58 0 -91.5 27t-33.5 75q0 35 19 70t56 65l-46 144h-254l-47 -144h-131l226 675h169l227 -675q-54 -24 -76.5 -52t-22.5 -57q0 -33 35 -33
q37 0 83 22v-91z" />
    <glyph glyph-name="aogonek" unicode="&#x105;" horiz-adv-x="524" 
d="M325 214h-46q-33 0 -56 -4.5t-36.5 -13t-19.5 -20.5t-6 -28q0 -26 16.5 -43t44.5 -17q22 0 41 9.5t33 25.5t21.5 36.5t7.5 42.5v12zM496 -211q-25 -13 -53.5 -19.5t-59.5 -6.5q-57 0 -90.5 27t-33.5 75q0 20 5.5 39t16 37t26.5 35t37 34q-3 19 -3.5 37.5t0.5 33.5h-2
q-18 -41 -59.5 -66t-95.5 -25q-69 0 -107.5 40t-38.5 103q0 42 17 73t48.5 51.5t76.5 30t102 9.5h43v21q0 47 -21.5 69.5t-74.5 22.5q-36 0 -76 -8.5t-75 -22.5v101q38 13 81.5 20.5t84.5 7.5q59 0 99.5 -12.5t64.5 -36t34.5 -56.5t10.5 -76v-163q0 -47 3 -88.5t9 -75.5
q-47 -28 -67 -55.5t-20 -53.5q0 -33 35 -33q39 0 83 22v-91z" />
    <glyph glyph-name="Cacute" unicode="&#x106;" horiz-adv-x="566" 
d="M516 15q-41 -11 -83 -17t-87 -6q-84 0 -143.5 25.5t-95.5 70t-52.5 103.5t-16.5 128q0 80 21.5 146t63.5 114.5t105 75t144 26.5q35 0 70 -4.5t69 -13.5v-130q-77 32 -147 32q-47 0 -82 -17t-57.5 -48.5t-33 -74t-10.5 -94.5q0 -108 47 -165t142 -57q34 0 73 6.5t73 17.5
v-118zM283 716l-21 70l208 75l29 -92z" />
    <glyph glyph-name="cacute" unicode="&#x107;" horiz-adv-x="418" 
d="M384 7q-31 -8 -61 -12t-63 -4q-53 0 -95 14t-71 43.5t-44.5 76t-15.5 109.5q0 64 17 114.5t49 86t79 53.5t106 18q24 0 48.5 -3t46.5 -9v-117q-25 10 -48.5 15.5t-46.5 5.5q-58 0 -87.5 -40t-29.5 -113q0 -33 6.5 -59t20 -45t36.5 -29.5t55 -10.5q39 0 98 14v-108z
M218 558l-57 61l150 144l70 -75z" />
    <glyph glyph-name="Ccircumflex" unicode="&#x108;" horiz-adv-x="566" 
d="M516 15q-41 -11 -83 -17t-87 -6q-84 0 -143.5 25.5t-95.5 70t-52.5 103.5t-16.5 128q0 80 21.5 146t63.5 114.5t105 75t144 26.5q35 0 70 -4.5t69 -13.5v-130q-77 32 -147 32q-47 0 -82 -17t-57.5 -48.5t-33 -74t-10.5 -94.5q0 -108 47 -165t142 -57q34 0 73 6.5t73 17.5
v-118zM477 715l-136 55l-137 -55l-29 66l168 84l164 -83z" />
    <glyph glyph-name="ccircumflex" unicode="&#x109;" horiz-adv-x="418" 
d="M384 7q-31 -8 -61 -12t-63 -4q-53 0 -95 14t-71 43.5t-44.5 76t-15.5 109.5q0 64 17 114.5t49 86t79 53.5t106 18q24 0 48.5 -3t46.5 -9v-117q-25 10 -48.5 15.5t-46.5 5.5q-58 0 -87.5 -40t-29.5 -113q0 -33 6.5 -59t20 -45t36.5 -29.5t55 -10.5q39 0 98 14v-108z
M344 560l-103 81l-105 -81l-49 58l155 136l152 -135z" />
    <glyph glyph-name="Cdotaccent" unicode="&#x10a;" horiz-adv-x="566" 
d="M516 15q-41 -11 -83 -17t-87 -6q-84 0 -143.5 25.5t-95.5 70t-52.5 103.5t-16.5 128q0 80 21.5 146t63.5 114.5t105 75t144 26.5q35 0 70 -4.5t69 -13.5v-130q-77 32 -147 32q-47 0 -82 -17t-57.5 -48.5t-33 -74t-10.5 -94.5q0 -108 47 -165t142 -57q34 0 73 6.5t73 17.5
v-118zM423 794q0 -32 -22.5 -54.5t-53.5 -22.5q-32 0 -54.5 22.5t-22.5 54.5q0 31 22.5 53.5t54.5 22.5t54 -22t22 -54z" />
    <glyph glyph-name="cdotaccent" unicode="&#x10b;" horiz-adv-x="418" 
d="M384 7q-31 -8 -61 -12t-63 -4q-53 0 -95 14t-71 43.5t-44.5 76t-15.5 109.5q0 64 17 114.5t49 86t79 53.5t106 18q24 0 48.5 -3t46.5 -9v-117q-25 10 -48.5 15.5t-46.5 5.5q-58 0 -87.5 -40t-29.5 -113q0 -33 6.5 -59t20 -45t36.5 -29.5t55 -10.5q39 0 98 14v-108z
M330 647q0 -32 -22 -54t-54 -22t-54.5 22t-22.5 54t22.5 54.5t54.5 22.5t54 -22.5t22 -54.5z" />
    <glyph glyph-name="Ccaron" unicode="&#x10c;" horiz-adv-x="566" 
d="M516 15q-41 -11 -83 -17t-87 -6q-84 0 -143.5 25.5t-95.5 70t-52.5 103.5t-16.5 128q0 80 21.5 146t63.5 114.5t105 75t144 26.5q35 0 70 -4.5t69 -13.5v-130q-77 32 -147 32q-47 0 -82 -17t-57.5 -48.5t-33 -74t-10.5 -94.5q0 -108 47 -165t142 -57q34 0 73 6.5t73 17.5
v-118zM338 715l-164 83l31 67l135 -55l137 55l29 -65z" />
    <glyph glyph-name="ccaron" unicode="&#x10d;" horiz-adv-x="418" 
d="M384 7q-31 -8 -61 -12t-63 -4q-53 0 -95 14t-71 43.5t-44.5 76t-15.5 109.5q0 64 17 114.5t49 86t79 53.5t106 18q24 0 48.5 -3t46.5 -9v-117q-25 10 -48.5 15.5t-46.5 5.5q-58 0 -87.5 -40t-29.5 -113q0 -33 6.5 -59t20 -45t36.5 -29.5t55 -10.5q39 0 98 14v-108z
M245 560l-152 134l50 60l104 -82l105 82l48 -59z" />
    <glyph glyph-name="Dcaron" unicode="&#x10e;" horiz-adv-x="667" 
d="M490 339q0 56 -11.5 98.5t-36.5 72t-65.5 45t-97.5 15.5q-23 0 -43 -1t-36 -2v-455q14 -2 33 -3.5t38 -1.5q48 0 88 14t69.5 42.5t45.5 72.5t16 103zM630 349q0 -85 -26.5 -151.5t-76 -111t-118 -67.5t-151.5 -23q-44 0 -98.5 2t-89.5 3v673q58 2 110.5 3.5t107.5 1.5
q80 0 143 -18.5t107.5 -58.5t68 -103t23.5 -150zM291 715l-164 83l31 67l135 -55l137 55l29 -65z" />
    <glyph glyph-name="dcaron" unicode="&#x10f;" horiz-adv-x="611" 
d="M362 397q-18 4 -34.5 6t-32.5 2q-58 0 -91.5 -40.5t-33.5 -128.5q0 -141 85 -141q24 0 44 13t34 36t21.5 52.5t7.5 61.5v139zM370 0q0 19 1.5 41t4.5 42h-2q-21 -43 -62 -68.5t-95 -25.5q-89 0 -135 62t-46 171q0 63 18 115t52 90t83 58.5t110 20.5q17 0 32 -1t31 -3v228
h127v-730h-119zM607 553l-83 18l51 205l102 -22z" />
    <glyph glyph-name="Dcroat" unicode="&#x110;" horiz-adv-x="676" 
d="M499 339q0 57 -12 99.5t-37 72t-65.5 44.5t-97.5 15q-23 0 -43.5 -1t-35.5 -2v-170h122v-99h-122v-186q14 -2 33 -3.5t38 -1.5q49 0 89.5 14t69.5 43t45 73t16 102zM639 349q0 -83 -25.5 -149t-74.5 -111.5t-118 -69t-154 -23.5q-44 0 -53.5 0.5t-134.5 4.5v297h-75v99
h75v277q66 2 117.5 3.5t101.5 1.5q81 0 143.5 -19t107 -59t67.5 -103t23 -149z" />
    <glyph glyph-name="dcroat" unicode="&#x111;" horiz-adv-x="559" 
d="M362 397q-18 4 -34.5 6t-32.5 2q-58 0 -91.5 -40.5t-33.5 -128.5q0 -141 85 -141q24 0 44 13t34 36t21.5 52.5t7.5 61.5v139zM489 582v-582h-119q0 19 1.5 41t4.5 42h-2q-21 -43 -62 -68.5t-95 -25.5q-89 0 -135 62t-46 171q0 63 18 115t52 90t83 58.5t110 20.5
q17 0 32 -1t31 -3v80h-105v81h105v67h127v-67h61v-81h-61z" />
    <glyph glyph-name="Emacron" unicode="&#x112;" horiz-adv-x="536" 
d="M70 0v675h407v-109h-277v-167h255v-104h-255v-183h280v-112h-410zM126 741v81h293v-81h-293z" />
    <glyph glyph-name="emacron" unicode="&#x113;" horiz-adv-x="514" 
d="M350 303q2 54 -22 82t-66 28q-41 0 -68 -29t-30 -81h186zM475 293q0 -22 -1.5 -44t-2.5 -32h-307q2 -128 131 -128q73 0 156 25v-99q-39 -12 -83.5 -18.5t-86.5 -6.5q-121 0 -184 63t-63 193q0 55 15.5 103t46 83.5t74.5 55t99 19.5q53 0 92 -16t64.5 -45t37.5 -68
t12 -85zM128 600v92h270v-92h-270z" />
    <glyph glyph-name="Ebreve" unicode="&#x114;" horiz-adv-x="536" 
d="M70 0v675h407v-109h-277v-167h255v-104h-255v-183h280v-112h-410zM414 859q0 -28 -9 -53t-27.5 -43.5t-45.5 -29t-61 -10.5t-60.5 10.5t-44.5 29.5t-27 43.5t-9 52.5h76q0 -24 19 -40.5t47 -16.5q30 0 48 16t18 41h76z" />
    <glyph glyph-name="ebreve" unicode="&#x115;" horiz-adv-x="514" 
d="M350 303q2 54 -22 82t-66 28q-41 0 -68 -29t-30 -81h186zM475 293q0 -22 -1.5 -44t-2.5 -32h-307q2 -128 131 -128q73 0 156 25v-99q-39 -12 -83.5 -18.5t-86.5 -6.5q-121 0 -184 63t-63 193q0 55 15.5 103t46 83.5t74.5 55t99 19.5q53 0 92 -16t64.5 -45t37.5 -68
t12 -85zM398 720q0 -31 -8.5 -58.5t-25.5 -49t-43.5 -33.5t-61.5 -12t-61 12.5t-42.5 33.5t-24 48.5t-7.5 58.5h83q0 -27 14 -44t39 -17t39.5 15.5t14.5 45.5h84z" />
    <glyph glyph-name="Edotaccent" unicode="&#x116;" horiz-adv-x="536" 
d="M70 0v675h407v-109h-277v-167h255v-104h-255v-183h280v-112h-410zM349 794q0 -32 -22.5 -54.5t-53.5 -22.5q-32 0 -54.5 22.5t-22.5 54.5q0 31 22.5 53.5t54.5 22.5t54 -22t22 -54z" />
    <glyph glyph-name="edotaccent" unicode="&#x117;" horiz-adv-x="514" 
d="M350 303q2 54 -22 82t-66 28q-41 0 -68 -29t-30 -81h186zM475 293q0 -22 -1.5 -44t-2.5 -32h-307q2 -128 131 -128q73 0 156 25v-99q-39 -12 -83.5 -18.5t-86.5 -6.5q-121 0 -184 63t-63 193q0 55 15.5 103t46 83.5t74.5 55t99 19.5q53 0 92 -16t64.5 -45t37.5 -68
t12 -85zM343 653q0 -32 -22 -54t-54 -22t-54.5 22t-22.5 54t22.5 54.5t54.5 22.5t54 -22.5t22 -54.5z" />
    <glyph glyph-name="Eogonek" unicode="&#x118;" horiz-adv-x="536" 
d="M491 -211q-26 -13 -54.5 -19.5t-58.5 -6.5q-58 0 -91.5 27t-33.5 75q0 38 21.5 75t58.5 60h-263v675h407v-109h-277v-167h255v-104h-255v-183h280v-109q-50 -14 -78.5 -47t-28.5 -65q0 -16 9 -24.5t26 -8.5q37 0 83 22v-91z" />
    <glyph glyph-name="eogonek" unicode="&#x119;" horiz-adv-x="514" 
d="M350 303q2 54 -22 82t-66 28q-41 0 -68 -29t-30 -81h186zM450 -211q-26 -13 -54.5 -19.5t-58.5 -6.5q-58 0 -91.5 27t-33.5 75q0 34 18.5 68t56.5 62q-5 -1 -12 -1.5t-16 -0.5q-45 0 -84.5 12.5t-71.5 41.5t-50.5 78.5t-18.5 120.5q0 55 15.5 103t46 83.5t74.5 55
t99 19.5q53 0 92 -16t64.5 -45t37.5 -68t12 -85q0 -22 -1.5 -44t-2.5 -32h-307q2 -128 131 -128q38 0 77.5 6.5t78.5 18.5v-96q-26 -10 -47.5 -24.5t-37.5 -31.5t-25 -35t-9 -36q0 -16 9 -24.5t26 -8.5q37 0 83 22v-91z" />
    <glyph glyph-name="Ecaron" unicode="&#x11a;" horiz-adv-x="536" 
d="M70 0v675h407v-109h-277v-167h255v-104h-255v-183h280v-112h-410zM270 715l-164 83l31 67l135 -55l137 55l29 -65z" />
    <glyph glyph-name="ecaron" unicode="&#x11b;" horiz-adv-x="514" 
d="M350 303q2 54 -22 82t-66 28q-41 0 -68 -29t-30 -81h186zM475 293q0 -22 -1.5 -44t-2.5 -32h-307q2 -128 131 -128q73 0 156 25v-99q-39 -12 -83.5 -18.5t-86.5 -6.5q-121 0 -184 63t-63 193q0 55 15.5 103t46 83.5t74.5 55t99 19.5q53 0 92 -16t64.5 -45t37.5 -68
t12 -85zM264 560l-152 134l50 60l104 -82l105 82l48 -59z" />
    <glyph glyph-name="Gcircumflex" unicode="&#x11c;" horiz-adv-x="675" 
d="M608 32q-50 -20 -110 -31t-121 -11q-82 0 -146 23.5t-107.5 67.5t-65.5 105t-22 137q0 81 24.5 147.5t72 114.5t118 74t160.5 26q42 0 87 -6t83 -17v-127q-81 34 -178 34q-58 0 -101.5 -18t-71 -50t-40.5 -73.5t-13 -90.5q0 -108 55.5 -169t159.5 -61q47 0 86 12v235h130
v-322zM517 715l-136 55l-137 -55l-29 66l168 84l164 -83z" />
    <glyph glyph-name="gcircumflex" unicode="&#x11d;" horiz-adv-x="538" 
d="M453 398q12 -27 12 -57q0 -43 -14.5 -76.5t-41.5 -58.5t-66 -38.5t-93 -13.5h-18.5t-18.5 1q-19 -14 -19 -30q0 -14 15 -20.5t58 -8.5l70 -3q89 -4 133.5 -41.5t44.5 -107.5q0 -41 -18.5 -76.5t-53.5 -62t-84.5 -41.5t-112.5 -15q-101 0 -159.5 37t-58.5 108
q0 38 21.5 70.5t56.5 54.5q-42 25 -42 74q0 56 57 90q-38 24 -55.5 59.5t-17.5 78.5q0 39 13.5 73.5t40 59.5t66.5 39.5t94 14.5q46 0 84 -11h166v-99h-59zM205 -5v-1q-23 -15 -35.5 -35.5t-12.5 -40.5q0 -35 28.5 -55t79.5 -20q62 0 92 24.5t30 59.5q0 27 -19.5 44.5
t-65.5 19.5l-76 2zM343 329q0 38 -23 62t-64 24q-40 0 -63.5 -24t-23.5 -62t22.5 -62t64.5 -24t64.5 24t22.5 62zM364 560l-103 81l-105 -81l-49 58l155 136l152 -135z" />
    <glyph glyph-name="Gbreve" unicode="&#x11e;" horiz-adv-x="675" 
d="M608 32q-50 -20 -110 -31t-121 -11q-82 0 -146 23.5t-107.5 67.5t-65.5 105t-22 137q0 81 24.5 147.5t72 114.5t118 74t160.5 26q42 0 87 -6t83 -17v-127q-81 34 -178 34q-58 0 -101.5 -18t-71 -50t-40.5 -73.5t-13 -90.5q0 -108 55.5 -169t159.5 -61q47 0 86 12v235h130
v-322zM532 859q0 -28 -9 -53t-27.5 -43.5t-45.5 -29t-61 -10.5t-60.5 10.5t-44.5 29.5t-27 43.5t-9 52.5h76q0 -24 19 -40.5t47 -16.5q30 0 48 16t18 41h76z" />
    <glyph glyph-name="gbreve" unicode="&#x11f;" horiz-adv-x="538" 
d="M453 398q12 -27 12 -57q0 -43 -14.5 -76.5t-41.5 -58.5t-66 -38.5t-93 -13.5h-18.5t-18.5 1q-19 -14 -19 -30q0 -14 15 -20.5t58 -8.5l70 -3q89 -4 133.5 -41.5t44.5 -107.5q0 -41 -18.5 -76.5t-53.5 -62t-84.5 -41.5t-112.5 -15q-101 0 -159.5 37t-58.5 108
q0 38 21.5 70.5t56.5 54.5q-42 25 -42 74q0 56 57 90q-38 24 -55.5 59.5t-17.5 78.5q0 39 13.5 73.5t40 59.5t66.5 39.5t94 14.5q46 0 84 -11h166v-99h-59zM205 -5v-1q-23 -15 -35.5 -35.5t-12.5 -40.5q0 -35 28.5 -55t79.5 -20q62 0 92 24.5t30 59.5q0 27 -19.5 44.5
t-65.5 19.5l-76 2zM343 329q0 38 -23 62t-64 24q-40 0 -63.5 -24t-23.5 -62t22.5 -62t64.5 -24t64.5 24t22.5 62zM405 720q0 -31 -8.5 -58.5t-25.5 -49t-43.5 -33.5t-61.5 -12t-61 12.5t-42.5 33.5t-24 48.5t-7.5 58.5h83q0 -27 14 -44t39 -17t39.5 15.5t14.5 45.5h84z" />
    <glyph glyph-name="Gdotaccent" unicode="&#x120;" horiz-adv-x="675" 
d="M608 32q-50 -20 -110 -31t-121 -11q-82 0 -146 23.5t-107.5 67.5t-65.5 105t-22 137q0 81 24.5 147.5t72 114.5t118 74t160.5 26q42 0 87 -6t83 -17v-127q-81 34 -178 34q-58 0 -101.5 -18t-71 -50t-40.5 -73.5t-13 -90.5q0 -108 55.5 -169t159.5 -61q47 0 86 12v235h130
v-322zM459 800q0 -32 -22.5 -54.5t-53.5 -22.5q-32 0 -54.5 22.5t-22.5 54.5q0 31 22.5 53.5t54.5 22.5t54 -22t22 -54z" />
    <glyph glyph-name="gdotaccent" unicode="&#x121;" horiz-adv-x="538" 
d="M453 398q12 -27 12 -57q0 -43 -14.5 -76.5t-41.5 -58.5t-66 -38.5t-93 -13.5h-18.5t-18.5 1q-19 -14 -19 -30q0 -14 15 -20.5t58 -8.5l70 -3q89 -4 133.5 -41.5t44.5 -107.5q0 -41 -18.5 -76.5t-53.5 -62t-84.5 -41.5t-112.5 -15q-101 0 -159.5 37t-58.5 108
q0 38 21.5 70.5t56.5 54.5q-42 25 -42 74q0 56 57 90q-38 24 -55.5 59.5t-17.5 78.5q0 39 13.5 73.5t40 59.5t66.5 39.5t94 14.5q46 0 84 -11h166v-99h-59zM205 -5v-1q-23 -15 -35.5 -35.5t-12.5 -40.5q0 -35 28.5 -55t79.5 -20q62 0 92 24.5t30 59.5q0 27 -19.5 44.5
t-65.5 19.5l-76 2zM343 329q0 38 -23 62t-64 24q-40 0 -63.5 -24t-23.5 -62t22.5 -62t64.5 -24t64.5 24t22.5 62zM335 653q0 -32 -22 -54t-54 -22t-54.5 22t-22.5 54t22.5 54.5t54.5 22.5t54 -22.5t22 -54.5z" />
    <glyph glyph-name="Gcommaaccent" unicode="&#x122;" horiz-adv-x="675" 
d="M608 32q-50 -20 -110 -31t-121 -11q-82 0 -146 23.5t-107.5 67.5t-65.5 105t-22 137q0 81 24.5 147.5t72 114.5t118 74t160.5 26q42 0 87 -6t83 -17v-127q-81 34 -178 34q-58 0 -101.5 -18t-71 -50t-40.5 -73.5t-13 -90.5q0 -108 55.5 -169t159.5 -61q47 0 86 12v235h130
v-322zM383 -47q27 0 44 -18t17 -48q0 -19 -8 -37.5t-24.5 -35.5t-43 -31.5t-65.5 -24.5l-20 46q29 16 39 28t10 26q0 11 -4 20.5t-4 18.5q0 23 16 39.5t43 16.5z" />
    <glyph glyph-name="gcommaaccent" unicode="&#x123;" horiz-adv-x="538" 
d="M453 398q12 -27 12 -57q0 -43 -14.5 -76.5t-41.5 -58.5t-66 -38.5t-93 -13.5h-18.5t-18.5 1q-19 -14 -19 -30q0 -14 15 -20.5t58 -8.5l70 -3q89 -4 133.5 -41.5t44.5 -107.5q0 -41 -18.5 -76.5t-53.5 -62t-84.5 -41.5t-112.5 -15q-101 0 -159.5 37t-58.5 108
q0 38 21.5 70.5t56.5 54.5q-42 25 -42 74q0 56 57 90q-38 24 -55.5 59.5t-17.5 78.5q0 39 13.5 73.5t40 59.5t66.5 39.5t94 14.5q46 0 84 -11h166v-99h-59zM205 -5v-1q-23 -15 -35.5 -35.5t-12.5 -40.5q0 -35 28.5 -55t79.5 -20q62 0 92 24.5t30 59.5q0 27 -19.5 44.5
t-65.5 19.5l-76 2zM343 329q0 38 -23 62t-64 24q-40 0 -63.5 -24t-23.5 -62t22.5 -62t64.5 -24t64.5 24t22.5 62zM252 561q-29 0 -46 23.5t-13 57t38 65.5t101 49l21 -46q-39 -20 -46.5 -37t0.5 -36q10 -29 -6 -52.5t-49 -23.5z" />
    <glyph glyph-name="Hcircumflex" unicode="&#x124;" horiz-adv-x="686" 
d="M486 0v293h-286v-293h-130v675h130v-270h286v270h131v-675h-131zM480 715l-136 55l-137 -55l-29 66l168 84l164 -83z" />
    <glyph glyph-name="hcircumflex" unicode="&#x125;" horiz-adv-x="571" 
d="M374 0v318q0 41 -14 61.5t-48 20.5q-24 0 -45 -12.5t-36.5 -35t-24.5 -52t-9 -61.5v-239h-128v730h128v-214q0 -26 -2 -53t-7 -48h2q22 43 64.5 67.5t98.5 24.5q41 0 69.5 -12t46 -33.5t25 -50t7.5 -62.5v-349h-127zM417 751l-136 55l-137 -55l-29 66l168 84l164 -83z
" />
    <glyph glyph-name="Hbar" unicode="&#x126;" horiz-adv-x="706" 
d="M210 482v-99h286v99h-286zM692 588v-106h-65v-482h-131v277h-286v-277h-130v482h-65v106h65v87h130v-87h286v87h131v-87h65z" />
    <glyph glyph-name="hbar" unicode="&#x127;" horiz-adv-x="577" 
d="M380 0v315q0 41 -14 61.5t-48 20.5q-24 0 -45 -12.5t-37 -35t-24.5 -51.5t-8.5 -62v-236h-128v562h-75v99h75v69h128v-69h119v-99h-119v-58q0 -24 -2.5 -48t-6.5 -43l1 -1q22 43 64.5 67.5t99.5 24.5q41 0 69.5 -12t46 -33.5t25 -50t7.5 -62.5v-346h-127z" />
    <glyph glyph-name="Itilde" unicode="&#x128;" horiz-adv-x="270" 
d="M70 0v675h130v-675h-130zM323 810q-46 -82 -126 -82q-23 0 -40 6.5t-37 19t-28.5 17t-21.5 4.5q-33 0 -58 -43l-64 44q46 82 126 82q23 0 40.5 -6.5t37 -19t28.5 -17t22 -4.5q17 0 31 10.5t26 31.5z" />
    <glyph glyph-name="itilde" unicode="&#x129;" horiz-adv-x="266" 
d="M69 0v497h128v-497h-128zM293 667q-17 -42 -45 -65t-67 -23q-17 0 -31 6.5t-25.5 15t-24 17t-20.5 8.5q-14 0 -26 -12.5t-20 -29.5l-59 44q13 39 42 64t69 25q17 0 31.5 -6.5t26.5 -15t24.5 -17t19.5 -8.5q14 0 25.5 12t20.5 30z" />
    <glyph glyph-name="Imacron" unicode="&#x12a;" horiz-adv-x="270" 
d="M70 0v675h130v-675h-130zM-12 741v81h293v-81h-293z" />
    <glyph glyph-name="imacron" unicode="&#x12b;" horiz-adv-x="266" 
d="M69 0v497h128v-497h-128zM6 600v92h255v-92h-255z" />
    <glyph glyph-name="Ibreve" unicode="&#x12c;" horiz-adv-x="270" 
d="M70 0v675h130v-675h-130zM276 859q0 -28 -9 -53t-27.5 -43.5t-45.5 -29t-61 -10.5t-60.5 10.5t-44.5 29.5t-27 43.5t-9 52.5h76q0 -24 19 -40.5t47 -16.5q30 0 48 16t18 41h76z" />
    <glyph glyph-name="ibreve" unicode="&#x12d;" horiz-adv-x="266" 
d="M69 0v497h128v-497h-128zM263 720q0 -73 -33.5 -113t-96.5 -40q-62 0 -94.5 40t-32.5 113h82q0 -26 12.5 -43.5t33.5 -17.5q22 0 34 16t12 45h83z" />
    <glyph glyph-name="Iogonek" unicode="&#x12e;" horiz-adv-x="270" 
d="M242 -211q-25 -13 -53.5 -19.5t-59.5 -6.5q-57 0 -90.5 27t-33.5 75q0 36 17 69t48 67v674h130v-675q-41 -29 -58.5 -56.5t-17.5 -52.5q0 -16 9 -24.5t26 -8.5q19 0 40.5 5.5t42.5 16.5v-91z" />
    <glyph glyph-name="iogonek" unicode="&#x12f;" horiz-adv-x="266" 
d="M240 -211q-25 -13 -53.5 -19.5t-58.5 -6.5q-58 0 -91.5 27t-33.5 75q0 36 17 69.5t49 66.5v496h128v-497q-40 -29 -57.5 -57t-17.5 -52q0 -16 9.5 -24.5t26.5 -8.5q19 0 40 5.5t42 16.5v-91zM213 648q0 -32 -23.5 -54.5t-56.5 -22.5t-56 22.5t-23 54.5t23 55t56 23
t56.5 -22.5t23.5 -55.5z" />
    <glyph glyph-name="Idotaccent" unicode="&#x130;" horiz-adv-x="270" 
d="M70 0v675h130v-675h-130zM212 794q0 -32 -22.5 -54.5t-53.5 -22.5q-32 0 -54.5 22.5t-22.5 54.5q0 31 22.5 53.5t54.5 22.5t54 -22t22 -54z" />
    <glyph glyph-name="dotlessi" unicode="&#x131;" horiz-adv-x="266" 
d="M69 0v497h128v-497h-128z" />
    <glyph glyph-name="IJ" unicode="&#x132;" horiz-adv-x="559" 
d="M70 0v675h130v-675h-130zM276 -127q24 15 39.5 29.5t25.5 32t14 39.5t4 52v649h130v-641q0 -41 -6.5 -74.5t-23.5 -62t-46 -54t-74 -50.5z" />
    <glyph glyph-name="ij" unicode="&#x133;" horiz-adv-x="533" 
d="M69 0v497h128v-497h-128zM213 648q0 -32 -23.5 -54.5t-56.5 -22.5t-56 22.5t-23 54.5t23 55t56 23t56.5 -22.5t23.5 -55.5zM479 648q0 -32 -23.5 -54.5t-56.5 -22.5t-56.5 22.5t-23.5 54.5t23.5 55t56.5 23t56.5 -22.5t23.5 -55.5zM463 -20q0 -45 -8 -80.5t-27 -63.5
t-49 -49.5t-73 -39.5l-53 87q22 12 37.5 23.5t25.5 27.5t14.5 38.5t4.5 56.5v517h128v-517z" />
    <glyph glyph-name="Jcircumflex" unicode="&#x134;" horiz-adv-x="270" 
d="M-13 -127q24 15 39.5 29.5t25.5 32t14 39.5t4 52v649h130v-641q0 -41 -6.5 -74.5t-23.5 -62t-46 -54t-74 -50.5zM271 715l-136 55l-137 -55l-29 66l168 84l164 -83z" />
    <glyph glyph-name="jcircumflex" unicode="&#x135;" horiz-adv-x="266" 
d="M197 -20q0 -45 -8 -80.5t-27 -63.5t-49 -49.5t-73 -39.5l-53 87q22 12 37.5 23.5t25.5 27.5t14.5 38.5t4.5 56.5v517h128v-517zM222 560l-88 81l-91 -81l-46 57l137 136l137 -134z" />
    <glyph glyph-name="Kcommaaccent" unicode="&#x136;" horiz-adv-x="600" 
d="M436 0l-236 324v-324h-130v675h130v-306l228 306h154l-249 -322l265 -353h-162zM301 -47q27 0 44 -18t17 -48q0 -19 -8 -37.5t-24.5 -35.5t-43 -31.5t-65.5 -24.5l-20 46q29 16 39 28t10 26q0 11 -4 20.5t-4 18.5q0 23 16 39.5t43 16.5z" />
    <glyph glyph-name="kcommaaccent" unicode="&#x137;" horiz-adv-x="523" 
d="M351 0l-154 246v-246h-128v730h128v-440l145 207h150l-171 -222l190 -275h-160zM269 -47q27 0 44 -18t17 -48q0 -19 -8 -37.5t-24.5 -35.5t-43 -31.5t-65.5 -24.5l-20 46q29 16 39 28t10 26q0 11 -4 20.5t-4 18.5q0 23 16 39.5t43 16.5z" />
    <glyph glyph-name="kgreenlandic" unicode="&#x138;" horiz-adv-x="522" 
d="M348 0l-151 238v-238h-128v497h128v-215l151 215h149l-175 -226l184 -271h-158z" />
    <glyph glyph-name="Lacute" unicode="&#x139;" horiz-adv-x="454" 
d="M70 0v675h130v-562h246v-113h-376zM124 716l-21 70l208 75l29 -92z" />
    <glyph glyph-name="lacute" unicode="&#x13a;" horiz-adv-x="266" 
d="M69 0v730h128v-730h-128zM87 776l-21 70l208 75l29 -92z" />
    <glyph glyph-name="Lcommaaccent" unicode="&#x13b;" horiz-adv-x="454" 
d="M70 0v675h130v-562h246v-113h-376zM262 -47q27 0 44 -18t17 -48q0 -19 -8 -37.5t-24.5 -35.5t-43 -31.5t-65.5 -24.5l-20 46q29 16 39 28t10 26q0 11 -4 20.5t-4 18.5q0 23 16 39.5t43 16.5z" />
    <glyph glyph-name="lcommaaccent" unicode="&#x13c;" horiz-adv-x="266" 
d="M69 0v730h128v-730h-128zM137 -47q27 0 44 -18t17 -48q0 -19 -8 -37.5t-24.5 -35.5t-43 -31.5t-65.5 -24.5l-20 46q29 16 39 28t10 26q0 11 -4 20.5t-4 18.5q0 23 16 39.5t43 16.5z" />
    <glyph glyph-name="Lcaron" unicode="&#x13d;" horiz-adv-x="454" 
d="M70 0v675h130v-562h246v-113h-376zM332 553l-83 18l51 205l102 -22z" />
    <glyph glyph-name="lcaron" unicode="&#x13e;" horiz-adv-x="319" 
d="M69 0v730h128v-730h-128zM315 553l-83 18l51 205l102 -22z" />
    <glyph glyph-name="Lslash" unicode="&#x141;" horiz-adv-x="463" 
d="M79 0v315l-66 -31l-23 101l89 41v249h130v-188l98 45l24 -101l-122 -55v-263h246v-113h-376z" />
    <glyph glyph-name="lslash" unicode="&#x142;" horiz-adv-x="300" 
d="M215 393v-393h-128v326l-51 -29l-25 95l76 42v296h128v-229l54 31l26 -95z" />
    <glyph glyph-name="Nacute" unicode="&#x143;" horiz-adv-x="686" 
d="M490 0h-11l-212 342q-38 62 -51.5 88.5t-27.5 57.5h-2q2 -23 3.5 -53t2.5 -57.5t2.5 -75.5t1.5 -118v-184h-126v675h126h22l199 -320q45 -75 56.5 -97t24.5 -51h2q-2 26 -4.5 77.5t-3.5 85.5t-1.5 65.5t-0.5 75.5v164h126v-675h-126zM316 716l-21 70l208 75l29 -92z" />
    <glyph glyph-name="nacute" unicode="&#x144;" horiz-adv-x="571" 
d="M374 0v318q0 41 -14 61.5t-48 20.5q-23 0 -44 -12.5t-37 -35t-25 -51.5t-9 -61v-240h-128v497h121q0 -20 -2 -45.5t-5 -43.5h1q23 45 66.5 72t102.5 27q41 0 69.5 -12t46 -34.5t25 -52t7.5 -64.5v-344h-127zM290 558l-57 61l150 144l70 -75z" />
    <glyph glyph-name="Ncommaaccent" unicode="&#x145;" horiz-adv-x="686" 
d="M490 0h-11l-212 342q-38 62 -51.5 88.5t-27.5 57.5h-2q2 -23 3.5 -53t2.5 -57.5t2.5 -75.5t1.5 -118v-184h-126v675h126h22l199 -320q45 -75 56.5 -97t24.5 -51h2q-2 26 -4.5 77.5t-3.5 85.5t-1.5 65.5t-0.5 75.5v164h126v-675h-126zM340 -47q27 0 44 -18t17 -48
q0 -19 -8 -37.5t-24.5 -35.5t-43 -31.5t-65.5 -24.5l-20 46q29 16 39 28t10 26q0 11 -4 20.5t-4 18.5q0 23 16 39.5t43 16.5z" />
    <glyph glyph-name="ncommaaccent" unicode="&#x146;" horiz-adv-x="571" 
d="M374 0v318q0 41 -14 61.5t-48 20.5q-23 0 -44 -12.5t-37 -35t-25 -51.5t-9 -61v-240h-128v497h121q0 -20 -2 -45.5t-5 -43.5h1q23 45 66.5 72t102.5 27q41 0 69.5 -12t46 -34.5t25 -52t7.5 -64.5v-344h-127zM290 -47q27 0 44 -18t17 -48q0 -19 -8 -37.5t-24.5 -35.5
t-43 -31.5t-65.5 -24.5l-20 46q29 16 39 28t10 26q0 11 -4 20.5t-4 18.5q0 23 16 39.5t43 16.5z" />
    <glyph glyph-name="Ncaron" unicode="&#x147;" horiz-adv-x="686" 
d="M490 0h-11l-212 342q-38 62 -51.5 88.5t-27.5 57.5h-2q2 -23 3.5 -53t2.5 -57.5t2.5 -75.5t1.5 -118v-184h-126v675h126h22l199 -320q45 -75 56.5 -97t24.5 -51h2q-2 26 -4.5 77.5t-3.5 85.5t-1.5 65.5t-0.5 75.5v164h126v-675h-126zM344 715l-164 83l31 67l135 -55
l137 55l29 -65z" />
    <glyph glyph-name="ncaron" unicode="&#x148;" horiz-adv-x="571" 
d="M374 0v318q0 41 -14 61.5t-48 20.5q-23 0 -44 -12.5t-37 -35t-25 -51.5t-9 -61v-240h-128v497h121q0 -20 -2 -45.5t-5 -43.5h1q23 45 66.5 72t102.5 27q41 0 69.5 -12t46 -34.5t25 -52t7.5 -64.5v-344h-127zM281 560l-152 134l50 60l104 -82l105 82l48 -59z" />
    <glyph glyph-name="napostrophe" unicode="&#x149;" horiz-adv-x="681" 
d="M484 0v318q0 41 -14 61.5t-48 20.5q-23 0 -44 -12.5t-37 -35t-25 -51.5t-9 -61v-240h-128v497h121q0 -20 -2 -45.5t-5 -43.5h1q23 45 66.5 72t102.5 27q41 0 69.5 -12t46 -34.5t25 -52t7.5 -64.5v-344h-127zM108 747q35 0 58 -27.5t23 -72.5t-29.5 -103t-99.5 -119
l-52 47q51 55 57.5 90.5t-17.5 63.5q-14 16 -16 37t6 40t26 31.5t44 12.5z" />
    <glyph glyph-name="Eng" unicode="&#x14a;" horiz-adv-x="690" 
d="M620 -1q0 -60 -13 -103.5t-38.5 -73t-63.5 -47t-91 -26.5l-28 102q55 10 81 38t26 89l-241 389q-36 59 -64 123q1 -22 2.5 -58.5t3 -80.5t2 -88t0.5 -80v-183h-126v675h148l224 -358q17 -28 33 -57.5t27 -54.5q-1 26 -2.5 62.5t-3 78.5t-2 83.5t-0.5 75.5v170h126v-676z
" />
    <glyph glyph-name="eng" unicode="&#x14b;" horiz-adv-x="571" 
d="M506 184q0 -83 -4 -139.5t-12.5 -93.5t-22 -61t-33.5 -44q-22 -22 -53.5 -37.5t-76.5 -27.5l-30 100q44 14 65 33q12 12 19 26t12 38.5t7 66.5t2 109v21q0 72 -4.5 116.5t-13 68t-22 32t-34.5 8.5t-40.5 -12t-35 -33t-24 -48.5t-8.5 -57.5v-249h-128v497h121
q0 -24 -2 -48.5t-5 -39.5h1q23 45 65.5 71.5t93.5 26.5q46 0 76.5 -15.5t49.5 -50t28 -92t9 -143.5v-22z" />
    <glyph glyph-name="Omacron" unicode="&#x14c;" horiz-adv-x="713" 
d="M538 335q0 110 -46 172t-136 62q-40 0 -73 -15t-57.5 -44t-37.5 -72t-13 -97q0 -55 11.5 -98.5t34 -74t56.5 -46.5t79 -16q40 0 73.5 15t57.5 44t37.5 72t13.5 98zM677 350q0 -85 -26 -153t-71.5 -114.5t-105.5 -70t-128 -23.5q-75 0 -133.5 22.5t-97.5 66t-59 105.5
t-20 142q0 85 26 153t71.5 114.5t105.5 70t128 23.5q75 0 133.5 -22.5t97.5 -66t59 -105.5t20 -142zM212 741v81h293v-81h-293z" />
    <glyph glyph-name="omacron" unicode="&#x14d;" horiz-adv-x="553" 
d="M388 248q0 73 -29 112t-81 39q-26 0 -47 -9.5t-35.5 -28.5t-22.5 -47t-8 -65q0 -150 111 -150q51 0 81.5 37.5t30.5 111.5zM520 260q0 -58 -17 -107t-49.5 -86t-80 -57t-106.5 -20q-54 0 -97 15t-73.5 45.5t-47 77t-16.5 109.5q0 58 17 107t49.5 86t80 57t106.5 20
q113 0 173.5 -63t60.5 -184zM148 600v92h270v-92h-270z" />
    <glyph glyph-name="Obreve" unicode="&#x14e;" horiz-adv-x="713" 
d="M538 335q0 110 -46 172t-136 62q-40 0 -73 -15t-57.5 -44t-37.5 -72t-13 -97q0 -55 11.5 -98.5t34 -74t56.5 -46.5t79 -16q40 0 73.5 15t57.5 44t37.5 72t13.5 98zM677 350q0 -85 -26 -153t-71.5 -114.5t-105.5 -70t-128 -23.5q-75 0 -133.5 22.5t-97.5 66t-59 105.5
t-20 142q0 85 26 153t71.5 114.5t105.5 70t128 23.5q75 0 133.5 -22.5t97.5 -66t59 -105.5t20 -142zM499 859q0 -28 -9 -53t-27.5 -43.5t-45.5 -29t-61 -10.5t-60.5 10.5t-44.5 29.5t-27 43.5t-9 52.5h76q0 -24 19 -40.5t47 -16.5q30 0 48 16t18 41h76z" />
    <glyph glyph-name="obreve" unicode="&#x14f;" horiz-adv-x="553" 
d="M388 248q0 73 -29 112t-81 39q-26 0 -47 -9.5t-35.5 -28.5t-22.5 -47t-8 -65q0 -150 111 -150q51 0 81.5 37.5t30.5 111.5zM520 260q0 -58 -17 -107t-49.5 -86t-80 -57t-106.5 -20q-54 0 -97 15t-73.5 45.5t-47 77t-16.5 109.5q0 58 17 107t49.5 86t80 57t106.5 20
q113 0 173.5 -63t60.5 -184zM414 720q0 -31 -8.5 -58.5t-25.5 -49t-43.5 -33.5t-61.5 -12t-61 12.5t-42.5 33.5t-24 48.5t-7.5 58.5h83q0 -27 14 -44t39 -17t39.5 15.5t14.5 45.5h84z" />
    <glyph glyph-name="Ohungarumlaut" unicode="&#x150;" horiz-adv-x="713" 
d="M538 335q0 110 -46 172t-136 62q-40 0 -73 -15t-57.5 -44t-37.5 -72t-13 -97q0 -55 11.5 -98.5t34 -74t56.5 -46.5t79 -16q40 0 73.5 15t57.5 44t37.5 72t13.5 98zM677 350q0 -85 -26 -153t-71.5 -114.5t-105.5 -70t-128 -23.5q-75 0 -133.5 22.5t-97.5 66t-59 105.5
t-20 142q0 85 26 153t71.5 114.5t105.5 70t128 23.5q75 0 133.5 -22.5t97.5 -66t59 -105.5t20 -142zM273 714l-59 51l127 149l73 -63zM465 713l-57 53l145 141l68 -67z" />
    <glyph glyph-name="ohungarumlaut" unicode="&#x151;" horiz-adv-x="553" 
d="M388 248q0 73 -29 112t-81 39q-26 0 -47 -9.5t-35.5 -28.5t-22.5 -47t-8 -65q0 -150 111 -150q51 0 81.5 37.5t30.5 111.5zM520 260q0 -58 -17 -107t-49.5 -86t-80 -57t-106.5 -20q-54 0 -97 15t-73.5 45.5t-47 77t-16.5 109.5q0 58 17 107t49.5 86t80 57t106.5 20
q113 0 173.5 -63t60.5 -184zM200 560l-60 51l129 155l74 -62zM389 560l-56 51l143 147l69 -67z" />
    <glyph glyph-name="OE" unicode="&#x152;" horiz-adv-x="915" 
d="M449 557q-19 6 -44 9t-49 3q-40 0 -73.5 -15t-57.5 -44t-37.5 -72t-13.5 -97q0 -55 11.5 -98.5t34.5 -74t57 -46.5t79 -16q21 0 46.5 3.5t46.5 8.5v439zM464 0q-57 -11 -118 -11q-75 0 -133.5 22.5t-97.5 66t-59 105.5t-20 142q0 85 26 153t71.5 114.5t105.5 70t128 23.5
q28 0 58 -3t56 -8h375v-109h-277v-167h254v-104h-254v-183h280v-112h-395z" />
    <glyph glyph-name="oe" unicode="&#x153;" horiz-adv-x="860" 
d="M388 248q0 73 -29 112t-81 39q-26 0 -47 -9.5t-35.5 -28.5t-22.5 -47t-8 -65q0 -150 111 -150q51 0 81.5 37.5t30.5 111.5zM696 303q2 54 -22 82t-66 28q-41 0 -67.5 -29t-30.5 -81h186zM821 293q0 -22 -1.5 -44t-2.5 -32h-307q3 -128 131 -128q38 0 77.5 6.5t78.5 18.5
v-99q-39 -12 -83.5 -18.5t-86.5 -6.5q-69 0 -114.5 20t-71.5 59q-25 -36 -71 -57.5t-103 -21.5q-54 0 -97 15t-73.5 45.5t-47 77t-16.5 109.5q0 58 17 107t49.5 86t80 57t106.5 20q56 0 99 -18t71 -56q24 34 65 54t94 20t92 -16t64.5 -45t37.5 -68t12 -85z" />
    <glyph glyph-name="Racute" unicode="&#x154;" horiz-adv-x="575" 
d="M381 472q0 101 -122 101q-17 0 -34 -1t-25 -2v-200q7 0 23 -0.5t32 -0.5q60 0 93 27t33 76zM406 0l-170 272h-36v-272h-130v675q23 1 77.5 2.5t120.5 1.5q59 0 105 -11.5t78.5 -35t49.5 -60.5t17 -88q0 -39 -11.5 -71t-32 -55.5t-48 -39.5t-60.5 -24q7 -9 22.5 -29.5
t29.5 -43.5l146 -221h-158zM220 716l-21 70l208 75l29 -92z" />
    <glyph glyph-name="racute" unicode="&#x155;" horiz-adv-x="355" 
d="M338 382q-141 27 -141 -179v-203h-128v497h121q0 -20 -2.5 -47.5t-6.5 -52.5h2q10 25 23.5 46t32 36.5t43.5 23t56 4.5v-125zM196 558l-57 61l150 144l70 -75z" />
    <glyph glyph-name="Rcommaaccent" unicode="&#x156;" horiz-adv-x="575" 
d="M381 472q0 101 -122 101q-17 0 -34 -1t-25 -2v-200q7 0 23 -0.5t32 -0.5q60 0 93 27t33 76zM406 0l-170 272h-36v-272h-130v675q23 1 77.5 2.5t120.5 1.5q59 0 105 -11.5t78.5 -35t49.5 -60.5t17 -88q0 -39 -11.5 -71t-32 -55.5t-48 -39.5t-60.5 -24q7 -9 22.5 -29.5
t29.5 -43.5l146 -221h-158zM290 -47q27 0 44 -18t17 -48q0 -19 -8 -37.5t-24.5 -35.5t-43 -31.5t-65.5 -24.5l-20 46q29 16 39 28t10 26q0 11 -4 20.5t-4 18.5q0 23 16 39.5t43 16.5z" />
    <glyph glyph-name="rcommaaccent" unicode="&#x157;" horiz-adv-x="355" 
d="M338 382q-141 27 -141 -179v-203h-128v497h121q0 -20 -2.5 -47.5t-6.5 -52.5h2q10 25 23.5 46t32 36.5t43.5 23t56 4.5v-125zM146 -47q27 0 44 -18t17 -48q0 -19 -8 -37.5t-24.5 -35.5t-43 -31.5t-65.5 -24.5l-20 46q29 16 39 28t10 26q0 11 -4 20.5t-4 18.5
q0 23 16 39.5t43 16.5z" />
    <glyph glyph-name="Rcaron" unicode="&#x158;" horiz-adv-x="575" 
d="M381 472q0 101 -122 101q-17 0 -34 -1t-25 -2v-200q7 0 23 -0.5t32 -0.5q60 0 93 27t33 76zM406 0l-170 272h-36v-272h-130v675q23 1 77.5 2.5t120.5 1.5q59 0 105 -11.5t78.5 -35t49.5 -60.5t17 -88q0 -39 -11.5 -71t-32 -55.5t-48 -39.5t-60.5 -24q7 -9 22.5 -29.5
t29.5 -43.5l146 -221h-158zM265 715l-164 83l31 67l135 -55l137 55l29 -65z" />
    <glyph glyph-name="rcaron" unicode="&#x159;" horiz-adv-x="355" 
d="M338 382q-141 27 -141 -179v-203h-128v497h121q0 -20 -2.5 -47.5t-6.5 -52.5h2q10 25 23.5 46t32 36.5t43.5 23t56 4.5v-125zM203 560l-152 134l50 60l104 -82l105 82l48 -59z" />
    <glyph glyph-name="Sacute" unicode="&#x15a;" horiz-adv-x="504" 
d="M469 198q0 -45 -17 -83.5t-50 -66.5t-81 -43.5t-109 -15.5q-87 0 -157 19v124q34 -13 78.5 -21.5t83.5 -8.5q25 0 46 5t36 15t23 26t8 38q0 30 -19.5 50t-58 37.5t-74.5 33t-66.5 37.5t-50.5 57t-20 87q0 44 17 80.5t50 62.5t81 40.5t107 14.5q27 0 58 -3.5t59 -8.5v-115
q-29 9 -62.5 14t-62.5 5q-55 0 -83.5 -20.5t-28.5 -57.5q0 -28 19.5 -47t57.5 -36t75.5 -33.5t69 -39t51.5 -58.5t20 -88zM210 716l-21 70l208 75l29 -92z" />
    <glyph glyph-name="sacute" unicode="&#x15b;" horiz-adv-x="417" 
d="M378 151q0 -34 -13 -63.5t-40 -51.5t-67 -34t-93 -12q-30 0 -58 3t-55 9v107q27 -9 57.5 -14.5t60.5 -5.5q37 0 56 13t19 37q0 20 -13.5 32.5t-38.5 23t-52.5 22t-49.5 27t-36 42.5t-14 66q0 33 12.5 61t38.5 49.5t65.5 33.5t90.5 12q21 0 44 -2t47 -6v-102
q-20 6 -46 9.5t-49 3.5q-35 0 -53.5 -12.5t-18.5 -34.5q0 -19 13.5 -31.5t38.5 -22.5t53.5 -22t50.5 -28t36 -43t14 -66zM185 558l-57 61l150 144l70 -75z" />
    <glyph glyph-name="Scircumflex" unicode="&#x15c;" horiz-adv-x="504" 
d="M469 198q0 -45 -17 -83.5t-50 -66.5t-81 -43.5t-109 -15.5q-87 0 -157 19v124q34 -13 78.5 -21.5t83.5 -8.5q25 0 46 5t36 15t23 26t8 38q0 30 -19.5 50t-58 37.5t-74.5 33t-66.5 37.5t-50.5 57t-20 87q0 44 17 80.5t50 62.5t81 40.5t107 14.5q27 0 58 -3.5t59 -8.5v-115
q-29 9 -62.5 14t-62.5 5q-55 0 -83.5 -20.5t-28.5 -57.5q0 -28 19.5 -47t57.5 -36t75.5 -33.5t69 -39t51.5 -58.5t20 -88zM398 715l-136 55l-137 -55l-29 66l168 84l164 -83z" />
    <glyph glyph-name="scircumflex" unicode="&#x15d;" horiz-adv-x="417" 
d="M378 151q0 -34 -13 -63.5t-40 -51.5t-67 -34t-93 -12q-30 0 -58 3t-55 9v107q27 -9 57.5 -14.5t60.5 -5.5q37 0 56 13t19 37q0 20 -13.5 32.5t-38.5 23t-52.5 22t-49.5 27t-36 42.5t-14 66q0 33 12.5 61t38.5 49.5t65.5 33.5t90.5 12q21 0 44 -2t47 -6v-102
q-20 6 -46 9.5t-49 3.5q-35 0 -53.5 -12.5t-18.5 -34.5q0 -19 13.5 -31.5t38.5 -22.5t53.5 -22t50.5 -28t36 -43t14 -66zM308 560l-103 81l-105 -81l-49 58l155 136l152 -135z" />
    <glyph glyph-name="Scedilla" unicode="&#x15e;" horiz-adv-x="504" 
d="M469 198q0 -45 -17 -83.5t-50 -66.5t-81 -43.5t-109 -15.5q-87 0 -157 19v124q34 -13 78.5 -21.5t83.5 -8.5q25 0 46 5t36 15t23 26t8 38q0 30 -19.5 50t-58 37.5t-74.5 33t-66.5 37.5t-50.5 57t-20 87q0 44 17 80.5t50 62.5t81 40.5t107 14.5q27 0 58 -3.5t59 -8.5v-115
q-29 9 -62.5 14t-62.5 5q-55 0 -83.5 -20.5t-28.5 -57.5q0 -28 19.5 -47t57.5 -36t75.5 -33.5t69 -39t51.5 -58.5t20 -88zM286 -40q37 -51 30.5 -100t-50.5 -94h-97q38 45 42 81.5t-31 79.5z" />
    <glyph glyph-name="scedilla" unicode="&#x15f;" horiz-adv-x="417" 
d="M378 151q0 -34 -13 -63.5t-40 -51.5t-67 -34t-93 -12q-30 0 -58 3t-55 9v107q27 -9 57.5 -14.5t60.5 -5.5q37 0 56 13t19 37q0 20 -13.5 32.5t-38.5 23t-52.5 22t-49.5 27t-36 42.5t-14 66q0 33 12.5 61t38.5 49.5t65.5 33.5t90.5 12q21 0 44 -2t47 -6v-102
q-20 6 -46 9.5t-49 3.5q-35 0 -53.5 -12.5t-18.5 -34.5q0 -19 13.5 -31.5t38.5 -22.5t53.5 -22t50.5 -28t36 -43t14 -66zM250 -40q37 -51 30.5 -100t-50.5 -94h-97q38 45 42 81.5t-31 79.5z" />
    <glyph glyph-name="Scaron" unicode="&#x160;" horiz-adv-x="504" 
d="M469 198q0 -45 -17 -83.5t-50 -66.5t-81 -43.5t-109 -15.5q-87 0 -157 19v124q34 -13 78.5 -21.5t83.5 -8.5q25 0 46 5t36 15t23 26t8 38q0 30 -19.5 50t-58 37.5t-74.5 33t-66.5 37.5t-50.5 57t-20 87q0 44 17 80.5t50 62.5t81 40.5t107 14.5q27 0 58 -3.5t59 -8.5v-115
q-29 9 -62.5 14t-62.5 5q-55 0 -83.5 -20.5t-28.5 -57.5q0 -28 19.5 -47t57.5 -36t75.5 -33.5t69 -39t51.5 -58.5t20 -88zM252 715l-164 83l31 67l135 -55l137 55l29 -65z" />
    <glyph glyph-name="scaron" unicode="&#x161;" horiz-adv-x="417" 
d="M378 151q0 -34 -13 -63.5t-40 -51.5t-67 -34t-93 -12q-30 0 -58 3t-55 9v107q27 -9 57.5 -14.5t60.5 -5.5q37 0 56 13t19 37q0 20 -13.5 32.5t-38.5 23t-52.5 22t-49.5 27t-36 42.5t-14 66q0 33 12.5 61t38.5 49.5t65.5 33.5t90.5 12q21 0 44 -2t47 -6v-102
q-20 6 -46 9.5t-49 3.5q-35 0 -53.5 -12.5t-18.5 -34.5q0 -19 13.5 -31.5t38.5 -22.5t53.5 -22t50.5 -28t36 -43t14 -66zM209 560l-152 134l50 60l104 -82l105 82l48 -59z" />
    <glyph glyph-name="uni0162" unicode="&#x162;" horiz-adv-x="510" 
d="M320 564v-564h-130v564h-175v111h480v-111h-175zM300 -40q37 -51 30.5 -100t-50.5 -94h-97q38 45 42 81.5t-31 79.5z" />
    <glyph glyph-name="uni0163" unicode="&#x163;" horiz-adv-x="375" 
d="M340 3q-26 -6 -51.5 -9.5t-48.5 -3.5q-43 0 -71 8.5t-44.5 26.5t-24 48t-7.5 76v249h-85v99h85v153l128 34v-187h119v-99h-119v-225q0 -44 12 -60t43 -16q26 0 64 8v-102zM258 -40q37 -51 30.5 -100t-50.5 -94h-97q38 45 42 81.5t-31 79.5z" />
    <glyph glyph-name="Tcaron" unicode="&#x164;" horiz-adv-x="510" 
d="M320 564v-564h-130v564h-175v111h480v-111h-175zM252 715l-164 83l31 67l135 -55l137 55l29 -65z" />
    <glyph glyph-name="tcaron" unicode="&#x165;" horiz-adv-x="379" 
d="M340 3q-26 -6 -51.5 -9.5t-48.5 -3.5q-43 0 -71 8.5t-44.5 26.5t-24 48t-7.5 76v249h-85v99h85v153l128 34v-187h119v-99h-119v-225q0 -44 12 -60t43 -16q26 0 64 8v-102zM343 553l-83 18l51 205l102 -22z" />
    <glyph glyph-name="Tbar" unicode="&#x166;" horiz-adv-x="510" 
d="M190 564h-175v111h480v-111h-175v-176h105v-105h-105v-283h-130v283h-104v105h104v176z" />
    <glyph glyph-name="tbar" unicode="&#x167;" horiz-adv-x="400" 
d="M337 301v-93h-109v-39q0 -42 12 -58t44 -16q30 0 64 9v-101q-28 -6 -52.5 -9.5t-48.5 -3.5q-43 0 -70.5 8t-44.5 26.5t-24 48.5t-7 75v60h-78v93h78v101h-85v95h85v153l127 34v-187h120v-95h-120v-101h109z" />
    <glyph glyph-name="Utilde" unicode="&#x168;" horiz-adv-x="681" 
d="M611 262q0 -137 -72 -205t-208 -68q-77 0 -128.5 19.5t-80.5 53t-40.5 76.5t-11.5 96v441h130v-433q0 -34 6.5 -60t22 -45t43 -29.5t68.5 -10.5q76 0 109 36t33 121v421h129v-413zM528 810q-46 -82 -126 -82q-23 0 -40 6.5t-37 19t-28.5 17t-21.5 4.5q-33 0 -58 -43
l-64 44q46 82 126 82q23 0 40.5 -6.5t37 -19t28.5 -17t22 -4.5q17 0 31 10.5t26 31.5z" />
    <glyph glyph-name="utilde" unicode="&#x169;" horiz-adv-x="570" 
d="M381 0q0 23 1.5 47.5t4.5 41.5h-1q-24 -46 -67 -72.5t-102 -26.5q-41 0 -69.5 12t-46 33.5t-25 50t-7.5 62.5v349h127v-318q0 -41 14 -61.5t48 -20.5q24 0 45 12.5t37 35t24.5 51.5t8.5 61v240h128v-497h-120zM465 666q-45 -89 -121 -89q-23 0 -39.5 7t-35.5 20.5
t-27.5 18.5t-21.5 5q-30 0 -55 -45l-61 47q45 89 122 89q22 0 38.5 -7t36 -20.5t28 -18.5t20.5 -5q30 0 55 45z" />
    <glyph glyph-name="Umacron" unicode="&#x16a;" horiz-adv-x="681" 
d="M611 262q0 -137 -72 -205t-208 -68q-77 0 -128.5 19.5t-80.5 53t-40.5 76.5t-11.5 96v441h130v-433q0 -34 6.5 -60t22 -45t43 -29.5t68.5 -10.5q76 0 109 36t33 121v421h129v-413zM195 741v81h293v-81h-293z" />
    <glyph glyph-name="umacron" unicode="&#x16b;" horiz-adv-x="570" 
d="M381 0q0 23 1.5 47.5t4.5 41.5h-1q-24 -46 -67 -72.5t-102 -26.5q-41 0 -69.5 12t-46 33.5t-25 50t-7.5 62.5v349h127v-318q0 -41 14 -61.5t48 -20.5q24 0 45 12.5t37 35t24.5 51.5t8.5 61v240h128v-497h-120zM150 600v92h270v-92h-270z" />
    <glyph glyph-name="Ubreve" unicode="&#x16c;" horiz-adv-x="681" 
d="M611 262q0 -137 -72 -205t-208 -68q-77 0 -128.5 19.5t-80.5 53t-40.5 76.5t-11.5 96v441h130v-433q0 -34 6.5 -60t22 -45t43 -29.5t68.5 -10.5q76 0 109 36t33 121v421h129v-413zM483 859q0 -28 -9 -53t-27.5 -43.5t-45.5 -29t-61 -10.5t-60.5 10.5t-44.5 29.5t-27 43.5
t-9 52.5h76q0 -24 19 -40.5t47 -16.5q30 0 48 16t18 41h76z" />
    <glyph glyph-name="ubreve" unicode="&#x16d;" horiz-adv-x="570" 
d="M381 0q0 23 1.5 47.5t4.5 41.5h-1q-24 -46 -67 -72.5t-102 -26.5q-41 0 -69.5 12t-46 33.5t-25 50t-7.5 62.5v349h127v-318q0 -41 14 -61.5t48 -20.5q24 0 45 12.5t37 35t24.5 51.5t8.5 61v240h128v-497h-120zM422 720q0 -31 -8.5 -58.5t-25.5 -49t-43.5 -33.5t-61.5 -12
t-61 12.5t-42.5 33.5t-24 48.5t-7.5 58.5h83q0 -27 14 -44t39 -17t39.5 15.5t14.5 45.5h84z" />
    <glyph glyph-name="Uring" unicode="&#x16e;" horiz-adv-x="681" 
d="M611 262q0 -137 -72 -205t-208 -68q-77 0 -128.5 19.5t-80.5 53t-40.5 76.5t-11.5 96v441h130v-433q0 -34 6.5 -60t22 -45t43 -29.5t68.5 -10.5q76 0 109 36t33 121v421h129v-413zM474 814q0 -54 -38.5 -87t-99.5 -33q-62 0 -95.5 28t-33.5 83q0 54 39 87t100 33
t94.5 -28t33.5 -83zM388 809q0 53 -47 53q-21 0 -34 -13.5t-13 -38.5q0 -53 46 -53q21 0 34.5 13.5t13.5 38.5z" />
    <glyph glyph-name="uring" unicode="&#x16f;" horiz-adv-x="570" 
d="M381 0q0 23 1.5 47.5t4.5 41.5h-1q-24 -46 -67 -72.5t-102 -26.5q-41 0 -69.5 12t-46 33.5t-25 50t-7.5 62.5v349h127v-318q0 -41 14 -61.5t48 -20.5q24 0 45 12.5t37 35t24.5 51.5t8.5 61v240h128v-497h-120zM415 668q0 -56 -38 -91t-98 -35q-61 0 -93.5 29t-32.5 87
q0 27 10 50t28.5 40t43.5 26t55 9q61 0 93 -29t32 -86zM331 662q0 29 -11.5 42t-34.5 13q-21 0 -34.5 -14t-13.5 -40q0 -55 47 -55q21 0 34 14t13 40z" />
    <glyph glyph-name="Uhungarumlaut" unicode="&#x170;" horiz-adv-x="681" 
d="M611 262q0 -137 -72 -205t-208 -68q-77 0 -128.5 19.5t-80.5 53t-40.5 76.5t-11.5 96v441h130v-433q0 -34 6.5 -60t22 -45t43 -29.5t68.5 -10.5q76 0 109 36t33 121v421h129v-413zM245 714l-59 51l127 149l73 -63zM437 713l-57 53l145 141l68 -67z" />
    <glyph glyph-name="uhungarumlaut" unicode="&#x171;" horiz-adv-x="570" 
d="M381 0q0 23 1.5 47.5t4.5 41.5h-1q-24 -46 -67 -72.5t-102 -26.5q-41 0 -69.5 12t-46 33.5t-25 50t-7.5 62.5v349h127v-318q0 -41 14 -61.5t48 -20.5q24 0 45 12.5t37 35t24.5 51.5t8.5 61v240h128v-497h-120zM200 560l-60 51l129 155l74 -62zM389 560l-56 51l143 147
l69 -67z" />
    <glyph glyph-name="Uogonek" unicode="&#x172;" horiz-adv-x="681" 
d="M611 262q0 -68 -17.5 -118.5t-53.5 -86.5q-10 -10 -21.5 -19t-31 -23.5t-33.5 -25.5t-26 -23q-38 -38 -38 -75q0 -33 36 -33q38 0 82 22v-91q-25 -13 -53.5 -19.5t-58.5 -6.5q-58 0 -91.5 27t-33.5 75q0 34 18 67t53 59q-4 -1 -9 -1h-12q-72 0 -121 19t-77.5 52.5
t-40.5 76.5t-12 96v441h130v-433q0 -34 6.5 -60t22 -45t43 -29.5t68.5 -10.5q38 0 65 8.5t44 27t25 48.5t8 73v421h129v-413z" />
    <glyph glyph-name="uogonek" unicode="&#x173;" horiz-adv-x="570" 
d="M544 -211q-26 -13 -54.5 -19.5t-58.5 -6.5q-58 0 -91.5 27t-33.5 75q0 40 21.5 75.5t63.5 69.5q-2 18 -3.5 38.5t-0.5 36.5h-1q-26 -44 -68 -69.5t-101 -25.5q-41 0 -69.5 12t-46 33.5t-25 50t-7.5 62.5v349h127v-318q0 -41 14 -61.5t48 -20.5q24 0 45 12.5t37 35
t24.5 51.5t8.5 61v240h128v-333q0 -47 2.5 -88t8.5 -76q-47 -28 -67 -55.5t-20 -53.5q0 -16 9.5 -24.5t26.5 -8.5q19 0 40 5.5t43 16.5v-91z" />
    <glyph glyph-name="Wcircumflex" unicode="&#x174;" horiz-adv-x="958" 
d="M765 0h-161l-103 369q-7 26 -12.5 59t-9.5 64h-2q-12 -88 -21 -123l-101 -369h-162l-169 675h139l90 -369q9 -46 16.5 -87t12.5 -81h2q6 41 13.5 82.5t18.5 83.5l102 371h130l105 -375q11 -39 20 -81t15 -81h2q6 46 12 85t14 75l89 377h128zM618 715l-136 55l-137 -55
l-29 66l168 84l164 -83z" />
    <glyph glyph-name="wcircumflex" unicode="&#x175;" horiz-adv-x="796" 
d="M632 0h-143l-71 226q-8 30 -15 59.5t-12 56.5h-1q-6 -29 -13.5 -59t-18.5 -72l-62 -211h-137l-149 497h141l56 -207l14.5 -58t19.5 -84h1q7 35 15.5 72.5t17.5 70.5l62 206h127l63 -206q12 -43 20.5 -77t14.5 -67h2q5 32 13 64.5t20 78.5l58 207h130zM501 560l-103 81
l-105 -81l-49 58l155 136l152 -135z" />
    <glyph glyph-name="Ycircumflex" unicode="&#x176;" horiz-adv-x="561" 
d="M345 249v-249h-130v248l-217 427h143l94 -190q14 -29 25 -55t21 -52h2q10 25 22.5 53t29.5 63l90 181h138zM416 715l-136 55l-137 -55l-29 66l168 84l164 -83z" />
    <glyph glyph-name="ycircumflex" unicode="&#x177;" horiz-adv-x="502" 
d="M313 -18q-23 -62 -48 -118.5t-51 -104.5h-140q34 57 60.5 111t44.5 106l9 24l-183 497h144l67 -195q11 -35 21 -70t20 -73h1q9 37 20.5 77t24.5 82l58 179h137zM356 560l-103 81l-105 -81l-49 58l155 136l152 -135z" />
    <glyph glyph-name="Ydieresis" unicode="&#x178;" horiz-adv-x="561" 
d="M345 249v-249h-130v248l-217 427h143l94 -190q14 -29 25 -55t21 -52h2q10 25 22.5 53t29.5 63l90 181h138zM460 788q0 -29 -20 -49t-49 -20t-49 20t-20 49t20 49t49 20t49 -20t20 -49zM244 788q0 -29 -20 -49t-49 -20t-49 20t-20 49t20 49t49 20t49 -20t20 -49z" />
    <glyph glyph-name="Zacute" unicode="&#x179;" horiz-adv-x="537" 
d="M45 0v100l243 396q15 23 24 36.5t20 27.5q-22 -1 -50 -1.5t-73 -0.5h-156v117h436v-105l-257 -405q-13 -20 -18 -28.5t-13 -18.5q8 1 26 1.5t43.5 0.5h76.5h146v-120h-448zM221 716l-21 70l208 75l29 -92z" />
    <glyph glyph-name="zacute" unicode="&#x17a;" horiz-adv-x="450" 
d="M45 0v91l200 293q-16 -1 -44 -1.5t-62 -0.5h-88v115h348v-91l-196 -290q14 1 43 1h70h87v-117h-358zM216 558l-57 61l150 144l70 -75z" />
    <glyph glyph-name="Zdotaccent" unicode="&#x17b;" horiz-adv-x="537" 
d="M45 0v100l243 396q15 23 24 36.5t20 27.5q-22 -1 -50 -1.5t-73 -0.5h-156v117h436v-105l-257 -405q-13 -20 -18 -28.5t-13 -18.5q8 1 26 1.5t43.5 0.5h76.5h146v-120h-448zM346 794q0 -32 -22.5 -54.5t-53.5 -22.5q-32 0 -54.5 22.5t-22.5 54.5q0 31 22.5 53.5t54.5 22.5
t54 -22t22 -54z" />
    <glyph glyph-name="zdotaccent" unicode="&#x17c;" horiz-adv-x="450" 
d="M45 0v91l200 293q-16 -1 -44 -1.5t-62 -0.5h-88v115h348v-91l-196 -290q14 1 43 1h70h87v-117h-358zM300 647q0 -32 -22 -54t-54 -22t-54.5 22t-22.5 54t22.5 54.5t54.5 22.5t54 -22.5t22 -54.5z" />
    <glyph glyph-name="Zcaron" unicode="&#x17d;" horiz-adv-x="537" 
d="M45 0v100l243 396q15 23 24 36.5t20 27.5q-22 -1 -50 -1.5t-73 -0.5h-156v117h436v-105l-257 -405q-13 -20 -18 -28.5t-13 -18.5q8 1 26 1.5t43.5 0.5h76.5h146v-120h-448zM269 715l-164 83l31 67l135 -55l137 55l29 -65z" />
    <glyph glyph-name="zcaron" unicode="&#x17e;" horiz-adv-x="450" 
d="M45 0v91l200 293q-16 -1 -44 -1.5t-62 -0.5h-88v115h348v-91l-196 -290q14 1 43 1h70h87v-117h-358zM224 560l-152 134l50 60l104 -82l105 82l48 -59z" />
    <glyph glyph-name="uni018F" unicode="&#x18f;" horiz-adv-x="605" 
d="M428 395q-4 43 -17.5 75.5t-36.5 54.5t-56 33t-76 11t-85.5 -10.5t-85.5 -28.5v119q42 17 90 26.5t98 9.5q72 0 129.5 -20.5t98.5 -62t63 -106.5t22 -153q0 -82 -20 -148t-58.5 -112t-93 -70t-121.5 -24q-64 0 -112 21t-79 59.5t-46 92.5t-15 121q0 26 2.5 57t6.5 55h392
zM168 287v-13q0 -44 8.5 -76t24.5 -52t38.5 -29.5t50.5 -9.5q32 0 57.5 13t43.5 37t27.5 57t10.5 73h-261z" />
    <glyph glyph-name="florin" unicode="&#x192;" horiz-adv-x="454" 
d="M225 60q-6 -60 -21.5 -102.5t-41.5 -69.5t-63.5 -40t-87.5 -13q-17 0 -34 1t-30 3v110q16 -4 34.5 -6.5t34.5 -2.5q19 0 32.5 6t23.5 19.5t16.5 35.5t9.5 54l27 269h-111v98h120l11 103q11 110 62.5 162.5t149.5 52.5q17 0 34 -1t31 -3v-110q-15 5 -34 7.5t-35 2.5
q-36 0 -55.5 -24.5t-25.5 -81.5l-11 -108h145v-98h-154z" />
    <glyph glyph-name="Gcaron" unicode="&#x1e6;" horiz-adv-x="675" 
d="M608 32q-50 -20 -110 -31t-121 -11q-82 0 -146 23.5t-107.5 67.5t-65.5 105t-22 137q0 81 24.5 147.5t72 114.5t118 74t160.5 26q42 0 87 -6t83 -17v-127q-81 34 -178 34q-58 0 -101.5 -18t-71 -50t-40.5 -73.5t-13 -90.5q0 -108 55.5 -169t159.5 -61q47 0 86 12v235h130
v-322zM372 715l-164 83l31 67l135 -55l137 55l29 -65z" />
    <glyph glyph-name="gcaron" unicode="&#x1e7;" horiz-adv-x="538" 
d="M453 398q12 -27 12 -57q0 -43 -14.5 -76.5t-41.5 -58.5t-66 -38.5t-93 -13.5h-18.5t-18.5 1q-19 -14 -19 -30q0 -14 15 -20.5t58 -8.5l70 -3q89 -4 133.5 -41.5t44.5 -107.5q0 -41 -18.5 -76.5t-53.5 -62t-84.5 -41.5t-112.5 -15q-101 0 -159.5 37t-58.5 108
q0 38 21.5 70.5t56.5 54.5q-42 25 -42 74q0 56 57 90q-38 24 -55.5 59.5t-17.5 78.5q0 39 13.5 73.5t40 59.5t66.5 39.5t94 14.5q46 0 84 -11h166v-99h-59zM205 -5v-1q-23 -15 -35.5 -35.5t-12.5 -40.5q0 -35 28.5 -55t79.5 -20q62 0 92 24.5t30 59.5q0 27 -19.5 44.5
t-65.5 19.5l-76 2zM343 329q0 38 -23 62t-64 24q-40 0 -63.5 -24t-23.5 -62t22.5 -62t64.5 -24t64.5 24t22.5 62zM271 560l-152 134l50 60l104 -82l105 82l48 -59z" />
    <glyph glyph-name="Aringacute" unicode="&#x1fa;" horiz-adv-x="626" 
d="M335 458q-8 26 -15 51.5t-12 49.5h-2q-5 -24 -12 -50t-14 -50l-70 -212h195zM480 0l-46 144h-254l-47 -144h-131l226 675h169l227 -675h-144zM259 877l-17 50l180 53l23 -64zM420 783q0 -41 -31.5 -66t-80.5 -25q-50 0 -77.5 20.5t-27.5 63.5q0 41 31.5 66t81.5 25
q49 0 76.5 -20.5t27.5 -63.5zM353 779q0 40 -41 40q-17 0 -29 -9.5t-12 -29.5q0 -40 40 -40q18 0 30 9.5t12 29.5z" />
    <glyph glyph-name="aringacute" unicode="&#x1fb;" horiz-adv-x="524" 
d="M325 214h-46q-33 0 -56 -4.5t-36.5 -13t-19.5 -20.5t-6 -28q0 -26 16.5 -43t44.5 -17q22 0 41 9.5t33 25.5t21.5 36.5t7.5 42.5v12zM333 0q0 20 2 40t5 40l-1 1q-18 -41 -60 -66t-95 -25q-69 0 -107.5 40t-38.5 103q0 42 17 73t48.5 51.5t76.5 30t102 9.5h43v21
q0 47 -21.5 69.5t-74.5 22.5q-36 0 -76 -8.5t-75 -22.5v101q38 13 81.5 20.5t84.5 7.5q59 0 99.5 -12.5t64.5 -36t34.5 -56.5t10.5 -76v-108.5v-109.5v-109h-120zM199 777l-19 59l198 67l28 -77zM376 650q0 -49 -34.5 -80t-88.5 -31q-56 0 -85.5 26t-29.5 77q0 49 35 80
t89 31q55 0 84.5 -26t29.5 -77zM301 645q0 51 -43 51q-19 0 -31.5 -13t-12.5 -36q0 -51 43 -51q19 0 31.5 13t12.5 36z" />
    <glyph glyph-name="AEacute" unicode="&#x1fc;" horiz-adv-x="848" 
d="M385 567h-23q-14 -36 -28.5 -69.5t-33.5 -72.5l-89 -174h174v316zM385 0v149h-218l-72 -149h-133l334 675h494v-109h-278v-167h255v-104h-255v-183h280v-112h-407zM451 716l-21 70l208 75l29 -92z" />
    <glyph glyph-name="aeacute" unicode="&#x1fd;" horiz-adv-x="800" 
d="M325 214h-46q-33 0 -56 -4.5t-36.5 -13t-19.5 -20.5t-6 -28q0 -26 16.5 -43t44.5 -17q22 0 41 9.5t33 25.5t21.5 36.5t7.5 42.5v12zM636 303q3 54 -21 82t-67 28q-41 0 -67.5 -29t-30.5 -81h186zM762 293q0 -36 -5 -76h-307q1 -31 9 -55t24 -40t40.5 -24.5t57.5 -8.5
q38 0 77 6.5t80 18.5v-99q-38 -12 -83 -18.5t-88 -6.5q-40 0 -72.5 7t-57 19.5t-41.5 30.5t-28 40h-1q-14 -22 -32.5 -40t-40.5 -30.5t-48 -19.5t-55 -7q-74 0 -113.5 39.5t-39.5 103.5q0 42 17 73t48.5 51.5t76.5 30t102 9.5h43v21q0 47 -21.5 69.5t-74.5 22.5
q-36 0 -76 -8.5t-75 -22.5v101q38 13 81.5 20.5t84.5 7.5q54 0 95.5 -14.5t66.5 -47.5h1q23 28 61 44.5t87 16.5q53 0 92 -16t64.5 -45t38 -68t12.5 -85zM418 558l-57 61l150 144l70 -75z" />
    <glyph glyph-name="Oslashacute" unicode="&#x1fe;" horiz-adv-x="713" 
d="M212 166l206 395q-12 6 -29 9t-33 3q-41 0 -75.5 -15t-59.5 -44.5t-38.5 -73t-13.5 -99.5q0 -32 4 -59t10.5 -48.5t13.5 -37t15 -30.5zM501 509q-48 -92 -82 -157.5t-67.5 -129.5t-56.5 -108q13 -5 29.5 -8.5t31.5 -3.5q41 0 75.5 15t60 45t39 73.5t13.5 99.5
q0 59 -12.5 100t-30.5 74zM616 730l-52 -101q55 -40 84 -110t29 -169q0 -85 -26 -153t-71.5 -114.5t-105.5 -70t-128 -23.5q-29 0 -56.5 4t-50.5 12l-52 -102l-90 42l52 101q-27 20 -48 47t-35.5 62t-22 77.5t-7.5 92.5q0 85 26 153t71.5 114.5t105.5 70t128 23.5
q29 0 56.5 -4t50.5 -12l52 102zM262 756l-21 70l208 75l29 -92z" />
    <glyph glyph-name="oslashacute" unicode="&#x1ff;" horiz-adv-x="553" 
d="M314 401q-7 3 -16.5 4.5t-18.5 1.5q-29 0 -52 -10.5t-39 -30.5t-24.5 -50t-8.5 -68q0 -55 20 -108zM398 249q0 56 -20 108l-139 -261q15 -6 35 -6q58 0 91 41.5t33 117.5zM520 260q0 -58 -17 -107t-49.5 -86t-80 -57t-106.5 -20q-43 0 -78 11l-50 -94l-71 31l50 93
q-42 31 -63.5 83t-21.5 123q0 58 17 107t49.5 86t80 57t106.5 20q43 0 78 -11l50 94l71 -31l-50 -93q42 -31 63.5 -83t21.5 -123zM258 558l-57 61l150 144l70 -75z" />
    <glyph glyph-name="Scommaaccent" unicode="&#x218;" horiz-adv-x="504" 
d="M469 198q0 -45 -17 -83.5t-50 -66.5t-81 -43.5t-109 -15.5q-87 0 -157 19v124q34 -13 78.5 -21.5t83.5 -8.5q25 0 46 5t36 15t23 26t8 38q0 30 -19.5 50t-58 37.5t-74.5 33t-66.5 37.5t-50.5 57t-20 87q0 44 17 80.5t50 62.5t81 40.5t107 14.5q27 0 58 -3.5t59 -8.5v-115
q-29 9 -62.5 14t-62.5 5q-55 0 -83.5 -20.5t-28.5 -57.5q0 -28 19.5 -47t57.5 -36t75.5 -33.5t69 -39t51.5 -58.5t20 -88zM252 -47q27 0 44 -18t17 -48q0 -19 -8 -37.5t-24.5 -35.5t-43 -31.5t-65.5 -24.5l-20 46q29 16 39 28t10 26q0 11 -4 20.5t-4 18.5q0 23 16 39.5
t43 16.5z" />
    <glyph glyph-name="scommaaccent" unicode="&#x219;" horiz-adv-x="417" 
d="M378 151q0 -34 -13 -63.5t-40 -51.5t-67 -34t-93 -12q-30 0 -58 3t-55 9v107q27 -9 57.5 -14.5t60.5 -5.5q37 0 56 13t19 37q0 20 -13.5 32.5t-38.5 23t-52.5 22t-49.5 27t-36 42.5t-14 66q0 33 12.5 61t38.5 49.5t65.5 33.5t90.5 12q21 0 44 -2t47 -6v-102
q-20 6 -46 9.5t-49 3.5q-35 0 -53.5 -12.5t-18.5 -34.5q0 -19 13.5 -31.5t38.5 -22.5t53.5 -22t50.5 -28t36 -43t14 -66zM216 -47q27 0 44 -18t17 -48q0 -19 -8 -37.5t-24.5 -35.5t-43 -31.5t-65.5 -24.5l-20 46q29 16 39 28t10 26q0 11 -4 20.5t-4 18.5q0 23 16 39.5
t43 16.5z" />
    <glyph glyph-name="Tcommaaccent" unicode="&#x21a;" horiz-adv-x="510" 
d="M320 564v-564h-130v564h-175v111h480v-111h-175zM261 -47q27 0 44 -18t17 -48q0 -19 -8 -37.5t-24.5 -35.5t-43 -31.5t-65.5 -24.5l-20 46q29 16 39 28t10 26q0 11 -4 20.5t-4 18.5q0 23 16 39.5t43 16.5z" />
    <glyph glyph-name="tcommaaccent" unicode="&#x21b;" horiz-adv-x="375" 
d="M340 3q-26 -6 -51.5 -9.5t-48.5 -3.5q-43 0 -71 8.5t-44.5 26.5t-24 48t-7.5 76v249h-85v99h85v153l128 34v-187h119v-99h-119v-225q0 -44 12 -60t43 -16q26 0 64 8v-102zM223 -47q27 0 44 -18t17 -48q0 -19 -8 -37.5t-24.5 -35.5t-43 -31.5t-65.5 -24.5l-20 46
q29 16 39 28t10 26q0 11 -4 20.5t-4 18.5q0 23 16 39.5t43 16.5z" />
    <glyph glyph-name="dotlessj" unicode="&#x237;" horiz-adv-x="266" 
d="M197 -20q0 -45 -8 -80.5t-27 -63.5t-49 -49.5t-73 -39.5l-53 87q22 12 37.5 23.5t25.5 27.5t14.5 38.5t4.5 56.5v517h128v-517z" />
    <glyph glyph-name="uni0259" unicode="&#x259;" horiz-adv-x="509" 
d="M72 483q36 12 77 18.5t80 6.5q118 0 182.5 -61.5t64.5 -193.5q0 -58 -15.5 -106.5t-45 -83t-73 -54t-100.5 -19.5q-54 0 -93.5 17.5t-65 48.5t-37.5 74t-12 94q0 17 1.5 35t3.5 36h306q-4 55 -37.5 85t-98.5 30q-74 0 -137 -28v101zM160 210v-13q0 -58 24 -84.5t64 -26.5
q47 0 72 35t26 89h-186z" />
    <glyph glyph-name="circumflex" unicode="&#x2c6;" horiz-adv-x="437" 
d="M322 560l-103 81l-105 -81l-49 58l155 136l152 -135z" />
    <glyph glyph-name="caron" unicode="&#x2c7;" horiz-adv-x="437" 
d="M217 560l-152 134l50 60l104 -82l105 82l48 -59z" />
    <glyph glyph-name="breve" unicode="&#x2d8;" horiz-adv-x="404" 
d="M339 720q0 -31 -8.5 -58.5t-25.5 -49t-43.5 -33.5t-61.5 -12t-61 12.5t-42.5 33.5t-24 48.5t-7.5 58.5h83q0 -27 14 -44t39 -17t39.5 15.5t14.5 45.5h84z" />
    <glyph glyph-name="dotaccent" unicode="&#x2d9;" horiz-adv-x="283" 
d="M218 647q0 -32 -22 -54t-54 -22t-54.5 22t-22.5 54t22.5 54.5t54.5 22.5t54 -22.5t22 -54.5z" />
    <glyph glyph-name="ring" unicode="&#x2da;" horiz-adv-x="393" 
d="M327 668q0 -56 -38 -91t-98 -35q-61 0 -93.5 29t-32.5 87q0 27 10 50t28.5 40t43.5 26t55 9q61 0 93 -29t32 -86zM243 662q0 29 -11.5 42t-34.5 13q-21 0 -34.5 -14t-13.5 -40q0 -55 47 -55q21 0 34 14t13 40z" />
    <glyph glyph-name="ogonek" unicode="&#x2db;" horiz-adv-x="386" 
d="M271 0q-46 -28 -66 -55.5t-20 -53.5q0 -16 9 -24.5t26 -8.5q19 0 40 5.5t43 16.5v-91q-26 -13 -54.5 -19.5t-58.5 -6.5q-58 0 -91.5 27t-33.5 75q0 39 21 74.5t63 69.5z" />
    <glyph glyph-name="tilde" unicode="&#x2dc;" horiz-adv-x="491" 
d="M426 666q-45 -89 -121 -89q-23 0 -39.5 7t-35.5 20.5t-27.5 18.5t-21.5 5q-30 0 -55 -45l-61 47q45 89 122 89q22 0 38.5 -7t36 -20.5t28 -18.5t20.5 -5q30 0 55 45z" />
    <glyph glyph-name="hungarumlaut" unicode="&#x2dd;" horiz-adv-x="535" 
d="M125 560l-60 51l129 155l74 -62zM314 560l-56 51l143 147l69 -67z" />
    <glyph glyph-name="uni0312" unicode="&#x312;" horiz-adv-x="0" 
d="M-288 561q-29 0 -46 23.5t-13 57t38 65.5t101 49l21 -46q-39 -20 -46.5 -37t0.5 -36q10 -29 -6 -52.5t-49 -23.5z" />
    <glyph glyph-name="uni0315" unicode="&#x315;" horiz-adv-x="283" 
d="M148 553l-83 18l51 205l102 -22z" />
    <glyph glyph-name="uni0326" unicode="&#x326;" horiz-adv-x="0" 
d="M-283 -47q27 0 44 -18t17 -48q0 -19 -8 -37.5t-24.5 -35.5t-43 -31.5t-65.5 -24.5l-20 46q29 16 39 28t10 26q0 11 -4 20.5t-4 18.5q0 23 16 39.5t43 16.5z" />
    <glyph glyph-name="uni037E" unicode="&#x37e;" horiz-adv-x="298" 
d="M160 149q36 0 59 -27.5t23 -72.5t-29.5 -103t-99.5 -119l-53 47q51 55 57.5 90.5t-16.5 63.5q-14 17 -16 37.5t6 39.5t25.5 31.5t43.5 12.5zM242 391q0 -34 -23.5 -58t-57.5 -24t-58 24t-24 58q0 33 24 57t58 24t57.5 -24t23.5 -57z" />
    <glyph glyph-name="tonos" unicode="&#x384;" horiz-adv-x="263" 
d="M156 551l-91 9l21 186l112 -10z" />
    <glyph glyph-name="dieresistonos" unicode="&#x385;" horiz-adv-x="528" 
d="M186 646q0 -26 -17.5 -43.5t-42.5 -17.5q-26 0 -43.5 17.5t-17.5 43.5q0 25 17.5 42t43.5 17q25 0 42.5 -17t17.5 -42zM288 550l-76 6l14 181l98 -6zM462 646q0 -26 -17.5 -43.5t-42.5 -17.5q-26 0 -43 17.5t-17 43.5q0 25 17.5 42t42.5 17t42.5 -17t17.5 -42z" />
    <glyph glyph-name="Alphatonos" unicode="&#x386;" horiz-adv-x="653" 
d="M363 458q-8 26 -15 51.5t-12 49.5h-2q-5 -24 -12 -50t-14 -50l-70 -212h195zM508 0l-46 144h-254l-47 -144h-131l226 675h169l227 -675h-144zM107 551l-91 9l21 186l112 -10z" />
    <glyph glyph-name="anoteleia" unicode="&#x387;" horiz-adv-x="289" 
d="M223 497q0 -16 -6 -30.5t-16.5 -25.5t-25 -17t-30.5 -6t-30.5 6t-25.5 17t-17 25.5t-6 30.5t6 30.5t17 25.5t25.5 17t30.5 6t30.5 -6t25 -17t16.5 -25.5t6 -30.5z" />
    <glyph glyph-name="Epsilontonos" unicode="&#x388;" horiz-adv-x="625" 
d="M159 0v675h407v-109h-277v-167h255v-104h-255v-183h280v-112h-410zM91 551l-91 9l21 186l112 -10z" />
    <glyph glyph-name="Etatonos" unicode="&#x389;" horiz-adv-x="775" 
d="M575 0v293h-286v-293h-130v675h130v-270h286v270h131v-675h-131zM91 551l-91 9l21 186l112 -10z" />
    <glyph glyph-name="Iotatonos" unicode="&#x38a;" horiz-adv-x="359" 
d="M159 0v675h130v-675h-130zM91 551l-91 9l21 186l112 -10z" />
    <glyph glyph-name="Omicrontonos" unicode="&#x38c;" horiz-adv-x="761" 
d="M586 335q0 110 -46 172t-136 62q-40 0 -73 -15t-57.5 -44t-37.5 -72t-13 -97q0 -55 11.5 -98.5t34 -74t56.5 -46.5t79 -16q40 0 73.5 15t57.5 44t37.5 72t13.5 98zM725 350q0 -85 -26 -153t-71.5 -114.5t-105.5 -70t-128 -23.5q-75 0 -133.5 22.5t-97.5 66t-59 105.5
t-20 142q0 85 26 153t71.5 114.5t105.5 70t128 23.5q75 0 133.5 -22.5t97.5 -66t59 -105.5t20 -142zM91 551l-91 9l21 186l112 -10z" />
    <glyph glyph-name="Upsilontonos" unicode="&#x38e;" horiz-adv-x="695" 
d="M479 249v-249h-130v248l-217 427h143l94 -190q14 -29 25 -55t21 -52h2q10 25 22.5 53t29.5 63l90 181h138zM91 551l-91 9l21 186l112 -10z" />
    <glyph glyph-name="Omegatonos" unicode="&#x38f;" horiz-adv-x="762" 
d="M461 0v103q59 45 88 103t29 143q0 50 -10.5 90.5t-32.5 70t-55 45t-77 15.5q-37 0 -68.5 -15t-55 -43.5t-36.5 -69t-13 -90.5q0 -45 6.5 -80t20 -64t36 -54.5t55.5 -50.5v-103h-263v105h123q-55 38 -86 100t-31 148q0 74 23.5 135.5t67.5 106t103.5 68t129.5 23.5
q64 0 119 -19t96 -58.5t63.5 -100t22.5 -141.5q0 -87 -32.5 -154t-87.5 -108h128v-105h-263zM91 551l-91 9l21 186l112 -10z" />
    <glyph glyph-name="iotadieresistonos" unicode="&#x390;" horiz-adv-x="305" 
d="M295 0q-20 -4 -45 -6.5t-52 -2.5q-35 0 -58.5 7.5t-39 24.5t-23.5 45.5t-8 69.5v359h128v-334q0 -37 10.5 -52t37.5 -15q11 0 24 1.5t26 4.5v-102zM70 646q0 -26 -17.5 -43.5t-42.5 -17.5q-26 0 -43.5 17.5t-17.5 43.5q0 25 17.5 42t43.5 17q25 0 42.5 -17t17.5 -42z
M172 550l-76 6l14 181l98 -6zM346 646q0 -26 -17.5 -43.5t-42.5 -17.5q-26 0 -43 17.5t-17 43.5q0 25 17.5 42t42.5 17t42.5 -17t17.5 -42z" />
    <glyph glyph-name="Alpha" unicode="&#x391;" horiz-adv-x="626" 
d="M335 458q-8 26 -15 51.5t-12 49.5h-2q-5 -24 -12 -50t-14 -50l-70 -212h195zM480 0l-46 144h-254l-47 -144h-131l226 675h169l227 -675h-144z" />
    <glyph glyph-name="Beta" unicode="&#x392;" horiz-adv-x="581" 
d="M403 201q0 47 -34 71.5t-108 24.5h-35t-26 -1v-191q11 -1 32.5 -2t40.5 -1q64 0 97 27t33 72zM383 488q0 41 -27 64.5t-88 23.5q-16 0 -32.5 -0.5t-35.5 -1.5v-179q11 -1 23 -1h35q62 0 93.5 24.5t31.5 69.5zM543 207q0 -40 -16 -77t-49.5 -67t-86 -47.5t-122.5 -17.5
q-18 0 -85 1t-114 1v674q27 1 85.5 3t121.5 2q121 0 182 -44t61 -128q0 -49 -26 -89t-72 -58v-1q28 -7 50 -21t38 -33.5t24.5 -44t8.5 -53.5z" />
    <glyph glyph-name="Gamma" unicode="&#x393;" horiz-adv-x="429" 
d="M200 564v-564h-130v675h349v-111h-219z" />
    <glyph glyph-name="Delta" unicode="&#x394;" horiz-adv-x="614" 
d="M27 0v98l198 577h159l204 -577v-98h-561zM327 450q-8 25 -14.5 49.5t-11.5 52.5h-2q-5 -25 -11.5 -51t-15.5 -54l-111 -330h279z" />
    <glyph glyph-name="Delta" unicode="&#x2206;" horiz-adv-x="614" 
d="M27 0v98l198 577h159l204 -577v-98h-561zM327 450q-8 25 -14.5 49.5t-11.5 52.5h-2q-5 -25 -11.5 -51t-15.5 -54l-111 -330h279z" />
    <glyph glyph-name="Epsilon" unicode="&#x395;" horiz-adv-x="536" 
d="M70 0v675h407v-109h-277v-167h255v-104h-255v-183h280v-112h-410z" />
    <glyph glyph-name="Zeta" unicode="&#x396;" horiz-adv-x="537" 
d="M45 0v100l243 396q15 23 24 36.5t20 27.5q-22 -1 -50 -1.5t-73 -0.5h-156v117h436v-105l-257 -405q-13 -20 -18 -28.5t-13 -18.5q8 1 26 1.5t43.5 0.5h76.5h146v-120h-448z" />
    <glyph glyph-name="Eta" unicode="&#x397;" horiz-adv-x="686" 
d="M486 0v293h-286v-293h-130v675h130v-270h286v270h131v-675h-131z" />
    <glyph glyph-name="Theta" unicode="&#x398;" horiz-adv-x="713" 
d="M246 297v100h218v-100h-218zM539 334q0 111 -47 173t-137 62q-40 0 -74 -15t-58.5 -44t-38 -72t-13.5 -98t11.5 -98.5t35 -74t58 -46.5t79.5 -16q40 0 74 15t58.5 44t38 72t13.5 98zM677 350q0 -85 -26 -153t-71.5 -114.5t-105.5 -70t-128 -23.5q-76 0 -134 22.5t-97 66
t-59 105.5t-20 142q0 85 26 153t71.5 114.5t105.5 70t128 23.5q76 0 134 -22.5t97 -66t59 -105.5t20 -142z" />
    <glyph glyph-name="Iota" unicode="&#x399;" horiz-adv-x="270" 
d="M70 0v675h130v-675h-130z" />
    <glyph glyph-name="Kappa" unicode="&#x39a;" horiz-adv-x="600" 
d="M436 0l-236 324v-324h-130v675h130v-306l228 306h154l-249 -322l265 -353h-162z" />
    <glyph glyph-name="Lambda" unicode="&#x39b;" horiz-adv-x="628" 
d="M480 0l-129 404q-11 34 -22 74.5t-19 75.5h-1q-9 -39 -20 -78.5t-22 -73.5l-130 -402h-134l225 675h169l228 -675h-145z" />
    <glyph glyph-name="Mu" unicode="&#x39c;" horiz-adv-x="896" 
d="M732 0l-41 332q-7 57 -11 115.5t-5 104.5h-2q-9 -45 -21.5 -92t-28.5 -96l-122 -364h-121l-117 350q-15 46 -31 104t-24 98h-2q-1 -44 -4.5 -102t-9.5 -121l-35 -329h-126l81 675h181l118 -350q10 -30 19.5 -66t15.5 -71h2q8 41 16 75.5t17 61.5l118 350h183l83 -675
h-133z" />
    <glyph glyph-name="Nu" unicode="&#x39d;" horiz-adv-x="690" 
d="M494 0h-11l-212 342q-46 76 -59.5 102.5t-26.5 57.5q2 -23 3.5 -53t3 -64.5t3 -82.5t1.5 -118v-184h-126v675h126h27l198 -320q46 -75 57 -97t26 -56q-2 31 -4.5 82.5t-3.5 85t-1.5 65.5t-0.5 76v164h126v-675h-126z" />
    <glyph glyph-name="Xi" unicode="&#x39e;" horiz-adv-x="544" 
d="M45 0v119h454v-119h-454zM107 292v110h326v-110h-326zM52 558v117h440v-117h-440z" />
    <glyph glyph-name="Omicron" unicode="&#x39f;" horiz-adv-x="713" 
d="M538 335q0 110 -46 172t-136 62q-40 0 -73 -15t-57.5 -44t-37.5 -72t-13 -97q0 -55 11.5 -98.5t34 -74t56.5 -46.5t79 -16q40 0 73.5 15t57.5 44t37.5 72t13.5 98zM677 350q0 -85 -26 -153t-71.5 -114.5t-105.5 -70t-128 -23.5q-75 0 -133.5 22.5t-97.5 66t-59 105.5
t-20 142q0 85 26 153t71.5 114.5t105.5 70t128 23.5q75 0 133.5 -22.5t97.5 -66t59 -105.5t20 -142z" />
    <glyph glyph-name="Pi" unicode="&#x3a0;" horiz-adv-x="661" 
d="M461 0v564h-261v-564h-130v675h521v-675h-130z" />
    <glyph glyph-name="Rho" unicode="&#x3a1;" horiz-adv-x="553" 
d="M530 462q0 -52 -18 -96.5t-54 -78.5t-88 -52.5t-117 -18.5q-12 0 -23.5 0.5t-20.5 1l-9 0.5v-218h-130v675q11 0 38.5 1t70.5 2t85 1q130 0 198 -58t68 -159zM396 448q0 57 -34.5 90.5t-105.5 33.5q-32 0 -56 -1v-243q3 -1 11.5 -2t22 -2t27.5 -1q64 0 99.5 34.5
t35.5 90.5z" />
    <glyph glyph-name="Sigma" unicode="&#x3a3;" horiz-adv-x="516" 
d="M45 0v98l206 236l-196 230v111h424v-114h-262l186 -218l-199 -226h283v-117h-442z" />
    <glyph glyph-name="Tau" unicode="&#x3a4;" horiz-adv-x="510" 
d="M320 564v-564h-130v564h-175v111h480v-111h-175z" />
    <glyph glyph-name="Upsilon" unicode="&#x3a5;" horiz-adv-x="561" 
d="M345 249v-249h-130v248l-217 427h143l94 -190q14 -29 25 -55t21 -52h2q10 25 22.5 53t29.5 63l90 181h138z" />
    <glyph glyph-name="Phi" unicode="&#x3a6;" horiz-adv-x="824" 
d="M349 548q-43 -4 -77 -20.5t-57.5 -43.5t-35.5 -64.5t-12 -84.5q0 -92 46.5 -146t135.5 -63v422zM657 340q0 92 -46.5 146t-136.5 62v-421q43 4 77 20t58 43.5t36 65t12 84.5zM791 349q0 -70 -22 -128t-63.5 -101.5t-100.5 -69.5t-131 -33v-73h-125v73q-81 4 -141 26.5
t-98.5 62t-57.5 95t-19 125.5t22 128t63.5 101.5t100 69.5t130.5 33v69h125v-69q81 -4 141 -26.5t99 -62t58 -95t19 -125.5z" />
    <glyph glyph-name="Chi" unicode="&#x3a7;" horiz-adv-x="628" 
d="M454 0l-145 248l-145 -248h-154l215 345l-202 330h151l137 -234l136 234h148l-199 -329l222 -346h-164z" />
    <glyph glyph-name="Psi" unicode="&#x3a8;" horiz-adv-x="797" 
d="M740 424q0 -130 -72 -204.5t-205 -87.5v-132h-130v130q-80 5 -134 27.5t-85 58t-44 80t-13 98.5v281h130v-269q0 -33 7 -60.5t24 -49t45.5 -35t69.5 -17.5v431h130v-431q77 7 113 49t36 126v256h128v-251z" />
    <glyph glyph-name="Omega" unicode="&#x3a9;" horiz-adv-x="713" 
d="M413 0v103q59 45 88 103t29 143q0 50 -10.5 90.5t-32.5 70t-55 45t-77 15.5q-37 0 -68.5 -15t-55 -43.5t-36.5 -69t-13 -90.5q0 -45 6.5 -80t20 -64t36 -54.5t55.5 -50.5v-103h-263v105h123q-55 38 -86 100t-31 148q0 74 23.5 135.5t67.5 106t103.5 68t129.5 23.5
q64 0 119 -19t96 -58.5t63.5 -100t22.5 -141.5q0 -87 -32.5 -154t-87.5 -108h128v-105h-263z" />
    <glyph glyph-name="Omega" unicode="&#x2126;" horiz-adv-x="713" 
d="M413 0v103q59 45 88 103t29 143q0 50 -10.5 90.5t-32.5 70t-55 45t-77 15.5q-37 0 -68.5 -15t-55 -43.5t-36.5 -69t-13 -90.5q0 -45 6.5 -80t20 -64t36 -54.5t55.5 -50.5v-103h-263v105h123q-55 38 -86 100t-31 148q0 74 23.5 135.5t67.5 106t103.5 68t129.5 23.5
q64 0 119 -19t96 -58.5t63.5 -100t22.5 -141.5q0 -87 -32.5 -154t-87.5 -108h128v-105h-263z" />
    <glyph glyph-name="Iotadieresis" unicode="&#x3aa;" horiz-adv-x="270" 
d="M70 0v675h130v-675h-130zM305 788q0 -29 -20 -49t-49 -20t-49 20t-20 49t20 49t49 20t49 -20t20 -49zM103 788q0 -29 -20 -49t-49 -20t-49 20t-20 49t20 49t49 20t49 -20t20 -49z" />
    <glyph glyph-name="Upsilondieresis" unicode="&#x3ab;" horiz-adv-x="561" 
d="M345 249v-249h-130v248l-217 427h143l94 -190q14 -29 25 -55t21 -52h2q10 25 22.5 53t29.5 63l90 181h138zM456 788q0 -29 -20 -49t-49 -20t-49 20t-20 49t20 49t49 20t49 -20t20 -49zM240 788q0 -29 -20 -49t-49 -20t-49 20t-20 49t20 49t49 20t49 -20t20 -49z" />
    <glyph glyph-name="alphatonos" unicode="&#x3ac;" horiz-adv-x="592" 
d="M378 252q0 66 -29 107t-74 41t-75.5 -39.5t-30.5 -113.5t27.5 -111t74.5 -37q22 0 41.5 10.5t34.5 30.5t23 47.5t8 59.5v5zM566 -4q-16 -2 -29 -3.5t-24 -1.5q-60 0 -83 22.5t-21 81.5h-2q-7 -21 -22.5 -40t-38 -33.5t-50.5 -23t-60 -8.5q-93 0 -146.5 63t-53.5 183
q0 60 17 110.5t48.5 86.5t73.5 55.5t91 19.5q50 0 89.5 -24.5t58.5 -66.5q1 20 4.5 39.5t9.5 40.5h115q-9 -29 -16 -65.5t-12 -75.5t-8 -77.5t-3 -72.5q0 -40 2 -61t8 -31.5t18 -14t34 -3.5v-100zM324 551l-91 9l21 186l112 -10z" />
    <glyph glyph-name="epsilontonos" unicode="&#x3ad;" horiz-adv-x="445" 
d="M412 13q-38 -11 -82.5 -17.5t-81.5 -6.5q-59 0 -100.5 10.5t-67.5 29t-37.5 43.5t-11.5 55q0 45 25.5 77.5t65.5 45.5v1q-34 13 -52.5 39t-18.5 61q0 34 13.5 62.5t40.5 50t69.5 33t98.5 11.5q29 0 62 -4t63 -10v-100q-37 11 -69 16.5t-62 5.5q-48 0 -70 -16.5t-22 -44.5
q0 -26 22.5 -41.5t63.5 -15.5h97v-87h-109q-40 0 -61.5 -18.5t-21.5 -45.5q0 -30 27 -47t79 -17q31 0 67.5 6.5t72.5 19.5v-96zM302 551l-91 9l21 186l112 -10z" />
    <glyph glyph-name="etatonos" unicode="&#x3ae;" horiz-adv-x="580" 
d="M169 497q5 -20 9 -44.5t6 -45.5h1q20 43 61 71.5t104 28.5q42 0 72.5 -13t50 -36t29 -55t9.5 -70v-368q0 -52 3 -103t13 -103h-125q-11 48 -14.5 93.5t-3.5 93.5v358q0 49 -16.5 72.5t-52.5 23.5q-23 0 -42.5 -11.5t-34 -31t-23 -46t-8.5 -57.5v-254h-128v237
q0 76 -9 139t-25 121h124zM367 551l-91 9l21 186l112 -10z" />
    <glyph glyph-name="iotatonos" unicode="&#x3af;" horiz-adv-x="305" 
d="M295 0q-20 -4 -45 -6.5t-52 -2.5q-35 0 -58.5 7.5t-39 24.5t-23.5 45.5t-8 69.5v359h128v-334q0 -37 10.5 -52t37.5 -15q11 0 24 1.5t26 4.5v-102zM179 551l-91 9l21 186l112 -10z" />
    <glyph glyph-name="upsilondieresistonos" unicode="&#x3b0;" horiz-adv-x="567" 
d="M509 293q0 -78 -17.5 -136t-49.5 -95t-74.5 -54.5t-92.5 -17.5q-59 0 -99.5 15.5t-65 44.5t-35 70t-10.5 95v282h128v-262q0 -76 20 -108.5t70 -32.5q23 0 41 9.5t31 31t19.5 57t6.5 86.5q0 54 -5.5 109.5t-14.5 109.5h131q9 -47 13 -98.5t4 -105.5zM206 646
q0 -26 -17.5 -43.5t-42.5 -17.5q-26 0 -43.5 17.5t-17.5 43.5q0 25 17.5 42t43.5 17q25 0 42.5 -17t17.5 -42zM308 550l-76 6l14 181l98 -6zM482 646q0 -26 -17.5 -43.5t-42.5 -17.5q-26 0 -43 17.5t-17 43.5q0 25 17.5 42t42.5 17t42.5 -17t17.5 -42z" />
    <glyph glyph-name="alpha" unicode="&#x3b1;" horiz-adv-x="592" 
d="M378 252q0 66 -29 107t-74 41t-75.5 -39.5t-30.5 -113.5t27.5 -111t74.5 -37q22 0 41.5 10.5t34.5 30.5t23 47.5t8 59.5v5zM566 -4q-16 -2 -29 -3.5t-24 -1.5q-60 0 -83 22.5t-21 81.5h-2q-7 -21 -22.5 -40t-38 -33.5t-50.5 -23t-60 -8.5q-93 0 -146.5 63t-53.5 183
q0 60 17 110.5t48.5 86.5t73.5 55.5t91 19.5q50 0 89.5 -24.5t58.5 -66.5q1 20 4.5 39.5t9.5 40.5h115q-9 -29 -16 -65.5t-12 -75.5t-8 -77.5t-3 -72.5q0 -40 2 -61t8 -31.5t18 -14t34 -3.5v-100z" />
    <glyph glyph-name="beta" unicode="&#x3b2;" horiz-adv-x="573" 
d="M197 -35q0 -61 3 -110t13 -96h-125q-10 45 -14.5 91t-4.5 96v554q0 59 17 104t47.5 74.5t71.5 44t90 14.5q50 0 88.5 -13.5t64 -38t38 -57t12.5 -71.5q0 -58 -30 -102t-80 -60v-1q35 -6 62 -21t44.5 -38t26.5 -53t9 -66q0 -49 -17.5 -90.5t-50.5 -72t-80.5 -47
t-106.5 -16.5q-43 0 -78 9v-34zM197 121q18 -12 40 -18.5t46 -6.5q52 0 81.5 31t29.5 84q0 50 -28 80.5t-90 30.5h-26v103q55 3 86.5 34t31.5 83q0 39 -20.5 64t-59.5 25q-45 0 -68 -31t-23 -91v-388z" />
    <glyph glyph-name="gamma" unicode="&#x3b3;" horiz-adv-x="504" 
d="M299 -241h-127v137q0 30 -1.5 56t-7 56.5t-16.5 70.5t-29.5 96.5t-45.5 135t-66 186.5h140q37 -106 58.5 -171.5t32.5 -104.5t14.5 -57.5t3.5 -28.5h2q50 85 69.5 176t-0.5 186h134q18 -129 -26.5 -252t-134.5 -252v-234z" />
    <glyph glyph-name="delta" unicode="&#x3b4;" horiz-adv-x="543" 
d="M377 234q0 61 -25 99t-77 71q-22 -2 -41.5 -12t-35 -29t-24.5 -47t-9 -64q0 -73 27.5 -113t80.5 -40q20 0 38.5 8.5t33.5 25t23.5 42.5t8.5 59zM291 739q35 0 70 -5.5t66 -16.5v-110q-34 17 -70 26.5t-67 9.5q-25 0 -37 -9.5t-12 -23.5q0 -10 3.5 -18t14 -18.5t32 -25.5
t60.5 -41q45 -30 75.5 -59t48.5 -60.5t26 -66.5t8 -77q0 -53 -18 -99.5t-51 -81t-79 -54t-100 -19.5q-52 0 -94 14.5t-72 44.5t-46 77.5t-16 111.5q0 92 38.5 155.5t106.5 87.5q-39 28 -56.5 56t-17.5 66q0 26 9.5 49.5t31.5 43.5t58.5 31.5t87.5 11.5z" />
    <glyph glyph-name="epsilon" unicode="&#x3b5;" horiz-adv-x="445" 
d="M412 13q-38 -11 -82.5 -17.5t-81.5 -6.5q-59 0 -100.5 10.5t-67.5 29t-37.5 43.5t-11.5 55q0 45 25.5 77.5t65.5 45.5v1q-34 13 -52.5 39t-18.5 61q0 34 13.5 62.5t40.5 50t69.5 33t98.5 11.5q29 0 62 -4t63 -10v-100q-37 11 -69 16.5t-62 5.5q-48 0 -70 -16.5t-22 -44.5
q0 -26 22.5 -41.5t63.5 -15.5h97v-87h-109q-40 0 -61.5 -18.5t-21.5 -45.5q0 -30 27 -47t79 -17q31 0 67.5 6.5t72.5 19.5v-96z" />
    <glyph glyph-name="zeta" unicode="&#x3b6;" horiz-adv-x="415" 
d="M412 -11q0 -61 -28.5 -111t-73.5 -96l-85 54q28 36 43.5 66.5t15.5 57.5q0 21 -14 31t-60 15q-47 6 -80.5 19t-55 35.5t-31.5 55t-10 77.5q0 67 19.5 134.5t49.5 126.5t66 104.5t70 68.5h-191v103h341v-94q-51 -35 -92 -86.5t-70.5 -109t-45 -114t-15.5 -100.5
q0 -27 4.5 -45.5t16.5 -31t33 -19.5t54 -12q77 -12 108 -44.5t31 -84.5z" />
    <glyph glyph-name="eta" unicode="&#x3b7;" horiz-adv-x="580" 
d="M169 497q5 -20 9 -44.5t6 -45.5h1q20 43 61 71.5t104 28.5q42 0 72.5 -13t50 -36t29 -55t9.5 -70v-368q0 -52 3 -103t13 -103h-125q-11 48 -14.5 93.5t-3.5 93.5v358q0 49 -16.5 72.5t-52.5 23.5q-23 0 -42.5 -11.5t-34 -31t-23 -46t-8.5 -57.5v-254h-128v237
q0 76 -9 139t-25 121h124z" />
    <glyph glyph-name="theta" unicode="&#x3b8;" horiz-adv-x="571" 
d="M175 320q3 -116 31.5 -170.5t80.5 -54.5t78.5 57t30.5 168h-221zM396 418q-2 109 -31 163t-80 54q-50 0 -78 -54.5t-32 -162.5h221zM527 379q0 -99 -17.5 -173t-50.5 -121.5t-78.5 -71t-101.5 -23.5q-54 0 -97 19t-74 61t-47.5 110.5t-16.5 165.5q0 100 17.5 174.5
t50.5 122.5t78.5 71.5t102.5 23.5q113 0 173.5 -89t60.5 -270z" />
    <glyph glyph-name="iota" unicode="&#x3b9;" horiz-adv-x="305" 
d="M295 0q-20 -4 -45 -6.5t-52 -2.5q-35 0 -58.5 7.5t-39 24.5t-23.5 45.5t-8 69.5v359h128v-334q0 -37 10.5 -52t37.5 -15q11 0 24 1.5t26 4.5v-102z" />
    <glyph glyph-name="kappa" unicode="&#x3ba;" horiz-adv-x="522" 
d="M348 0l-151 238v-238h-128v497h128v-215l151 215h149l-175 -226l184 -271h-158z" />
    <glyph glyph-name="lambda" unicode="&#x3bb;" horiz-adv-x="502" 
d="M167 566q-13 38 -31.5 53t-44.5 15q-7 0 -16.5 -0.5t-17.5 -1.5v100q14 3 32 4.5t32 1.5q30 0 54 -5.5t44 -19.5t37 -39.5t30 -64.5l209 -609h-141l-106 330h-1q-7 -30 -18.5 -68t-24.5 -75l-67 -187h-137l193 490z" />
    <glyph glyph-name="mu" unicode="&#x3bc;" horiz-adv-x="582" 
d="M556 -4q-28 -5 -51 -5q-32 0 -53.5 7t-34.5 20t-18.5 30t-6.5 39h-1q-19 -44 -55 -69t-87 -25q-43 0 -64 23l15 -257h-131v738h128v-322q0 -78 61 -78q25 0 46.5 11.5t37 33.5t24 51.5t8.5 65.5v238h127v-318q0 -26 2.5 -42t8.5 -24.5t16.5 -12t27.5 -3.5v-101z" />
    <glyph glyph-name="nu" unicode="&#x3bd;" horiz-adv-x="505" 
d="M492 497q-20 -129 -68 -251.5t-125 -245.5h-122l-170 497h140l73 -223q5 -18 15.5 -55.5t16.5 -66.5h2q40 82 65 169.5t35 175.5h138z" />
    <glyph glyph-name="xi" unicode="&#x3be;" horiz-adv-x="411" 
d="M409 -11q0 -56 -26.5 -106.5t-75.5 -100.5l-85 54q29 38 44 68t15 56q0 12 -3 19.5t-11 12.5t-22.5 8.5t-37.5 5.5q-93 11 -137.5 53.5t-44.5 124.5q0 35 10.5 65.5t28.5 54t42 39.5t51 23q-46 9 -72 43.5t-26 80.5q0 48 25 86t71 53q-15 -1 -27 -1.5t-23 -0.5h-67v103
h339v-103h-33q-43 0 -74 -9.5t-50 -26.5t-27.5 -37.5t-8.5 -43.5q0 -36 24.5 -59t72.5 -23h74v-102h-48q-40 0 -69.5 -8.5t-47.5 -24t-26 -35t-8 -41.5q0 -45 23 -67t79 -29q82 -12 116.5 -43.5t34.5 -88.5z" />
    <glyph glyph-name="omicron" unicode="&#x3bf;" horiz-adv-x="553" 
d="M388 248q0 73 -29 112t-81 39q-26 0 -47 -9.5t-35.5 -28.5t-22.5 -47t-8 -65q0 -150 111 -150q51 0 81.5 37.5t30.5 111.5zM520 260q0 -58 -17 -107t-49.5 -86t-80 -57t-106.5 -20q-54 0 -97 15t-73.5 45.5t-47 77t-16.5 109.5q0 58 17 107t49.5 86t80 57t106.5 20
q113 0 173.5 -63t60.5 -184z" />
    <glyph glyph-name="pi" unicode="&#x3c0;" horiz-adv-x="630" 
d="M495 392q1 -100 5.5 -159.5t12.5 -88.5t18.5 -38t28.5 -9q8 0 17 1l18 2v-102q-27 -7 -65 -7q-40 0 -66.5 9t-45 33t-29.5 68t-16.5 114.5t-6.5 176.5h-127q1 -106 -12 -208.5t-44 -196.5l-136 26q36 102 53 193t16 186h-104v105h588v-105h-105z" />
    <glyph glyph-name="rho" unicode="&#x3c1;" horiz-adv-x="546" 
d="M378 250q0 74 -25 112.5t-74 38.5q-47 0 -71 -34.5t-24 -97.5v-161q17 -7 34.5 -11.5t43.5 -4.5q53 0 84.5 39.5t31.5 118.5zM511 261q0 -57 -16.5 -106.5t-48.5 -86.5t-80.5 -57.5t-110.5 -20.5q-23 0 -41.5 2.5t-31.5 6.5q1 -19 1.5 -41.5t0.5 -40.5v-158h-128v501
q0 57 15 102.5t44.5 78t73.5 49.5t101 17q106 0 163.5 -63t57.5 -183z" />
    <glyph glyph-name="sigma1" unicode="&#x3c2;" horiz-adv-x="431" 
d="M409 -11q0 -56 -26.5 -106.5t-75.5 -100.5l-85 54q29 38 44 68t15 56q0 22 -14.5 31.5t-59.5 14.5q-88 12 -130.5 69.5t-42.5 158.5q0 129 66 200.5t185 71.5q24 0 48.5 -3t46.5 -9v-117q-25 10 -48.5 15.5t-46.5 5.5q-58 0 -87.5 -40t-29.5 -113q0 -58 23 -88.5
t79 -38.5q75 -12 107 -43.5t32 -85.5z" />
    <glyph glyph-name="sigma" unicode="&#x3c3;" horiz-adv-x="580" 
d="M387 249q0 93 -48 150q-12 1 -41 1q-64 0 -98.5 -37t-34.5 -114q0 -73 29 -111.5t82 -38.5q50 0 80.5 38t30.5 112zM562 392q-26 0 -50 1t-42 2q21 -26 33 -64t12 -85q0 -56 -17.5 -103t-50 -81.5t-78.5 -53t-102 -18.5q-54 0 -97 15t-73.5 45.5t-47 77t-16.5 109.5
q0 59 17.5 108.5t52.5 85.5t86.5 56t117.5 20q27 0 112 -5t143 -5v-105z" />
    <glyph glyph-name="tau" unicode="&#x3c4;" horiz-adv-x="362" 
d="M309 -2q-36 -8 -72 -8q-40 0 -65.5 8t-41 26t-22.5 47.5t-7 74.5v246h-93v105h334v-105h-113v-218q0 -45 9.5 -60.5t35.5 -15.5q22 0 35 3v-103z" />
    <glyph glyph-name="upsilon" unicode="&#x3c5;" horiz-adv-x="567" 
d="M509 293q0 -78 -17.5 -136t-49.5 -95t-74.5 -54.5t-92.5 -17.5q-59 0 -99.5 15.5t-65 44.5t-35 70t-10.5 95v282h128v-262q0 -76 20 -108.5t70 -32.5q23 0 41 9.5t31 31t19.5 57t6.5 86.5q0 54 -5.5 109.5t-14.5 109.5h131q9 -47 13 -98.5t4 -105.5z" />
    <glyph glyph-name="phi" unicode="&#x3c6;" horiz-adv-x="725" 
d="M564 246q0 64 -34.5 105t-103.5 48v-301q62 7 100 46t38 102zM299 399q-62 -6 -100 -45.5t-38 -102.5q0 -64 34.5 -105t103.5 -48v301zM694 256q0 -51 -17.5 -96t-52 -80.5t-84.5 -58t-114 -29.5v-233h-127v231q-132 6 -200 70.5t-68 181.5q0 51 17.5 96t51.5 80t84.5 58
t114.5 30v169h127v-168q132 -6 200 -70t68 -181z" />
    <glyph glyph-name="chi" unicode="&#x3c7;" horiz-adv-x="503" 
d="M495 -243q-12 -2 -25 -3t-25 -1q-29 0 -51.5 5.5t-42 21.5t-36.5 45t-35 76l-47 123l-112 -274l-129 31l181 370l-72 172q-10 25 -18.5 40.5t-17 24t-17 11.5t-18.5 3h-8.5t-11.5 -1v100q11 2 24 3t25 1q28 0 51 -5.5t42.5 -20.5t36 -41.5t32.5 -68.5l40 -109l98 237h142
l-179 -366l78 -183q12 -30 21.5 -48t18 -27.5t17 -13t18.5 -3.5h8.5t11.5 1v-100z" />
    <glyph glyph-name="psi" unicode="&#x3c8;" horiz-adv-x="784" 
d="M726 295q0 -141 -67.5 -214.5t-201.5 -88.5v-233h-128v232q-81 4 -133 25t-80.5 56.5t-39.5 81t-11 105.5v238h127v-219q0 -43 6 -74.5t21.5 -54.5t42.5 -37t68 -17v580h126v-580q77 7 109.5 51.5t32.5 136.5q0 51 -3.5 105.5t-10.5 108.5h129q7 -50 10 -101t3 -101z" />
    <glyph glyph-name="omega" unicode="&#x3c9;" horiz-adv-x="792" 
d="M755 269q0 -66 -16.5 -118t-46.5 -88.5t-70 -55t-86 -18.5q-58 0 -95.5 28t-47.5 71q-15 -44 -53 -71.5t-96 -27.5q-45 0 -82.5 17.5t-65.5 50.5t-43.5 80.5t-15.5 106.5q0 82 26 150t73 123l116 -40q-40 -43 -62 -96.5t-22 -116.5q0 -71 27.5 -112.5t69.5 -41.5
q31 0 50.5 26t19.5 80v169h122v-168q0 -56 18.5 -81.5t53.5 -25.5q39 0 66.5 39t27.5 111q0 33 -4.5 61t-14.5 53.5t-25.5 50t-38.5 51.5q60 21 120 41q45 -52 70 -111.5t25 -136.5z" />
    <glyph glyph-name="iotadieresis" unicode="&#x3ca;" horiz-adv-x="305" 
d="M295 0q-20 -4 -45 -6.5t-52 -2.5q-35 0 -58.5 7.5t-39 24.5t-23.5 45.5t-8 69.5v359h128v-334q0 -37 10.5 -52t37.5 -15q11 0 24 1.5t26 4.5v-102zM299 648q0 -28 -20.5 -48.5t-48.5 -20.5q-29 0 -49 20.5t-20 48.5q0 29 20 49t49 20t49 -20t20 -49zM114 648
q0 -28 -20.5 -48.5t-48.5 -20.5q-29 0 -49 20t-20 49t20 49t49 20t49 -20t20 -49z" />
    <glyph glyph-name="upsilondieresis" unicode="&#x3cb;" horiz-adv-x="567" 
d="M509 293q0 -78 -17.5 -136t-49.5 -95t-74.5 -54.5t-92.5 -17.5q-59 0 -99.5 15.5t-65 44.5t-35 70t-10.5 95v282h128v-262q0 -76 20 -108.5t70 -32.5q23 0 41 9.5t31 31t19.5 57t6.5 86.5q0 54 -5.5 109.5t-14.5 109.5h131q9 -47 13 -98.5t4 -105.5zM244 648
q0 -29 -20 -49t-49 -20t-49 20t-20 49t20 49t49 20t49 -20t20 -49zM447 648q0 -29 -20 -49t-49 -20t-49 20t-20 49t20 49t49 20t49 -20t20 -49z" />
    <glyph glyph-name="omicrontonos" unicode="&#x3cc;" horiz-adv-x="553" 
d="M321 551l-91 9l21 186l112 -10zM388 248q0 73 -29 112t-81 39q-26 0 -47 -9.5t-35.5 -28.5t-22.5 -47t-8 -65q0 -150 111 -150q51 0 81.5 37.5t30.5 111.5zM520 260q0 -58 -17 -107t-49.5 -86t-80 -57t-106.5 -20q-54 0 -97 15t-73.5 45.5t-47 77t-16.5 109.5
q0 58 17 107t49.5 86t80 57t106.5 20q113 0 173.5 -63t60.5 -184z" />
    <glyph glyph-name="upsilontonos" unicode="&#x3cd;" horiz-adv-x="567" 
d="M509 293q0 -78 -17.5 -136t-49.5 -95t-74.5 -54.5t-92.5 -17.5q-59 0 -99.5 15.5t-65 44.5t-35 70t-10.5 95v282h128v-262q0 -76 20 -108.5t70 -32.5q23 0 41 9.5t31 31t19.5 57t6.5 86.5q0 54 -5.5 109.5t-14.5 109.5h131q9 -47 13 -98.5t4 -105.5zM325 551l-91 9
l21 186l112 -10z" />
    <glyph glyph-name="omegatonos" unicode="&#x3ce;" horiz-adv-x="792" 
d="M755 269q0 -66 -16.5 -118t-46.5 -88.5t-70 -55t-86 -18.5q-58 0 -95.5 28t-47.5 71q-15 -44 -53 -71.5t-96 -27.5q-45 0 -82.5 17.5t-65.5 50.5t-43.5 80.5t-15.5 106.5q0 82 26 150t73 123l116 -40q-40 -43 -62 -96.5t-22 -116.5q0 -71 27.5 -112.5t69.5 -41.5
q31 0 50.5 26t19.5 80v169h122v-168q0 -56 18.5 -81.5t53.5 -25.5q39 0 66.5 39t27.5 111q0 33 -4.5 61t-14.5 53.5t-25.5 50t-38.5 51.5q60 21 120 41q45 -52 70 -111.5t25 -136.5zM437 551l-91 9l21 186l112 -10z" />
    <glyph glyph-name="beta.alt" unicode="&#x3d0;" horiz-adv-x="568" 
d="M501 581q0 -49 -24.5 -85.5t-73.5 -60.5q36 -8 60.5 -25t39.5 -42t22 -56.5t7 -69.5q0 -50 -16 -95.5t-47.5 -81t-79 -55.5t-109.5 -20q-64 0 -107.5 18.5t-69.5 59t-38 106.5t-12 164q0 104 16.5 180t49 124.5t81 72t112.5 23.5q90 0 139.5 -40.5t49.5 -116.5zM299 636
q-27 0 -48 -11.5t-36 -36t-23 -62.5t-9 -90q54 13 90.5 27.5t58 30t31 33.5t9.5 40q0 15 -4 27.5t-12.5 22t-22.5 14.5t-34 5zM301 355q-10 0 -21 -1.5t-25 -4t-31.5 -7.5t-41.5 -12q0 -65 5.5 -109.5t18 -72t33 -40.5t50.5 -13q27 0 48 10.5t34.5 29.5t20.5 43t7 52
q0 66 -23 95.5t-75 29.5z" />
    <glyph glyph-name="theta1" unicode="&#x3d1;" horiz-adv-x="624" 
d="M616 386q-17 2 -35.5 2.5t-46.5 0.5q0 -1 0.5 -10.5t0.5 -20.5q0 -87 -16.5 -155.5t-48 -116t-78 -72t-105.5 -24.5q-56 0 -99 20t-71.5 59t-43 95.5t-14.5 128.5q0 22 1.5 46t4.5 45h126q-1 -19 -1.5 -36t-0.5 -32q0 -52 6.5 -92t20 -68t34 -42.5t47.5 -14.5q29 0 50 17
t35 49.5t20.5 79.5t6.5 107q0 13 -0.5 22t-1.5 15h-56q-54 0 -98 11.5t-75 34t-47.5 55.5t-16.5 76q0 35 13.5 66.5t39 56t62.5 38t82 13.5q93 0 147.5 -60t71.5 -183h15q20 0 39 -1.5t32 -4.5v-105zM401 497q-11 68 -35.5 103.5t-62.5 35.5q-29 0 -45.5 -16.5t-16.5 -43.5
q0 -38 27.5 -58.5t84.5 -20.5h48z" />
    <glyph glyph-name="phi1" unicode="&#x3d5;" horiz-adv-x="721" 
d="M423 97q29 4 53.5 15t42 30t27.5 46.5t10 66.5q0 34 -8.5 61.5t-22 46.5t-30.5 28.5t-33 9.5q-10 0 -17.5 -3t-12 -11.5t-7 -24t-2.5 -41.5v-224zM296 -220v210q-132 12 -197.5 75.5t-65.5 180.5q0 88 37 153t113 108l74 -78q-46 -30 -70 -72t-24 -101q0 -34 9.5 -61
t26.5 -47t41.5 -32.5t55.5 -18.5v212q0 49 10.5 86t32 62t53 37.5t74.5 12.5q54 0 95 -19t69.5 -52t43 -77.5t14.5 -95.5q0 -56 -17.5 -102t-51.5 -81t-83 -57t-112 -31v-212h-128z" />
    <glyph glyph-name="uni0400" unicode="&#x400;" horiz-adv-x="536" 
d="M70 0v675h407v-109h-277v-167h255v-104h-255v-183h280v-112h-410zM320 716l-216 53l30 92l207 -75z" />
    <glyph glyph-name="uni0401" unicode="&#x401;" horiz-adv-x="536" 
d="M70 0v675h407v-109h-277v-167h255v-104h-255v-183h280v-112h-410zM449 788q0 -29 -20 -49t-49 -20t-49 20t-20 49t20 49t49 20t49 -20t20 -49zM233 788q0 -29 -20 -49t-49 -20t-49 20t-20 49t20 49t49 20t49 -20t20 -49z" />
    <glyph glyph-name="uni0402" unicode="&#x402;" horiz-adv-x="703" 
d="M667 222q0 -63 -21.5 -110.5t-61.5 -80t-95 -49.5t-121 -20v105q79 5 121 39t42 102q0 56 -31 92.5t-99 36.5q-26 0 -52.5 -5t-50.5 -14v-318h-130v565h-153v110h458v-110h-175v-144q25 8 59.5 13.5t68.5 5.5q114 0 177.5 -58t63.5 -160z" />
    <glyph glyph-name="uni0403" unicode="&#x403;" horiz-adv-x="429" 
d="M200 564v-564h-130v675h349v-111h-219zM175 716l-21 70l208 75l29 -92z" />
    <glyph glyph-name="uni0404" unicode="&#x404;" horiz-adv-x="584" 
d="M525 21q-36 -13 -79 -20.5t-86 -7.5q-86 0 -148.5 25.5t-100.5 70.5t-55.5 105t-17.5 131q0 78 21.5 143t64.5 113t108 74.5t149 26.5q32 0 67 -5t71 -13v-123q-38 13 -74.5 19t-72.5 6q-80 0 -127 -45t-59 -123h259v-108h-259q7 -87 55.5 -133.5t139.5 -46.5
q35 0 73 8.5t71 23.5v-121z" />
    <glyph glyph-name="uni0405" unicode="&#x405;" horiz-adv-x="504" 
d="M469 198q0 -45 -17 -83.5t-50 -66.5t-81 -43.5t-109 -15.5q-87 0 -157 19v124q34 -13 78.5 -21.5t83.5 -8.5q25 0 46 5t36 15t23 26t8 38q0 30 -19.5 50t-58 37.5t-74.5 33t-66.5 37.5t-50.5 57t-20 87q0 44 17 80.5t50 62.5t81 40.5t107 14.5q27 0 58 -3.5t59 -8.5v-115
q-29 9 -62.5 14t-62.5 5q-55 0 -83.5 -20.5t-28.5 -57.5q0 -28 19.5 -47t57.5 -36t75.5 -33.5t69 -39t51.5 -58.5t20 -88z" />
    <glyph glyph-name="uni0406" unicode="&#x406;" horiz-adv-x="270" 
d="M70 0v675h130v-675h-130z" />
    <glyph glyph-name="uni0407" unicode="&#x407;" horiz-adv-x="270" 
d="M70 0v675h130v-675h-130zM305 788q0 -29 -20 -49t-49 -20t-49 20t-20 49t20 49t49 20t49 -20t20 -49zM103 788q0 -29 -20 -49t-49 -20t-49 20t-20 49t20 49t49 20t49 -20t20 -49z" />
    <glyph glyph-name="uni0408" unicode="&#x408;" horiz-adv-x="270" 
d="M-13 -127q24 15 39.5 29.5t25.5 32t14 39.5t4 52v649h130v-641q0 -41 -6.5 -74.5t-23.5 -62t-46 -54t-74 -50.5z" />
    <glyph glyph-name="uni0409" unicode="&#x409;" horiz-adv-x="919" 
d="M428 564h-195q-1 -125 -7 -215.5t-18.5 -153t-31 -102t-43 -61t-55 -30t-73.5 -10.5v122q19 2 32.5 9.5t24.5 26.5t19.5 55.5t14 98t8 152.5t2.5 219h452v-246q32 2 70 2q130 0 196 -53.5t66 -152.5q0 -54 -20.5 -97t-58 -72.5t-89 -44.5t-112.5 -15q-83 0 -182 4v564z
M558 105q27 -1 60 -1q134 0 134 113q0 51 -32 79t-101 28q-32 0 -61 -2v-217z" />
    <glyph glyph-name="uni040A" unicode="&#x40a;" horiz-adv-x="961" 
d="M794 217q0 25 -7.5 44.5t-23.5 33.5t-41.5 21.5t-60.5 7.5q-20 0 -37 -0.5t-24 -1.5v-217q7 0 23 -0.5t37 -0.5q68 0 101 28.5t33 84.5zM470 293h-270v-293h-130v675h130v-270h270v270h130v-246q40 2 70 2q65 0 114.5 -14t82 -40.5t49 -64.5t16.5 -87q0 -54 -20.5 -97
t-58 -72.5t-89 -44.5t-112.5 -15q-29 0 -60 0.5t-57.5 1.5t-42.5 1.5t-22 0.5v293z" />
    <glyph glyph-name="uni040B" unicode="&#x40b;" horiz-adv-x="716" 
d="M526 0v210q0 30 -5.5 52.5t-19 39t-36.5 25.5t-58 9q-30 0 -58.5 -6t-50.5 -15v-315h-130v565h-153v110h458v-110h-175v-146q26 9 61.5 15t73.5 6q63 0 106.5 -16t69 -44.5t37 -67t11.5 -85.5v-227h-131z" />
    <glyph glyph-name="uni040C" unicode="&#x40c;" horiz-adv-x="600" 
d="M436 0l-236 324v-324h-130v675h130v-306l228 306h154l-249 -322l265 -353h-162zM262 716l-21 70l208 75l29 -92z" />
    <glyph glyph-name="uni040D" unicode="&#x40d;" horiz-adv-x="682" 
d="M482 0v350q0 34 2 70.5t5 71.5h-1q-14 -28 -24 -47.5t-20 -37.5l-236 -407h-138v675h130v-354q0 -31 -1.5 -66t-4.5 -67h1q9 20 19.5 40t22.5 42l235 405h140v-675h-130zM367 716l-216 53l30 92l207 -75z" />
    <glyph glyph-name="uni040E" unicode="&#x40e;" horiz-adv-x="562" 
d="M362 175q-21 -53 -45 -89.5t-50 -57.5t-55.5 -30t-63.5 -9q-16 0 -35.5 3t-37.5 8v116q40 -14 73 -14q15 0 26.5 3t22 11t20 22.5t19.5 36.5l-222 500h144l99 -236q12 -27 22 -55.5t18 -54.5l3 -6q6 16 21 61t22 65l81 226h136zM471 858q0 -65 -48 -102.5t-139 -37.5
t-137.5 36.5t-46.5 103.5h114q0 -68 73 -68q69 0 69 68h115z" />
    <glyph glyph-name="uni040F" unicode="&#x40f;" horiz-adv-x="660" 
d="M387 0v-147h-114v147h-203v675h130v-563h260v563h130v-675h-203z" />
    <glyph glyph-name="uni0410" unicode="&#x410;" horiz-adv-x="626" 
d="M335 458q-8 26 -15 51.5t-12 49.5h-2q-5 -24 -12 -50t-14 -50l-70 -212h195zM480 0l-46 144h-254l-47 -144h-131l226 675h169l227 -675h-144z" />
    <glyph glyph-name="uni0411" unicode="&#x411;" horiz-adv-x="573" 
d="M396 208q0 46 -31.5 72t-98.5 26h-66v-198q15 -2 33.5 -3t37.5 -1q58 0 91.5 28t33.5 76zM535 214q0 -46 -17 -85.5t-51.5 -69.5t-87.5 -46.5t-123 -16.5q-40 0 -92 1.5t-94 3.5v674h416v-109h-286v-159h86q119 0 184 -49t65 -144z" />
    <glyph glyph-name="uni0412" unicode="&#x412;" horiz-adv-x="581" 
d="M403 201q0 47 -34 71.5t-108 24.5h-35t-26 -1v-191q11 -1 32.5 -2t40.5 -1q64 0 97 27t33 72zM383 488q0 41 -27 64.5t-88 23.5q-16 0 -32.5 -0.5t-35.5 -1.5v-179q11 -1 23 -1h35q62 0 93.5 24.5t31.5 69.5zM543 207q0 -40 -16 -77t-49.5 -67t-86 -47.5t-122.5 -17.5
q-18 0 -85 1t-114 1v674q27 1 85.5 3t121.5 2q121 0 182 -44t61 -128q0 -49 -26 -89t-72 -58v-1q28 -7 50 -21t38 -33.5t24.5 -44t8.5 -53.5z" />
    <glyph glyph-name="uni0413" unicode="&#x413;" horiz-adv-x="429" 
d="M200 564v-564h-130v675h349v-111h-219z" />
    <glyph glyph-name="uni0414" unicode="&#x414;" horiz-adv-x="689" 
d="M668 -147h-115v147h-434v-147h-114v259h55q13 18 22 37t16 46t12.5 67t9 96.5t5 134.5t1.5 182h470v-563h72v-259zM465 566h-212q0 -110 -3.5 -186.5t-11.5 -127t-19 -83t-28 -57.5h274v454z" />
    <glyph glyph-name="uni0415" unicode="&#x415;" horiz-adv-x="536" 
d="M70 0v675h407v-109h-277v-167h255v-104h-255v-183h280v-112h-410z" />
    <glyph glyph-name="uni0416" unicode="&#x416;" horiz-adv-x="854" 
d="M361 675h131v-306l194 306h151l-220 -324l234 -351h-166l-193 324v-324h-131v324l-194 -324h-162l231 345l-223 330h155l193 -306v306z" />
    <glyph glyph-name="uni0417" unicode="&#x417;" horiz-adv-x="522" 
d="M482 206q0 -46 -18 -85t-53.5 -68t-88.5 -45t-120 -16q-45 0 -85.5 4.5t-74.5 12.5v116q38 -11 80 -18t87 -7q37 0 63 7.5t41.5 20.5t22.5 30.5t7 38.5q0 53 -43 76t-130 23h-53v101h56q30 0 57 5.5t48.5 17t34 29.5t12.5 43q0 18 -5.5 33t-19 27t-37 19t-57.5 7
q-36 0 -73 -7t-73 -19v107q37 11 82 18t90 7q58 0 101.5 -12.5t71.5 -35.5t41.5 -54t13.5 -68q0 -52 -29 -92t-80 -57v-1q31 -6 55.5 -20t41.5 -34.5t25.5 -46.5t8.5 -57z" />
    <glyph glyph-name="uni0418" unicode="&#x418;" horiz-adv-x="682" 
d="M482 0v350q0 34 2 70.5t5 71.5h-1q-14 -28 -24 -47.5t-20 -37.5l-236 -407h-138v675h130v-354q0 -31 -1.5 -66t-4.5 -67h1q9 20 19.5 40t22.5 42l235 405h140v-675h-130z" />
    <glyph glyph-name="uni0419" unicode="&#x419;" horiz-adv-x="682" 
d="M482 0v350q0 34 2 70.5t5 71.5h-1q-14 -28 -24 -47.5t-20 -37.5l-236 -407h-138v675h130v-354q0 -31 -1.5 -66t-4.5 -67h1q9 20 19.5 40t22.5 42l235 405h140v-675h-130zM533 858q0 -65 -48 -102.5t-139 -37.5t-137.5 36.5t-46.5 103.5h114q0 -68 73 -68q69 0 69 68h115z
" />
    <glyph glyph-name="uni041A" unicode="&#x41a;" horiz-adv-x="600" 
d="M436 0l-236 324v-324h-130v675h130v-306l228 306h154l-249 -322l265 -353h-162z" />
    <glyph glyph-name="uni041B" unicode="&#x41b;" horiz-adv-x="631" 
d="M431 0v564h-198q-1 -125 -7 -215.5t-18.5 -153t-31 -102t-43 -61t-55 -30t-73.5 -10.5v122q19 2 32.5 9.5t24.5 26.5t19.5 55.5t14 98t8 152.5t2.5 219h455v-675h-130z" />
    <glyph glyph-name="uni041C" unicode="&#x41c;" horiz-adv-x="896" 
d="M732 0l-41 332q-7 57 -11 115.5t-5 104.5h-2q-9 -45 -21.5 -92t-28.5 -96l-122 -364h-121l-117 350q-15 46 -31 104t-24 98h-2q-1 -44 -4.5 -102t-9.5 -121l-35 -329h-126l81 675h181l118 -350q10 -30 19.5 -66t15.5 -71h2q8 41 16 75.5t17 61.5l118 350h183l83 -675
h-133z" />
    <glyph glyph-name="uni041D" unicode="&#x41d;" horiz-adv-x="678" 
d="M478 0v293h-278v-293h-130v675h130v-270h278v270h130v-675h-130z" />
    <glyph glyph-name="uni041E" unicode="&#x41e;" horiz-adv-x="713" 
d="M538 335q0 110 -46 172t-136 62q-40 0 -73 -15t-57.5 -44t-37.5 -72t-13 -97q0 -55 11.5 -98.5t34 -74t56.5 -46.5t79 -16q40 0 73.5 15t57.5 44t37.5 72t13.5 98zM677 350q0 -85 -26 -153t-71.5 -114.5t-105.5 -70t-128 -23.5q-75 0 -133.5 22.5t-97.5 66t-59 105.5
t-20 142q0 85 26 153t71.5 114.5t105.5 70t128 23.5q75 0 133.5 -22.5t97.5 -66t59 -105.5t20 -142z" />
    <glyph glyph-name="uni041F" unicode="&#x41f;" horiz-adv-x="661" 
d="M461 0v564h-261v-564h-130v675h521v-675h-130z" />
    <glyph glyph-name="uni0420" unicode="&#x420;" horiz-adv-x="553" 
d="M530 462q0 -52 -18 -96.5t-54 -78.5t-88 -52.5t-117 -18.5q-12 0 -23.5 0.5t-20.5 1l-9 0.5v-218h-130v675q11 0 38.5 1t70.5 2t85 1q130 0 198 -58t68 -159zM396 448q0 57 -34.5 90.5t-105.5 33.5q-32 0 -56 -1v-243q3 -1 11.5 -2t22 -2t27.5 -1q64 0 99.5 34.5
t35.5 90.5z" />
    <glyph glyph-name="uni0421" unicode="&#x421;" horiz-adv-x="566" 
d="M516 15q-41 -11 -83 -17t-87 -6q-84 0 -143.5 25.5t-95.5 70t-52.5 103.5t-16.5 128q0 80 21.5 146t63.5 114.5t105 75t144 26.5q35 0 70 -4.5t69 -13.5v-130q-77 32 -147 32q-47 0 -82 -17t-57.5 -48.5t-33 -74t-10.5 -94.5q0 -108 47 -165t142 -57q34 0 73 6.5t73 17.5
v-118z" />
    <glyph glyph-name="uni0422" unicode="&#x422;" horiz-adv-x="510" 
d="M320 564v-564h-130v564h-175v111h480v-111h-175z" />
    <glyph glyph-name="uni0423" unicode="&#x423;" horiz-adv-x="562" 
d="M362 175q-21 -53 -45 -89.5t-50 -57.5t-55.5 -30t-63.5 -9q-16 0 -35.5 3t-37.5 8v116q40 -14 73 -14q15 0 26.5 3t22 11t20 22.5t19.5 36.5l-222 500h144l99 -236q12 -27 22 -55.5t18 -54.5l3 -6q6 16 21 61t22 65l81 226h136z" />
    <glyph glyph-name="uni0424" unicode="&#x424;" horiz-adv-x="833" 
d="M354 548q-86 -8 -137 -61.5t-51 -144.5q0 -45 10.5 -82.5t33 -65t58 -45t86.5 -22.5v421zM667 338q0 90 -44 145t-144 65v-419q84 8 136 61.5t52 147.5zM802 344q0 -70 -23.5 -127t-66.5 -99t-102 -67.5t-131 -32.5v-74h-125v72q-83 4 -143.5 27.5t-100.5 64.5t-59 97.5
t-19 126.5q0 69 23.5 126t66.5 99t102 67.5t130 32.5v72h125v-70q76 -3 136 -24.5t101.5 -61t63.5 -97t22 -132.5z" />
    <glyph glyph-name="uni0425" unicode="&#x425;" horiz-adv-x="628" 
d="M454 0l-145 248l-145 -248h-154l215 345l-202 330h151l137 -234l136 234h148l-199 -329l222 -346h-164z" />
    <glyph glyph-name="uni0426" unicode="&#x426;" horiz-adv-x="696" 
d="M676 -147h-114v147h-492v675h130v-563h262v563h131v-563h83v-259z" />
    <glyph glyph-name="uni0427" unicode="&#x427;" horiz-adv-x="624" 
d="M424 261q-33 -9 -68.5 -14t-72.5 -5q-71 0 -118 16.5t-73.5 46.5t-37.5 70t-11 91v209h130v-189q0 -35 6 -60t21 -42t40.5 -25.5t63.5 -8.5q31 0 61 5t59 14v306h130v-675h-130v261z" />
    <glyph glyph-name="uni0428" unicode="&#x428;" horiz-adv-x="960" 
d="M70 0v675h129v-563h217v563h128v-563h217v563h129v-675h-820z" />
    <glyph glyph-name="uni0429" unicode="&#x429;" horiz-adv-x="994" 
d="M973 -147h-114v147h-789v675h129v-563h217v563h128v-563h217v563h129v-563h83v-259z" />
    <glyph glyph-name="uni042A" unicode="&#x42a;" horiz-adv-x="662" 
d="M495 217q0 51 -33 79t-101 28q-20 0 -37.5 -0.5t-25.5 -1.5v-217q29 -1 62 -1q68 0 101.5 28.5t33.5 84.5zM298 429q9 1 28.5 1.5t43.5 0.5q66 0 115.5 -14t82.5 -40.5t49 -64.5t16 -87q0 -54 -20.5 -97t-58.5 -72.5t-89.5 -44.5t-112.5 -15q-45 0 -98.5 1.5t-85.5 3.5
v567h-153v107h283v-246z" />
    <glyph glyph-name="uni042B" unicode="&#x42b;" horiz-adv-x="835" 
d="M400 217q0 51 -33.5 79t-102.5 28q-21 0 -38.5 -0.5t-25.5 -1.5v-217q7 0 24.5 -0.5t38.5 -0.5q69 0 103 28.5t34 84.5zM538 225q0 -54 -21 -97t-59.5 -72.5t-90.5 -44.5t-113 -15q-23 0 -49.5 0.5t-52 1t-47 1.5t-35.5 2v674h130v-246q9 1 28.5 1.5t43.5 0.5
q66 0 116.5 -14t83.5 -40.5t49.5 -64.5t16.5 -87zM635 0v675h130v-675h-130z" />
    <glyph glyph-name="uni042C" unicode="&#x42c;" horiz-adv-x="567" 
d="M400 217q0 51 -33.5 79t-102.5 28q-21 0 -38.5 -0.5t-25.5 -1.5v-217q7 0 24.5 -0.5t38.5 -0.5q69 0 103 28.5t34 84.5zM538 225q0 -54 -21 -97t-59.5 -72.5t-90.5 -44.5t-113 -15q-23 0 -49.5 0.5t-52 1t-47 1.5t-35.5 2v674h130v-246q9 1 28.5 1.5t43.5 0.5
q66 0 116.5 -14t83.5 -40.5t49.5 -64.5t16.5 -87z" />
    <glyph glyph-name="uni042D" unicode="&#x42d;" horiz-adv-x="561" 
d="M528 348q0 -80 -23 -146t-67 -113t-108 -72t-145 -25q-37 0 -74.5 6t-68.5 15v127q34 -15 72.5 -23t78.5 -8q41 0 75 13.5t59 37.5t39 57.5t16 72.5h-271v108h270q-12 83 -62 126t-134 43q-34 0 -68.5 -7t-68.5 -20v119q36 11 76 17.5t85 6.5q81 0 141.5 -24.5t100 -69.5
t58.5 -106t19 -135z" />
    <glyph glyph-name="uni042E" unicode="&#x42e;" horiz-adv-x="951" 
d="M777 335q0 113 -41 173.5t-125 60.5q-38 0 -68.5 -14.5t-52.5 -43t-33.5 -71.5t-11.5 -99t10 -100t30.5 -74t52 -45.5t73.5 -15.5q37 0 67.5 14.5t52.5 43t34 72t12 99.5zM915 350q0 -87 -24 -155t-67 -114t-100 -69t-122 -23q-71 0 -124.5 20t-89 59t-54.5 95.5
t-23 130.5h-111v-294h-130v675h130v-274h115q8 65 33.5 117.5t65.5 90t93 57.5t114 20q74 0 129 -22t92 -65t55 -105.5t18 -143.5z" />
    <glyph glyph-name="uni042F" unicode="&#x42f;" horiz-adv-x="588" 
d="M387 0v267h-63l-150 -267h-156l181 291q-62 15 -98 59.5t-36 112.5q0 49 17.5 89t53 69t88 44t121.5 15q42 0 86.5 -2.5t85.5 -7.5v-670h-130zM387 572q-13 1 -28.5 2t-33.5 1q-62 0 -93.5 -27.5t-31.5 -74.5q0 -51 32 -77.5t96 -26.5h59v203z" />
    <glyph glyph-name="uni0430" unicode="&#x430;" horiz-adv-x="524" 
d="M325 214h-46q-33 0 -56 -4.5t-36.5 -13t-19.5 -20.5t-6 -28q0 -26 16.5 -43t44.5 -17q22 0 41 9.5t33 25.5t21.5 36.5t7.5 42.5v12zM333 0q0 20 2 40t5 40l-1 1q-18 -41 -60 -66t-95 -25q-69 0 -107.5 40t-38.5 103q0 42 17 73t48.5 51.5t76.5 30t102 9.5h43v21
q0 47 -21.5 69.5t-74.5 22.5q-36 0 -76 -8.5t-75 -22.5v101q38 13 81.5 20.5t84.5 7.5q59 0 99.5 -12.5t64.5 -36t34.5 -56.5t10.5 -76v-108.5v-109.5v-109h-120z" />
    <glyph glyph-name="uni0431" unicode="&#x431;" horiz-adv-x="561" 
d="M395 252q0 70 -24 107.5t-79 37.5q-24 0 -44.5 -11t-35.5 -30t-23.5 -44.5t-8.5 -55.5q0 -157 108 -157q48 0 77.5 38.5t29.5 114.5zM527 268q0 -62 -18 -113.5t-51 -88t-79.5 -56.5t-103.5 -20q-112 0 -170 72.5t-58 226.5v8q0 128 22.5 216.5t66.5 133.5q27 26 56.5 41
t65 23t66.5 10.5t60 4t52.5 5t41.5 12.5v-110q-32 -13 -64 -15.5t-74.5 -5t-71.5 -11t-51 -29.5q-8 -8 -16 -20.5t-15 -29t-13 -44t-10 -66.5h1q19 40 61 65t100 25q44 0 81 -14t64 -43t42 -73t15 -104z" />
    <glyph glyph-name="uni0432" unicode="&#x432;" horiz-adv-x="534" 
d="M362 150q0 34 -28.5 50.5t-78.5 16.5h-64v-128q16 -5 35 -6.5t36 -1.5q51 0 75.5 20t24.5 49zM349 355q0 26 -21.5 44t-77.5 18q-15 0 -31 -1t-28 -3v-118h62q47 0 71.5 15.5t24.5 44.5zM496 157q0 -35 -15 -65.5t-46 -53t-77 -35.5t-107 -13q-51 0 -99.5 4.5t-81.5 12.5
v488q42 5 93 8.5t97 3.5q63 0 104.5 -10.5t65.5 -28.5t33.5 -41.5t9.5 -48.5q0 -80 -81 -108v-1q46 -7 75 -36t29 -76z" />
    <glyph glyph-name="uni0433" unicode="&#x433;" horiz-adv-x="376" 
d="M197 392v-392h-128v497h288v-105h-160z" />
    <glyph glyph-name="uni0434" unicode="&#x434;" horiz-adv-x="586" 
d="M564 -138h-111v138h-328v-138h-111v241h47q16 26 26.5 57.5t16.5 75.5t8.5 106.5t2.5 154.5h387v-394h62v-241zM375 395h-143q0 -59 -2 -102.5t-6.5 -78t-13 -62t-21.5 -49.5h186v292z" />
    <glyph glyph-name="uni0435" unicode="&#x435;" horiz-adv-x="514" 
d="M350 303q2 54 -22 82t-66 28q-41 0 -68 -29t-30 -81h186zM475 293q0 -22 -1.5 -44t-2.5 -32h-307q2 -128 131 -128q73 0 156 25v-99q-39 -12 -83.5 -18.5t-86.5 -6.5q-121 0 -184 63t-63 193q0 55 15.5 103t46 83.5t74.5 55t99 19.5q53 0 92 -16t64.5 -45t37.5 -68
t12 -85z" />
    <glyph glyph-name="uni0436" unicode="&#x436;" horiz-adv-x="753" 
d="M313 497h127v-213l143 213h146l-167 -229l177 -268h-158l-141 239v-239h-127v239l-142 -239h-157l177 266l-167 231h148l141 -213v213z" />
    <glyph glyph-name="uni0437" unicode="&#x437;" horiz-adv-x="447" 
d="M416 157q0 -35 -15.5 -65.5t-46.5 -53.5t-75.5 -36t-101.5 -13q-35 0 -70.5 4.5t-65.5 12.5v100q33 -12 71 -19t74 -7q46 0 70 19t24 50q0 32 -28 47.5t-82 15.5h-64v86h63q48 0 72.5 15t24.5 45q0 28 -21.5 44t-69.5 16q-28 0 -61.5 -7t-64.5 -18v92q34 11 72.5 17
t76.5 6q53 0 91 -10.5t61.5 -28.5t34 -41t10.5 -49q0 -83 -85 -109v-1q48 -8 77 -36.5t29 -75.5z" />
    <glyph glyph-name="uni0438" unicode="&#x438;" horiz-adv-x="585" 
d="M387 0v195q0 38 3 69.5t8 76.5h-2q-9 -22 -21 -46t-26 -46l-145 -249h-134v497h127v-196q0 -39 -2 -67t-7 -74h1q10 22 23 45.5t26 45.5l144 246h133v-497h-128z" />
    <glyph glyph-name="uni0439" unicode="&#x439;" horiz-adv-x="585" 
d="M387 0v195q0 38 3 69.5t8 76.5h-2q-9 -22 -21 -46t-26 -46l-145 -249h-134v497h127v-196q0 -39 -2 -67t-7 -74h1q10 22 23 45.5t26 45.5l144 246h133v-497h-128zM479 716q0 -69 -47.5 -108.5t-139.5 -39.5q-91 0 -137.5 38.5t-46.5 109.5h113q0 -75 74 -75q70 0 70 75
h114z" />
    <glyph glyph-name="uni043A" unicode="&#x43a;" horiz-adv-x="522" 
d="M348 0l-151 238v-238h-128v497h128v-215l151 215h149l-175 -226l184 -271h-158z" />
    <glyph glyph-name="uni043B" unicode="&#x43b;" horiz-adv-x="539" 
d="M341 0v395h-128q-2 -121 -15 -198.5t-38.5 -121.5t-62.5 -62.5t-92 -20.5v109q24 3 38.5 17t25.5 53t16.5 117.5t5.5 208.5h378v-497h-128z" />
    <glyph glyph-name="uni043C" unicode="&#x43c;" horiz-adv-x="760" 
d="M599 0l-37 257q-4 28 -7.5 55.5t-5.5 55.5h-1q-5 -30 -11 -55.5t-12 -46.5l-81 -266h-134l-77 248q-8 28 -16 59t-14 61h-1q-2 -32 -5.5 -60t-8.5 -59l-35 -249h-124l84 497h166l82 -263q6 -20 11.5 -43.5t10.5 -49.5h1q5 26 10.5 49.5t13.5 46.5l82 260h158l83 -497
h-132z" />
    <glyph glyph-name="uni043D" unicode="&#x43d;" horiz-adv-x="574" 
d="M377 0v201h-180v-201h-127v497h127v-190h180v190h127v-497h-127z" />
    <glyph glyph-name="uni043E" unicode="&#x43e;" horiz-adv-x="553" 
d="M388 248q0 73 -29 112t-81 39q-26 0 -47 -9.5t-35.5 -28.5t-22.5 -47t-8 -65q0 -150 111 -150q51 0 81.5 37.5t30.5 111.5zM520 260q0 -58 -17 -107t-49.5 -86t-80 -57t-106.5 -20q-54 0 -97 15t-73.5 45.5t-47 77t-16.5 109.5q0 58 17 107t49.5 86t80 57t106.5 20
q113 0 173.5 -63t60.5 -184z" />
    <glyph glyph-name="uni043F" unicode="&#x43f;" horiz-adv-x="569" 
d="M372 0v395h-175v-395h-128v497h430v-497h-127z" />
    <glyph glyph-name="uni0440" unicode="&#x440;" horiz-adv-x="559" 
d="M389 261q0 141 -85 141q-24 0 -44 -13t-34 -36t-21.5 -52.5t-7.5 -61.5v-138q30 -9 67 -9q28 0 50.5 9.5t39.5 29.5t26 52.5t9 77.5zM523 275q0 -65 -17 -117t-50 -89t-82 -56.5t-113 -19.5q-19 0 -34 1t-30 3v-238h-128v738h119q0 -21 -1 -43t-4 -40h2q21 44 61 68.5
t95 24.5q88 0 135 -60.5t47 -171.5z" />
    <glyph glyph-name="uni0441" unicode="&#x441;" horiz-adv-x="418" 
d="M384 7q-31 -8 -61 -12t-63 -4q-53 0 -95 14t-71 43.5t-44.5 76t-15.5 109.5q0 64 17 114.5t49 86t79 53.5t106 18q24 0 48.5 -3t46.5 -9v-117q-25 10 -48.5 15.5t-46.5 5.5q-58 0 -87.5 -40t-29.5 -113q0 -33 6.5 -59t20 -45t36.5 -29.5t55 -10.5q39 0 98 14v-108z" />
    <glyph glyph-name="uni0442" unicode="&#x442;" horiz-adv-x="406" 
d="M267 392v-392h-128v392h-128v105h385v-105h-129z" />
    <glyph glyph-name="uni0443" unicode="&#x443;" horiz-adv-x="502" 
d="M313 -18q-23 -62 -48 -118.5t-51 -104.5h-140q34 57 60.5 111t44.5 106l9 24l-183 497h144l67 -195q11 -35 21 -70t20 -73h1q9 37 20.5 77t24.5 82l58 179h137z" />
    <glyph glyph-name="uni0444" unicode="&#x444;" horiz-adv-x="725" 
d="M564 246q0 64 -34.5 105t-103.5 48v-301q62 7 100 46t38 102zM299 399q-62 -6 -100 -45.5t-38 -102.5q0 -64 34.5 -105t103.5 -48v301zM694 256q0 -51 -17.5 -96t-52 -80.5t-84.5 -58t-114 -29.5v-233h-127v231q-132 6 -200 70.5t-68 181.5q0 51 17.5 96t51.5 80t84.5 58
t114.5 30v169h127v-168q132 -6 200 -70t68 -181z" />
    <glyph glyph-name="uni0445" unicode="&#x445;" horiz-adv-x="528" 
d="M356 0l-96 167l-96 -167h-143h-10l171 251l-161 246h10h143l96 -164l97 164h131h11l-156 -245l164 -252h-10h-151z" />
    <glyph glyph-name="uni0446" unicode="&#x446;" horiz-adv-x="587" 
d="M567 -138h-110v138h-387v497h127v-394h175v394h127v-394h68v-241z" />
    <glyph glyph-name="uni0447" unicode="&#x447;" horiz-adv-x="534" 
d="M336 0v183q-51 -23 -120 -23q-52 0 -86.5 12.5t-55 34.5t-29 50.5t-8.5 60.5v179h128v-154q0 -45 17.5 -66t57.5 -21q23 0 47.5 5t48.5 18v218h128v-497h-128z" />
    <glyph glyph-name="uni0448" unicode="&#x448;" horiz-adv-x="830" 
d="M70 0v497h127v-394h156v394h126v-394h154v394h127v-497h-690z" />
    <glyph glyph-name="uni0449" unicode="&#x449;" horiz-adv-x="848" 
d="M828 -138h-110v138h-648v497h127v-394h156v394h126v-394h154v394h127v-394h68v-241z" />
    <glyph glyph-name="uni044A" unicode="&#x44a;" horiz-adv-x="573" 
d="M556 180q0 -40 -15.5 -74.5t-46 -60t-77.5 -40t-108 -14.5q-21 0 -44.5 1t-47 3t-45.5 5t-38 7v385h-128v105h256v-157q17 2 38.5 3t45.5 1q49 0 88 -11t66.5 -32t41.5 -51.5t14 -69.5zM423 168q0 16 -5.5 30t-17.5 24t-31.5 16t-46.5 6q-16 0 -31.5 -1t-28.5 -3v-141
q13 -4 31.5 -6t35.5 -2q45 0 69.5 21t24.5 56z" />
    <glyph glyph-name="uni044B" unicode="&#x44b;" horiz-adv-x="759" 
d="M359 168q0 34 -24.5 55t-76.5 21q-16 0 -31.5 -1t-29.5 -3v-141q13 -4 31.5 -6t36.5 -2q45 0 69.5 21t24.5 56zM491 180q0 -40 -15 -74.5t-46 -60t-77.5 -40t-107.5 -14.5q-21 0 -44.5 1t-47.5 3t-45.5 5t-37.5 7v490h127v-157q18 2 39.5 3t44.5 1q100 0 155 -43t55 -121
zM561 0v497h128v-497h-128z" />
    <glyph glyph-name="uni044C" unicode="&#x44c;" horiz-adv-x="509" 
d="M359 168q0 34 -24.5 55t-76.5 21q-16 0 -31.5 -1t-29.5 -3v-141q13 -4 31.5 -6t36.5 -2q45 0 69.5 21t24.5 56zM491 180q0 -40 -15 -74.5t-46 -60t-77.5 -40t-107.5 -14.5q-21 0 -44.5 1t-47.5 3t-45.5 5t-37.5 7v490h127v-157q18 2 39.5 3t44.5 1q100 0 155 -43t55 -121
z" />
    <glyph glyph-name="uni044D" unicode="&#x44d;" horiz-adv-x="444" 
d="M411 249q0 -58 -17 -105t-50.5 -81.5t-82.5 -53t-112 -18.5q-27 0 -55 4t-51 11v104q25 -10 54.5 -16.5t56.5 -6.5q59 0 90.5 31.5t36.5 88.5h-181v89h180q-9 57 -41.5 85t-89.5 28q-48 0 -101 -17v98q56 17 116 17q120 0 183.5 -65.5t63.5 -192.5z" />
    <glyph glyph-name="uni044E" unicode="&#x44e;" horiz-adv-x="770" 
d="M604 248q0 73 -27 112t-75 39q-23 0 -42 -9.5t-32.5 -29t-21 -47.5t-7.5 -64q0 -73 27 -111.5t75 -38.5t75.5 38.5t27.5 110.5zM737 260q0 -57 -16.5 -106.5t-48 -86.5t-77.5 -57t-103 -20q-97 0 -154 54t-64 160h-77v-204h-128v497h128v-194h80q8 44 26.5 81t48 64.5
t69.5 43t90 15.5q106 0 166 -61.5t60 -185.5z" />
    <glyph glyph-name="uni044F" unicode="&#x44f;" horiz-adv-x="524" 
d="M326 0v185h-54l-113 -185h-145l101 159q10 16 19.5 30t17.5 23q-50 13 -78.5 46t-28.5 80q0 78 60.5 123t174.5 45q41 0 86 -3t88 -9v-494h-128zM326 414q-13 2 -29 3t-29 1q-46 0 -68 -19.5t-22 -52.5t22.5 -51.5t68.5 -18.5h57v138z" />
    <glyph glyph-name="uni0450" unicode="&#x450;" horiz-adv-x="514" 
d="M350 303q2 54 -22 82t-66 28q-41 0 -68 -29t-30 -81h186zM475 293q0 -22 -1.5 -44t-2.5 -32h-307q2 -128 131 -128q73 0 156 25v-99q-39 -12 -83.5 -18.5t-86.5 -6.5q-121 0 -184 63t-63 193q0 55 15.5 103t46 83.5t74.5 55t99 19.5q53 0 92 -16t64.5 -45t37.5 -68
t12 -85zM283 558l-163 129l70 76l150 -144z" />
    <glyph glyph-name="uni0451" unicode="&#x451;" horiz-adv-x="514" 
d="M350 303q2 54 -22 82t-66 28q-41 0 -68 -29t-30 -81h186zM475 293q0 -22 -1.5 -44t-2.5 -32h-307q2 -128 131 -128q73 0 156 25v-99q-39 -12 -83.5 -18.5t-86.5 -6.5q-121 0 -184 63t-63 193q0 55 15.5 103t46 83.5t74.5 55t99 19.5q53 0 92 -16t64.5 -45t37.5 -68
t12 -85zM234 648q0 -29 -20 -49t-49 -20t-49 20t-20 49t20 49t49 20t49 -20t20 -49zM437 648q0 -29 -20 -49t-49 -20t-49 20t-20 49t20 49t49 20t49 -20t20 -49z" />
    <glyph glyph-name="uni0452" unicode="&#x452;" horiz-adv-x="571" 
d="M512 184q0 -84 -4 -140t-13 -94t-22.5 -61.5t-32.5 -42.5q-23 -23 -55 -38.5t-76 -26.5l-30 100q45 14 66 33q11 11 18.5 24.5t12.5 39t7 67t2 109.5v18q0 72 -4.5 116.5t-13.5 68.5t-23.5 32t-33.5 8q-21 0 -40.5 -11.5t-34 -32t-23.5 -47.5t-9 -57v-249h-128v562h-75
v99h75v69h128v-69h118v-99h-118v-54q0 -26 -2.5 -50t-6.5 -44h1q19 39 61 64.5t93 25.5q45 0 76 -15t50.5 -50t28 -93t8.5 -143v-19v0z" />
    <glyph glyph-name="uni0453" unicode="&#x453;" horiz-adv-x="376" 
d="M197 392v-392h-128v497h288v-105h-160zM181 558l-57 61l150 144l70 -75z" />
    <glyph glyph-name="uni0454" unicode="&#x454;" horiz-adv-x="438" 
d="M402 10q-28 -9 -58.5 -14t-65.5 -5q-62 0 -108.5 17t-76.5 49.5t-44.5 79t-14.5 106.5t17 108.5t50.5 83t82 53t109.5 18.5q28 0 53.5 -3t50.5 -9v-106q-25 10 -53 16t-56 6q-54 0 -85 -31t-39 -84h182v-87h-182q6 -56 39.5 -88.5t95.5 -32.5q23 0 49.5 5.5t53.5 15.5
v-98z" />
    <glyph glyph-name="uni0455" unicode="&#x455;" horiz-adv-x="417" 
d="M378 151q0 -34 -13 -63.5t-40 -51.5t-67 -34t-93 -12q-30 0 -58 3t-55 9v107q27 -9 57.5 -14.5t60.5 -5.5q37 0 56 13t19 37q0 20 -13.5 32.5t-38.5 23t-52.5 22t-49.5 27t-36 42.5t-14 66q0 33 12.5 61t38.5 49.5t65.5 33.5t90.5 12q21 0 44 -2t47 -6v-102
q-20 6 -46 9.5t-49 3.5q-35 0 -53.5 -12.5t-18.5 -34.5q0 -19 13.5 -31.5t38.5 -22.5t53.5 -22t50.5 -28t36 -43t14 -66z" />
    <glyph glyph-name="uni0456" unicode="&#x456;" horiz-adv-x="266" 
d="M69 0v497h128v-497h-128zM213 648q0 -32 -23.5 -54.5t-56.5 -22.5t-56 22.5t-23 54.5t23 55t56 23t56.5 -22.5t23.5 -55.5z" />
    <glyph glyph-name="uni0457" unicode="&#x457;" horiz-adv-x="266" 
d="M69 0v497h128v-497h-128zM295 648q0 -28 -20.5 -48.5t-48.5 -20.5q-29 0 -49 20.5t-20 48.5q0 29 20 49t49 20t49 -20t20 -49zM110 648q0 -28 -20.5 -48.5t-48.5 -20.5q-29 0 -49 20t-20 49t20 49t49 20t49 -20t20 -49z" />
    <glyph glyph-name="uni0458" unicode="&#x458;" horiz-adv-x="266" 
d="M213 648q0 -32 -23.5 -54.5t-56.5 -22.5t-56.5 22.5t-23.5 54.5t23.5 55t56.5 23t56.5 -22.5t23.5 -55.5zM197 -20q0 -45 -8 -80.5t-27 -63.5t-49 -49.5t-73 -39.5l-53 87q22 12 37.5 23.5t25.5 27.5t14.5 38.5t4.5 56.5v517h128v-517z" />
    <glyph glyph-name="uni0459" unicode="&#x459;" horiz-adv-x="776" 
d="M337 395h-124q-2 -121 -15 -198.5t-38.5 -121.5t-62.5 -62.5t-92 -20.5v109q24 3 38.5 17t25.5 53t16.5 117.5t5.5 208.5h374v-157q17 2 38.5 3t44.5 1q50 0 89 -11t66 -32t41 -51.5t14 -69.5q0 -40 -15 -74.5t-46 -60t-77.5 -40t-107.5 -14.5q-43 0 -92.5 4.5
t-82.5 11.5v388zM465 99q13 -4 31.5 -6t35.5 -2q45 0 69.5 21t24.5 56q0 16 -5.5 30t-17.5 24t-31.5 16t-46.5 6q-16 0 -31.5 -1t-28.5 -3v-141z" />
    <glyph glyph-name="uni045A" unicode="&#x45a;" horiz-adv-x="809" 
d="M659 168q0 34 -24.5 55t-76.5 21q-16 0 -31.5 -1t-28.5 -3v-141q13 -4 31.5 -6t35.5 -2q45 0 69.5 21t24.5 56zM498 340q17 2 38.5 3t45.5 1q99 0 154.5 -43t55.5 -121q0 -40 -15.5 -74.5t-46 -60t-77.5 -40t-108 -14.5q-21 0 -44.5 1t-47 3t-45.5 5t-38 7v194h-173v-201
h-127v497h127v-190h173v190h128v-157z" />
    <glyph glyph-name="uni045B" unicode="&#x45b;" horiz-adv-x="577" 
d="M380 0v315q0 39 -13.5 60.5t-48.5 21.5q-24 0 -45 -13t-36.5 -34.5t-24.5 -51t-9 -62.5v-236h-128v562h-75v99h75v69h128v-69h119v-99h-119v-58q0 -26 -2.5 -49.5t-6.5 -41.5l1 -1q22 42 63.5 67t100.5 25q42 0 70.5 -12.5t45.5 -34t24.5 -50t7.5 -61.5v-346h-127z" />
    <glyph glyph-name="uni045C" unicode="&#x45c;" horiz-adv-x="522" 
d="M348 0l-151 238v-238h-128v497h128v-215l151 215h149l-175 -226l184 -271h-158zM267 558l-57 61l150 144l70 -75z" />
    <glyph glyph-name="uni045D" unicode="&#x45d;" horiz-adv-x="585" 
d="M387 0v195q0 38 3 69.5t8 76.5h-2q-9 -22 -21 -46t-26 -46l-145 -249h-134v497h127v-196q0 -39 -2 -67t-7 -74h1q10 22 23 45.5t26 45.5l144 246h133v-497h-128zM310 558l-163 129l70 76l150 -144z" />
    <glyph glyph-name="uni045E" unicode="&#x45e;" horiz-adv-x="502" 
d="M313 -18q-23 -62 -48 -118.5t-51 -104.5h-140q34 57 60.5 111t44.5 106l9 24l-183 497h144l67 -195q11 -35 21 -70t20 -73h1q9 37 20.5 77t24.5 82l58 179h137zM437 716q0 -69 -47.5 -108.5t-139.5 -39.5q-91 0 -137.5 38.5t-46.5 109.5h113q0 -75 74 -75q70 0 70 75h114
z" />
    <glyph glyph-name="uni045F" unicode="&#x45f;" horiz-adv-x="570" 
d="M340 0v-138h-110v138h-160v497h127v-394h175v394h128v-497h-160z" />
    <glyph glyph-name="uni0462" unicode="&#x462;" horiz-adv-x="668" 
d="M15 610h143v97h130v-97h205v-106h-205v-93h93q58 0 104 -13.5t78 -39t48.5 -61t16.5 -79.5q0 -55 -19.5 -97t-56.5 -70t-89 -42t-116 -14q-26 0 -53.5 0.5t-53 1.5t-47 2.5t-35.5 2.5v502h-143v106zM492 206q0 24 -8 42.5t-24 31.5t-41 19.5t-59 6.5h-72v-201
q6 -1 28 -1.5t46 -0.5q63 0 96.5 27t33.5 76z" />
    <glyph glyph-name="uni0463" unicode="&#x463;" horiz-adv-x="533" 
d="M516 167q0 -37 -15.5 -69t-46.5 -56t-77.5 -37.5t-107.5 -13.5q-20 0 -43.5 1t-47.5 3t-45.5 4.5t-37.5 5.5v399h-87v93h87v153l127 34v-187h137v-93h-137v-87q17 2 38.5 3t45.5 1q50 0 89 -10t66 -30t41 -48.5t14 -65.5zM383 156q0 16 -5.5 29t-17.5 23t-31.5 15.5
t-46.5 5.5q-14 0 -32.5 -1t-27.5 -2v-135q13 -4 30.5 -6t36.5 -2q45 0 69.5 20t24.5 53z" />
    <glyph glyph-name="uni0472" unicode="&#x472;" horiz-adv-x="713" 
d="M677 347q0 -85 -26 -152.5t-71.5 -113t-105.5 -69t-128 -23.5q-76 0 -134 23t-97 67t-59 107t-20 142q0 85 26 152.5t71.5 113t105.5 69t128 23.5q75 0 133 -22.5t97.5 -66t59.5 -107t20 -143.5zM537 396q-11 85 -57.5 130.5t-123.5 45.5q-34 0 -64.5 -11t-54.5 -33.5
t-39.5 -55.5t-21.5 -76h361zM174 295q4 -44 17 -79.5t36 -60.5t55.5 -38.5t73.5 -13.5q34 0 65 11.5t56 35.5t41 60.5t20 84.5h-364z" />
    <glyph glyph-name="uni0473" unicode="&#x473;" horiz-adv-x="553" 
d="M520 260q0 -58 -17 -107t-49.5 -86t-80 -57t-106.5 -20q-54 0 -97 15t-73.5 45.5t-47 77t-16.5 109.5q0 58 17 107t49.5 86t80 57t106.5 20q54 0 97 -15t73.5 -45.5t47 -77t16.5 -109.5zM390 294q-2 27 -10.5 49t-23 37.5t-34.5 23.5t-45 8q-49 0 -78.5 -31.5
t-35.5 -86.5h227zM163 210q4 -60 33.5 -92t79.5 -32q49 0 79.5 32t34.5 92h-227z" />
    <glyph glyph-name="uni0474" unicode="&#x474;" horiz-adv-x="626" 
d="M648 565h-4t-8 0.5t-11.5 0.5h-13.5q-15 0 -25.5 -4.5t-19.5 -18t-19 -38.5t-23 -68l-130 -437h-156l-235 675h142l133 -398q13 -40 22 -71.5t16 -59.5h2q5 25 13 56.5t17 65.5l55 205q17 63 32.5 101t36.5 61t51 33.5t76 10.5q10 0 18.5 -0.5t15 -1.5t10.5 -1.5t5 -0.5
v-110z" />
    <glyph glyph-name="uni0475" unicode="&#x475;" horiz-adv-x="517" 
d="M526 395q-8 1 -14.5 1.5t-14.5 0.5q-12 0 -20.5 -3.5t-15 -12t-12.5 -23.5t-14 -41l-97 -317h-172l-161 497h139l74 -232q12 -41 21 -78.5t14 -72.5h3q6 31 13 61t15 66l33 116q11 42 23 69t30 45t45 26.5t67 8.5q16 0 44 -4v-107z" />
    <glyph glyph-name="uni0490" unicode="&#x490;" horiz-adv-x="429" 
d="M200 564v-564h-130v675h235v121h114v-232h-219z" />
    <glyph glyph-name="uni0491" unicode="&#x491;" horiz-adv-x="376" 
d="M197 392v-392h-127v497h176v116h111v-221h-160z" />
    <glyph glyph-name="uni0492" unicode="&#x492;" horiz-adv-x="458" 
d="M83 675h353v-111h-223v-172h164v-108h-164v-284h-130v284h-73v108h73v283z" />
    <glyph glyph-name="uni0493" unicode="&#x493;" horiz-adv-x="386" 
d="M79 497h288v-105h-160v-106h102v-102h-102v-184h-128v184h-64v102h64v211z" />
    <glyph glyph-name="uni0496" unicode="&#x496;" horiz-adv-x="881" 
d="M361 675h131v-306l194 306h151l-220 -324l170 -239h83v-259h-114v147h-71l-193 324v-324h-131v324l-194 -324h-162l231 345l-223 330h155l193 -306v306z" />
    <glyph glyph-name="uni0497" unicode="&#x497;" horiz-adv-x="769" 
d="M645 -138v138h-62l-141 239v-239h-127v239l-143 -239h-158l175 264l-166 233h156l136 -213v213h127v-213l138 213h153l-166 -231l115 -166h74v-238h-111z" />
    <glyph glyph-name="uni0498" unicode="&#x498;" horiz-adv-x="522" 
d="M42 125q38 -11 80 -18t87 -7q37 0 63 7.5t41.5 20.5t22.5 30.5t7 38.5q0 27 -11 46t-33 30.5t-54 17t-75 5.5h-53v101h56q64 0 108 23.5t44 71.5q0 18 -5.5 33t-19 27t-37 19t-57.5 7q-36 0 -73 -7t-73 -19v107q37 11 82 18t90 7q58 0 101.5 -12.5t71.5 -35.5t41.5 -54
t13.5 -68q0 -52 -29 -92t-80 -57v-1q31 -6 55.5 -20t41.5 -34.5t25.5 -46.5t8.5 -57q0 -38 -12.5 -71.5t-37.5 -61t-63 -47t-87 -27.5v-146h-114v140q-36 1 -69.5 5.5t-56.5 10.5v116z" />
    <glyph glyph-name="uni0499" unicode="&#x499;" horiz-adv-x="447" 
d="M41 106q33 -12 71 -19t74 -7q46 0 70 19t24 50q0 32 -28 47.5t-82 15.5h-64v86h63q97 0 97 60q0 28 -21.5 44t-69.5 16q-28 0 -61.5 -7t-64.5 -18v92q72 23 149 23q53 0 91 -10.5t61.5 -28.5t34 -41t10.5 -49q0 -41 -22.5 -69t-62.5 -40v-1q48 -8 77 -36.5t29 -75.5
q0 -28 -10 -53.5t-29.5 -46.5t-49 -36t-66.5 -23v-136h-111v128q-30 2 -57 5.5t-52 10.5v100z" />
    <glyph glyph-name="uni049A" unicode="&#x49a;" horiz-adv-x="616" 
d="M604 -147h-114v147h-73l-217 324v-324h-130v675h130v-306l218 306h159l-247 -325l187 -238h87v-259z" />
    <glyph glyph-name="uni049B" unicode="&#x49b;" horiz-adv-x="530" 
d="M518 -138h-111v138h-58l-152 240v-240h-128v497h128v-213l150 213h154l-178 -231l122 -166h73v-238z" />
    <glyph glyph-name="uni049C" unicode="&#x49c;" horiz-adv-x="729" 
d="M720 0h-163l-176 297h-22v-123h-103v123h-56v-297h-130v675h130v-272h56v119h103v-119h22l177 272h152l-221 -322z" />
    <glyph glyph-name="uni049D" unicode="&#x49d;" horiz-adv-x="670" 
d="M370 206h-36v-105h-94v105h-43v-206h-128v497h128v-188h43v101h94v-101h36l122 188h148l-162 -229l178 -268h-157z" />
    <glyph glyph-name="uni04A0" unicode="&#x4a0;" horiz-adv-x="695" 
d="M515 0l-217 324v-324h-130v565h-153v110h283v-306l219 306h157l-247 -324l259 -351h-171z" />
    <glyph glyph-name="uni04A1" unicode="&#x4a1;" horiz-adv-x="588" 
d="M388 268l182 -268h-158l-150 238v-238h-128v397h-128v100h256v-215l149 215h153z" />
    <glyph glyph-name="uni04A2" unicode="&#x4a2;" horiz-adv-x="712" 
d="M691 112v-259h-114v147h-99v293h-278v-293h-130v675h130v-270h278v270h130v-563h83z" />
    <glyph glyph-name="uni04A3" unicode="&#x4a3;" horiz-adv-x="592" 
d="M572 100v-238h-110v138h-85v201h-180v-201h-127v497h127v-189h180v189h127v-397h68z" />
    <glyph glyph-name="uni04AA" unicode="&#x4aa;" horiz-adv-x="566" 
d="M387 -147h-114v145q-63 11 -108.5 40t-73 71.5t-40.5 95.5t-13 114q0 80 21.5 146t63.5 114.5t105 75t144 26.5q35 0 70 -4.5t69 -13.5v-130q-37 15 -74 23.5t-73 8.5q-47 0 -82 -17t-57.5 -48.5t-33 -74t-10.5 -94.5q0 -108 47 -165t142 -57q34 0 73 6.5t73 17.5v-118
q-33 -9 -64.5 -14.5t-64.5 -6.5v-141z" />
    <glyph glyph-name="uni04AB" unicode="&#x4ab;" horiz-adv-x="418" 
d="M384 7q-25 -6 -44 -9.5t-38 -4.5v-131h-111v137q-36 8 -65 26t-49.5 46.5t-31.5 69t-11 93.5q0 129 66 200.5t185 71.5q24 0 48.5 -3t46.5 -9v-117q-25 10 -48.5 15.5t-46.5 5.5q-58 0 -87.5 -40t-29.5 -113q0 -33 6.5 -59t20 -45t36.5 -29.5t55 -10.5q23 0 45.5 3.5
t52.5 10.5v-108z" />
    <glyph glyph-name="uni04AE" unicode="&#x4ae;" horiz-adv-x="561" 
d="M345 249v-249h-130v248l-217 427h143l94 -190q14 -29 25 -55t21 -52h2q10 25 22.5 53t29.5 63l90 181h138z" />
    <glyph glyph-name="uni04AF" unicode="&#x4af;" horiz-adv-x="507" 
d="M313 0v-241h-127v241l-181 497h142l71 -206q9 -28 18.5 -61t16.5 -65h2q7 31 16.5 64.5t19.5 64.5l72 203h138z" />
    <glyph glyph-name="uni04B0" unicode="&#x4b0;" horiz-adv-x="567" 
d="M346 250h159v-106h-159v-144h-130v144h-158v106h158l-207 425h142l85 -186q14 -28 25.5 -55.5t21.5 -56.5h1q11 28 24.5 59t29.5 66l82 173h137z" />
    <glyph glyph-name="uni04B1" unicode="&#x4b1;" horiz-adv-x="511" 
d="M455 99v-99h-140v-241h-127v241h-140v99h123l-166 398h145l70 -181q24 -65 37 -119h2q6 28 17 61.5t22 60.5l71 178h137l-173 -398h122z" />
    <glyph glyph-name="uni04B2" unicode="&#x4b2;" horiz-adv-x="645" 
d="M633 112v-259h-114v147h-65l-145 248l-145 -248h-154l215 345l-202 330h151l137 -234l136 234h148l-199 -329l151 -234h86z" />
    <glyph glyph-name="uni04B3" unicode="&#x4b3;" horiz-adv-x="547" 
d="M356 0l-96 167l-96 -167h-153l171 251l-161 246h153l96 -164l97 164h142l-156 -245l104 -152h77v-238h-110v138h-68z" />
    <glyph glyph-name="uni04B6" unicode="&#x4b6;" horiz-adv-x="656" 
d="M636 -147h-114v147h-100v261q-32 -9 -68 -14t-72 -5q-71 0 -118.5 16.5t-74 46.5t-37.5 70t-11 91v209h131v-189q0 -35 6 -60t21 -42t40.5 -25.5t63.5 -8.5q31 0 60.5 5t58.5 14v306h130v-563h84v-259z" />
    <glyph glyph-name="uni04B7" unicode="&#x4b7;" horiz-adv-x="551" 
d="M421 -138v138h-85v183q-25 -11 -55.5 -17t-64.5 -6q-50 0 -85 12.5t-55.5 34t-29.5 49.5t-9 62v179h128v-154q0 -23 4.5 -39t13.5 -27t23 -16t34 -5q24 0 48.5 5.5t47.5 17.5v218h128v-397h68v-238h-111z" />
    <glyph glyph-name="uni04B8" unicode="&#x4b8;" horiz-adv-x="649" 
d="M449 0v262q-21 -7 -42 -11.5t-46 -6.5v-110h-100v110q-63 3 -106 20.5t-68 46.5t-35.5 67.5t-10.5 87.5v209h131v-192q0 -27 4.5 -48t14.5 -37t27.5 -26t42.5 -14v124h100v-130q24 2 45.5 6t42.5 11v306h130v-675h-130z" />
    <glyph glyph-name="uni04B9" unicode="&#x4b9;" horiz-adv-x="592" 
d="M396 0v185q-35 -16 -69 -19v-95h-93v89q-54 1 -92.5 14t-61.5 35.5t-33 52t-10 67.5v168h128v-149q0 -20 3.5 -35.5t11.5 -26.5t21.5 -17.5t32.5 -8.5v107h94v-107q16 1 32 6t36 14v217h127v-497h-127z" />
    <glyph glyph-name="uni04BA" unicode="&#x4ba;" horiz-adv-x="640" 
d="M451 0v199q0 35 -6 60.5t-21 42.5t-40.5 25.5t-63.5 8.5q-16 0 -31.5 -1.5t-30.5 -4t-29.5 -6t-28.5 -8.5v-316h-130v675h130v-251q34 9 69.5 14.5t71.5 5.5q71 0 118 -17t73.5 -47t37.5 -70t11 -91v-219h-130z" />
    <glyph glyph-name="uni04BB" unicode="&#x4bb;" horiz-adv-x="571" 
d="M374 0v318q0 41 -14 61.5t-48 20.5q-24 0 -45 -12.5t-36.5 -35t-24.5 -52t-9 -61.5v-239h-128v730h128v-214q0 -26 -2 -53t-7 -48h2q22 43 64.5 67.5t98.5 24.5q41 0 69.5 -12t46 -33.5t25 -50t7.5 -62.5v-349h-127z" />
    <glyph glyph-name="uni04C1" unicode="&#x4c1;" horiz-adv-x="854" 
d="M361 675h131v-306l194 306h151l-220 -324l234 -351h-166l-193 324v-324h-131v324l-194 -324h-162l231 345l-223 330h155l193 -306v306zM613 858q0 -65 -48 -102.5t-139 -37.5t-137.5 36.5t-46.5 103.5h114q0 -68 73 -68q69 0 69 68h115z" />
    <glyph glyph-name="uni04C2" unicode="&#x4c2;" horiz-adv-x="753" 
d="M313 497h127v-213l143 213h146l-167 -229l177 -268h-158l-141 239v-239h-127v239l-142 -239h-157l177 266l-167 231h148l141 -213v213zM565 716q0 -69 -47.5 -108.5t-139.5 -39.5q-91 0 -137.5 38.5t-46.5 109.5h113q0 -75 74 -75q70 0 70 75h114z" />
    <glyph glyph-name="uni04D8" unicode="&#x4d8;" horiz-adv-x="605" 
d="M428 395q-4 43 -17.5 75.5t-36.5 54.5t-56 33t-76 11t-85.5 -10.5t-85.5 -28.5v119q42 17 90 26.5t98 9.5q72 0 129.5 -20.5t98.5 -62t63 -106.5t22 -153q0 -82 -20 -148t-58.5 -112t-93 -70t-121.5 -24q-64 0 -112 21t-79 59.5t-46 92.5t-15 121q0 26 2.5 57t6.5 55h392
zM168 287v-13q0 -44 8.5 -76t24.5 -52t38.5 -29.5t50.5 -9.5q32 0 57.5 13t43.5 37t27.5 57t10.5 73h-261z" />
    <glyph glyph-name="uni04D9" unicode="&#x4d9;" horiz-adv-x="509" 
d="M72 483q36 12 77 18.5t80 6.5q118 0 182.5 -61.5t64.5 -193.5q0 -58 -15.5 -106.5t-45 -83t-73 -54t-100.5 -19.5q-54 0 -93.5 17.5t-65 48.5t-37.5 74t-12 94q0 17 1.5 35t3.5 36h306q-4 55 -37.5 85t-98.5 30q-74 0 -137 -28v101zM160 210v-13q0 -58 24 -84.5t64 -26.5
q47 0 72 35t26 89h-186z" />
    <glyph glyph-name="uni04E2" unicode="&#x4e2;" horiz-adv-x="682" 
d="M482 0v350q0 34 2 70.5t5 71.5h-1q-14 -28 -24 -47.5t-20 -37.5l-236 -407h-138v675h130v-354q0 -31 -1.5 -66t-4.5 -67h1q9 20 19.5 40t22.5 42l235 405h140v-675h-130zM194 741v81h293v-81h-293z" />
    <glyph glyph-name="uni04E3" unicode="&#x4e3;" horiz-adv-x="585" 
d="M387 0v195q0 38 3 69.5t8 76.5h-2q-9 -22 -21 -46t-26 -46l-145 -249h-134v497h127v-196q0 -39 -2 -67t-7 -74h1q10 22 23 45.5t26 45.5l144 246h133v-497h-128zM158 600v92h270v-92h-270z" />
    <glyph glyph-name="uni04E8" unicode="&#x4e8;" horiz-adv-x="713" 
d="M677 347q0 -85 -26 -152.5t-71.5 -113t-105.5 -69t-128 -23.5q-76 0 -134 23t-97 67t-59 107t-20 142q0 85 26 152.5t71.5 113t105.5 69t128 23.5q75 0 133 -22.5t97.5 -66t59.5 -107t20 -143.5zM537 396q-11 85 -57.5 130.5t-123.5 45.5q-34 0 -64.5 -11t-54.5 -33.5
t-39.5 -55.5t-21.5 -76h361zM174 295q4 -44 17 -79.5t36 -60.5t55.5 -38.5t73.5 -13.5q34 0 65 11.5t56 35.5t41 60.5t20 84.5h-364z" />
    <glyph glyph-name="uni04E9" unicode="&#x4e9;" horiz-adv-x="553" 
d="M520 260q0 -58 -17 -107t-49.5 -86t-80 -57t-106.5 -20q-54 0 -97 15t-73.5 45.5t-47 77t-16.5 109.5q0 58 17 107t49.5 86t80 57t106.5 20q54 0 97 -15t73.5 -45.5t47 -77t16.5 -109.5zM390 294q-2 27 -10.5 49t-23 37.5t-34.5 23.5t-45 8q-49 0 -78.5 -31.5
t-35.5 -86.5h227zM163 210q4 -60 33.5 -92t79.5 -32q49 0 79.5 32t34.5 92h-227z" />
    <glyph glyph-name="uni04EE" unicode="&#x4ee;" horiz-adv-x="562" 
d="M362 175q-21 -53 -45 -89.5t-50 -57.5t-55.5 -30t-63.5 -9q-16 0 -35.5 3t-37.5 8v116q40 -14 73 -14q15 0 26.5 3t22 11t20 22.5t19.5 36.5l-222 500h144l99 -236q12 -27 22 -55.5t18 -54.5l3 -6q6 16 21 61t22 65l81 226h136zM143 741v81h293v-81h-293z" />
    <glyph glyph-name="uni04EF" unicode="&#x4ef;" horiz-adv-x="502" 
d="M313 -18q-23 -62 -48 -118.5t-51 -104.5h-140q34 57 60.5 111t44.5 106l9 24l-183 497h144l67 -195q11 -35 21 -70t20 -73h1q9 37 20.5 77t24.5 82l58 179h137zM116 600v92h270v-92h-270z" />
    <glyph glyph-name="uni1E02" unicode="&#x1e02;" horiz-adv-x="581" 
d="M403 201q0 47 -34 71.5t-108 24.5h-35t-26 -1v-191q11 -1 32.5 -2t40.5 -1q64 0 97 27t33 72zM383 488q0 41 -27 64.5t-88 23.5q-16 0 -32.5 -0.5t-35.5 -1.5v-179q11 -1 23 -1h35q62 0 93.5 24.5t31.5 69.5zM543 207q0 -40 -16 -77t-49.5 -67t-86 -47.5t-122.5 -17.5
q-18 0 -85 1t-114 1v674q27 1 85.5 3t121.5 2q121 0 182 -44t61 -128q0 -49 -26 -89t-72 -58v-1q28 -7 50 -21t38 -33.5t24.5 -44t8.5 -53.5zM351 794q0 -32 -22.5 -54.5t-53.5 -22.5q-32 0 -54.5 22.5t-22.5 54.5q0 31 22.5 53.5t54.5 22.5t54 -22t22 -54z" />
    <glyph glyph-name="uni1E03" unicode="&#x1e03;" horiz-adv-x="559" 
d="M389 261q0 140 -85 140q-24 0 -44 -13t-34 -35.5t-21.5 -51.5t-7.5 -60v-139q29 -10 67 -10q28 0 50.5 9.5t39.5 29.5t26 52.5t9 77.5zM523 274q0 -63 -18 -115.5t-53 -90t-85 -58t-113 -20.5q-47 0 -98.5 7t-86.5 17v716h128v-214q0 -23 -2 -50.5t-6 -46.5h1
q19 41 59 64.5t91 23.5q89 0 136 -61t47 -172zM210 861q0 -32 -22.5 -54.5t-53.5 -22.5q-32 0 -54.5 22.5t-22.5 54.5q0 31 22.5 53.5t54.5 22.5t54 -22t22 -54z" />
    <glyph glyph-name="uni1E0A" unicode="&#x1e0a;" horiz-adv-x="667" 
d="M490 339q0 56 -11.5 98.5t-36.5 72t-65.5 45t-97.5 15.5q-23 0 -43 -1t-36 -2v-455q14 -2 33 -3.5t38 -1.5q48 0 88 14t69.5 42.5t45.5 72.5t16 103zM630 349q0 -85 -26.5 -151.5t-76 -111t-118 -67.5t-151.5 -23q-44 0 -98.5 2t-89.5 3v673q58 2 110.5 3.5t107.5 1.5
q80 0 143 -18.5t107.5 -58.5t68 -103t23.5 -150zM371 794q0 -32 -22.5 -54.5t-53.5 -22.5q-32 0 -54.5 22.5t-22.5 54.5q0 31 22.5 53.5t54.5 22.5t54 -22t22 -54z" />
    <glyph glyph-name="uni1E0B" unicode="&#x1e0b;" horiz-adv-x="559" 
d="M362 397q-18 4 -34.5 6t-32.5 2q-58 0 -91.5 -40.5t-33.5 -128.5q0 -141 85 -141q24 0 44 13t34 36t21.5 52.5t7.5 61.5v139zM370 0q0 19 1.5 41t4.5 42h-2q-21 -43 -62 -68.5t-95 -25.5q-89 0 -135 62t-46 171q0 63 18 115t52 90t83 58.5t110 20.5q17 0 32 -1t31 -3v228
h127v-730h-119zM501 861q0 -32 -22.5 -54.5t-53.5 -22.5q-32 0 -54.5 22.5t-22.5 54.5q0 31 22.5 53.5t54.5 22.5t54 -22t22 -54z" />
    <glyph glyph-name="uni1E1E" unicode="&#x1e1e;" horiz-adv-x="500" 
d="M200 564v-176h253v-106h-253v-282h-130v675h399v-111h-269zM348 794q0 -32 -22.5 -54.5t-53.5 -22.5q-32 0 -54.5 22.5t-22.5 54.5q0 31 22.5 53.5t54.5 22.5t54 -22t22 -54z" />
    <glyph glyph-name="uni1E1F" unicode="&#x1e1f;" horiz-adv-x="354" 
d="M365 626q-8 2 -27 5t-40 3q-41 0 -58.5 -21.5t-17.5 -73.5v-42h116v-99h-116v-398h-127v398h-87v99h87v36q0 106 49.5 155.5t150.5 49.5q23 0 42.5 -2t27.5 -4v-106zM320 861q0 -32 -22.5 -54.5t-53.5 -22.5q-32 0 -54.5 22.5t-22.5 54.5q0 31 22.5 53.5t54.5 22.5
t54 -22t22 -54z" />
    <glyph glyph-name="uni1E40" unicode="&#x1e40;" horiz-adv-x="896" 
d="M732 0l-41 332q-7 57 -11 115.5t-5 104.5h-2q-9 -45 -21.5 -92t-28.5 -96l-122 -364h-121l-117 350q-15 46 -31 104t-24 98h-2q-1 -44 -4.5 -102t-9.5 -121l-35 -329h-126l81 675h181l118 -350q10 -30 19.5 -66t15.5 -71h2q8 41 16 75.5t17 61.5l118 350h183l83 -675
h-133zM525 794q0 -32 -22.5 -54.5t-53.5 -22.5q-32 0 -54.5 22.5t-22.5 54.5q0 31 22.5 53.5t54.5 22.5t54 -22t22 -54z" />
    <glyph glyph-name="uni1E41" unicode="&#x1e41;" horiz-adv-x="866" 
d="M669 0v314q0 43 -13 64.5t-46 21.5q-21 0 -41.5 -11.5t-37 -33.5t-26 -52t-9.5 -65v-238h-126v315q0 41 -12.5 63t-46.5 22q-22 0 -42.5 -12t-36.5 -34t-25.5 -52t-9.5 -64v-238h-128v497h121q0 -19 -1.5 -44t-4.5 -45l1 -1q23 46 66 73t98 27q32 0 57 -8.5t41 -22.5
t25.5 -31.5t13.5 -36.5q9 19 24 36.5t35.5 31.5t46.5 22.5t56 8.5q75 0 112 -40.5t37 -124.5v-342h-128zM509 653q0 -32 -22 -54t-54 -22t-54.5 22t-22.5 54t22.5 54.5t54.5 22.5t54 -22.5t22 -54.5z" />
    <glyph glyph-name="uni1E56" unicode="&#x1e56;" horiz-adv-x="553" 
d="M530 462q0 -52 -18 -96.5t-54 -78.5t-88 -52.5t-117 -18.5q-12 0 -23.5 0.5t-20.5 1l-9 0.5v-218h-130v675q11 0 38.5 1t70.5 2t85 1q130 0 198 -58t68 -159zM396 448q0 57 -34.5 90.5t-105.5 33.5q-32 0 -56 -1v-243q3 -1 11.5 -2t22 -2t27.5 -1q64 0 99.5 34.5
t35.5 90.5zM347 794q0 -32 -22.5 -54.5t-53.5 -22.5q-32 0 -54.5 22.5t-22.5 54.5q0 31 22.5 53.5t54.5 22.5t54 -22t22 -54z" />
    <glyph glyph-name="uni1E57" unicode="&#x1e57;" horiz-adv-x="559" 
d="M389 261q0 141 -85 141q-24 0 -44 -13t-34 -36t-21.5 -52.5t-7.5 -61.5v-138q30 -9 67 -9q28 0 50.5 9.5t39.5 29.5t26 52.5t9 77.5zM523 275q0 -65 -17 -117t-50 -89t-82 -56.5t-113 -19.5q-19 0 -34 1t-30 3v-238h-128v738h119q0 -21 -1 -43t-4 -40h2q21 44 61 68.5
t95 24.5q88 0 135 -60.5t47 -171.5zM378 653q0 -32 -22 -54t-54 -22t-54.5 22t-22.5 54t22.5 54.5t54.5 22.5t54 -22.5t22 -54.5z" />
    <glyph glyph-name="uni1E60" unicode="&#x1e60;" horiz-adv-x="504" 
d="M469 198q0 -45 -17 -83.5t-50 -66.5t-81 -43.5t-109 -15.5q-87 0 -157 19v124q34 -13 78.5 -21.5t83.5 -8.5q25 0 46 5t36 15t23 26t8 38q0 30 -19.5 50t-58 37.5t-74.5 33t-66.5 37.5t-50.5 57t-20 87q0 44 17 80.5t50 62.5t81 40.5t107 14.5q27 0 58 -3.5t59 -8.5v-115
q-29 9 -62.5 14t-62.5 5q-55 0 -83.5 -20.5t-28.5 -57.5q0 -28 19.5 -47t57.5 -36t75.5 -33.5t69 -39t51.5 -58.5t20 -88zM328 800q0 -32 -22.5 -54.5t-53.5 -22.5q-32 0 -54.5 22.5t-22.5 54.5q0 31 22.5 53.5t54.5 22.5t54 -22t22 -54z" />
    <glyph glyph-name="uni1E61" unicode="&#x1e61;" horiz-adv-x="417" 
d="M378 151q0 -34 -13 -63.5t-40 -51.5t-67 -34t-93 -12q-30 0 -58 3t-55 9v107q27 -9 57.5 -14.5t60.5 -5.5q37 0 56 13t19 37q0 20 -13.5 32.5t-38.5 23t-52.5 22t-49.5 27t-36 42.5t-14 66q0 33 12.5 61t38.5 49.5t65.5 33.5t90.5 12q21 0 44 -2t47 -6v-102
q-20 6 -46 9.5t-49 3.5q-35 0 -53.5 -12.5t-18.5 -34.5q0 -19 13.5 -31.5t38.5 -22.5t53.5 -22t50.5 -28t36 -43t14 -66zM284 653q0 -32 -22 -54t-54 -22t-54.5 22t-22.5 54t22.5 54.5t54.5 22.5t54 -22.5t22 -54.5z" />
    <glyph glyph-name="uni1E6A" unicode="&#x1e6a;" horiz-adv-x="510" 
d="M320 564v-564h-130v564h-175v111h480v-111h-175zM331 794q0 -32 -22.5 -54.5t-53.5 -22.5q-32 0 -54.5 22.5t-22.5 54.5q0 31 22.5 53.5t54.5 22.5t54 -22t22 -54z" />
    <glyph glyph-name="uni1E6B" unicode="&#x1e6b;" horiz-adv-x="375" 
d="M340 3q-26 -6 -51.5 -9.5t-48.5 -3.5q-43 0 -71 8.5t-44.5 26.5t-24 48t-7.5 76v249h-85v99h85v153l128 34v-187h119v-99h-119v-225q0 -44 12 -60t43 -16q26 0 64 8v-102zM233 794q0 -32 -22.5 -54.5t-53.5 -22.5q-32 0 -54.5 22.5t-22.5 54.5q0 31 22.5 53.5t54.5 22.5
t54 -22t22 -54z" />
    <glyph glyph-name="Wgrave" unicode="&#x1e80;" horiz-adv-x="958" 
d="M765 0h-161l-103 369q-7 26 -12.5 59t-9.5 64h-2q-12 -88 -21 -123l-101 -369h-162l-169 675h139l90 -369q9 -46 16.5 -87t12.5 -81h2q6 41 13.5 82.5t18.5 83.5l102 371h130l105 -375q11 -39 20 -81t15 -81h2q6 46 12 85t14 75l89 377h128zM548 716l-216 53l30 92
l207 -75z" />
    <glyph glyph-name="wgrave" unicode="&#x1e81;" horiz-adv-x="796" 
d="M632 0h-143l-71 226q-8 30 -15 59.5t-12 56.5h-1q-6 -29 -13.5 -59t-18.5 -72l-62 -211h-137l-149 497h141l56 -207l14.5 -58t19.5 -84h1q7 35 15.5 72.5t17.5 70.5l62 206h127l63 -206q12 -43 20.5 -77t14.5 -67h2q5 32 13 64.5t20 78.5l58 207h130zM420 558l-163 129
l70 76l150 -144z" />
    <glyph glyph-name="Wacute" unicode="&#x1e82;" horiz-adv-x="958" 
d="M765 0h-161l-103 369q-7 26 -12.5 59t-9.5 64h-2q-12 -88 -21 -123l-101 -369h-162l-169 675h139l90 -369q9 -46 16.5 -87t12.5 -81h2q6 41 13.5 82.5t18.5 83.5l102 371h130l105 -375q11 -39 20 -81t15 -81h2q6 46 12 85t14 75l89 377h128zM418 716l-21 70l208 75
l29 -92z" />
    <glyph glyph-name="wacute" unicode="&#x1e83;" horiz-adv-x="796" 
d="M632 0h-143l-71 226q-8 30 -15 59.5t-12 56.5h-1q-6 -29 -13.5 -59t-18.5 -72l-62 -211h-137l-149 497h141l56 -207l14.5 -58t19.5 -84h1q7 35 15.5 72.5t17.5 70.5l62 206h127l63 -206q12 -43 20.5 -77t14.5 -67h2q5 32 13 64.5t20 78.5l58 207h130zM379 558l-57 61
l150 144l70 -75z" />
    <glyph glyph-name="Wdieresis" unicode="&#x1e84;" horiz-adv-x="958" 
d="M765 0h-161l-103 369q-7 26 -12.5 59t-9.5 64h-2q-12 -88 -21 -123l-101 -369h-162l-169 675h139l90 -369q9 -46 16.5 -87t12.5 -81h2q6 41 13.5 82.5t18.5 83.5l102 371h130l105 -375q11 -39 20 -81t15 -81h2q6 46 12 85t14 75l89 377h128zM662 788q0 -29 -20 -49
t-49 -20t-49 20t-20 49t20 49t49 20t49 -20t20 -49zM446 788q0 -29 -20 -49t-49 -20t-49 20t-20 49t20 49t49 20t49 -20t20 -49z" />
    <glyph glyph-name="wdieresis" unicode="&#x1e85;" horiz-adv-x="796" 
d="M632 0h-143l-71 226q-8 30 -15 59.5t-12 56.5h-1q-6 -29 -13.5 -59t-18.5 -72l-62 -211h-137l-149 497h141l56 -207l14.5 -58t19.5 -84h1q7 35 15.5 72.5t17.5 70.5l62 206h127l63 -206q12 -43 20.5 -77t14.5 -67h2q5 32 13 64.5t20 78.5l58 207h130zM367 648
q0 -29 -20 -49t-49 -20t-49 20t-20 49t20 49t49 20t49 -20t20 -49zM570 648q0 -29 -20 -49t-49 -20t-49 20t-20 49t20 49t49 20t49 -20t20 -49z" />
    <glyph glyph-name="uni1E9E" unicode="&#x1e9e;" horiz-adv-x="693" 
d="M465 393q91 -9 141 -58.5t50 -129.5q0 -43 -16.5 -82t-48.5 -69.5t-79 -47.5t-107 -17q-25 0 -55 3.5t-61 9.5v119q28 -10 58.5 -15.5t59.5 -5.5q50 0 80 25.5t30 66.5q0 46 -36 72t-112 26h-53v89l147 189q-25 4 -53.5 6t-55.5 2q-79 0 -116.5 -37.5t-37.5 -112.5v-426
h-130v422q0 265 292 265q57 0 122.5 -6t124.5 -17v-90z" />
    <glyph glyph-name="Ygrave" unicode="&#x1ef2;" horiz-adv-x="561" 
d="M345 249v-249h-130v248l-217 427h143l94 -190q14 -29 25 -55t21 -52h2q10 25 22.5 53t29.5 63l90 181h138zM278 716l-216 53l30 92l207 -75z" />
    <glyph glyph-name="ygrave" unicode="&#x1ef3;" horiz-adv-x="502" 
d="M313 -18q-23 -62 -48 -118.5t-51 -104.5h-140q34 57 60.5 111t44.5 106l9 24l-183 497h144l67 -195q11 -35 21 -70t20 -73h1q9 37 20.5 77t24.5 82l58 179h137zM236 558l-163 129l70 76l150 -144z" />
    <glyph glyph-name="endash" unicode="&#x2013;" 
d="M0 242v112h550v-112h-550z" />
    <glyph glyph-name="emdash" unicode="&#x2014;" horiz-adv-x="1000" 
d="M111 242v112h778v-112h-778z" />
    <glyph glyph-name="uni2015" unicode="&#x2015;" horiz-adv-x="1000" 
d="M111 242v112h778v-112h-778z" />
    <glyph glyph-name="quoteleft" unicode="&#x2018;" horiz-adv-x="267" 
d="M230 709q-51 -55 -57.5 -90.5t16.5 -63.5q14 -17 16.5 -37.5t-5.5 -39.5t-26 -31.5t-44 -12.5q-35 0 -58.5 27.5t-23 72.5t30 103t99.5 119l52 -47v0z" />
    <glyph glyph-name="quoteright" unicode="&#x2019;" horiz-adv-x="267" 
d="M136 747q35 0 58 -27.5t23 -72.5t-29.5 -103t-99.5 -119l-52 47q51 55 57.5 90.5t-17.5 63.5q-14 16 -16 37t6 40t26 31.5t44 12.5z" />
    <glyph glyph-name="quotesinglbase" unicode="&#x201a;" horiz-adv-x="267" 
d="M136 149q35 0 58 -27.5t23 -72.5t-29.5 -103t-99.5 -119l-52 47q51 55 57.5 90.5t-17.5 63.5q-14 17 -16 37.5t6 39.5t26 31.5t44 12.5z" />
    <glyph glyph-name="quotedblleft" unicode="&#x201c;" horiz-adv-x="485" 
d="M230 709q-51 -55 -57.5 -90.5t16.5 -63.5q14 -17 16.5 -37.5t-5.5 -39.5t-26 -31.5t-44 -12.5q-35 0 -58.5 27.5t-23 72.5t30 103t99.5 119l52 -47v0zM449 709q-51 -55 -57.5 -90.5t16.5 -63.5q14 -17 16 -37.5t-6 -39.5t-25.5 -31.5t-43.5 -12.5q-36 0 -59 27.5
t-23 72.5t29.5 103t99.5 119l53 -47v0z" />
    <glyph glyph-name="quotedblright" unicode="&#x201d;" horiz-adv-x="485" 
d="M136 747q35 0 58 -27.5t23 -72.5t-29.5 -103t-99.5 -119l-52 47q51 55 57.5 90.5t-17.5 63.5q-14 16 -16 37t6 40t26 31.5t44 12.5zM354 747q36 0 59 -27.5t23 -72.5t-29.5 -103t-99.5 -119l-53 47q51 55 57.5 90.5t-16.5 63.5q-14 16 -16 37t6 40t25.5 31.5t43.5 12.5z
" />
    <glyph glyph-name="quotedblbase" unicode="&#x201e;" horiz-adv-x="485" 
d="M136 149q35 0 58 -27.5t23 -72.5t-29.5 -103t-99.5 -119l-52 47q51 55 57.5 90.5t-17.5 63.5q-14 17 -16 37.5t6 39.5t26 31.5t44 12.5zM354 149q36 0 59 -27.5t23 -72.5t-29.5 -103t-99.5 -119l-53 47q51 55 57.5 90.5t-16.5 63.5q-14 16 -16 37t6 40t25.5 31.5
t43.5 12.5z" />
    <glyph glyph-name="dagger" unicode="&#x2020;" horiz-adv-x="457" 
d="M281 533l21 -88l-23 -255h-100l-24 255l21 88h-134v99h134l-21 136h147l-21 -136h135v-99h-135z" />
    <glyph glyph-name="daggerdbl" unicode="&#x2021;" horiz-adv-x="457" 
d="M282 287l21 -122h-149l21 122h-133v98h133l-20 81l20 82h-133v98h133l-20 122h147l-20 -122h134v-98h-134l20 -82l-20 -81h134v-98h-134z" />
    <glyph glyph-name="bullet" unicode="&#x2022;" horiz-adv-x="423" 
d="M360 297q0 -30 -11.5 -57t-32 -47.5t-48 -32t-57.5 -11.5t-57 11.5t-47.5 32t-32 47.5t-11.5 57t11.5 57t32 47.5t47.5 32t57 11.5t57.5 -11.5t48 -32t32 -47.5t11.5 -57z" />
    <glyph glyph-name="perthousand" unicode="&#x2030;" horiz-adv-x="1052" 
d="M329 536q0 -39 -12 -69.5t-32.5 -51.5t-47.5 -32t-57 -11q-64 0 -102 38.5t-38 113.5q0 38 12 68t32.5 51t47.5 32t57 11t55.5 -8.5t44 -26.5t29.5 -46.5t11 -68.5zM237 530q0 42 -12.5 59t-38.5 17q-23 0 -38 -20t-15 -57q0 -42 13.5 -59.5t37.5 -17.5q23 0 38 20t15 58
zM136 -20l-76 59l519 655l76 -59zM677 153q0 -39 -12 -69.5t-32.5 -51.5t-47.5 -32t-57 -11q-64 0 -102 38.5t-38 113.5q0 38 12 68t32.5 51t47 32t56.5 11t56 -8.5t44.5 -26.5t29.5 -46.5t11 -68.5zM584 147q0 42 -12.5 59t-37.5 17q-23 0 -38 -20t-15 -57q0 -43 13.5 -60
t37.5 -17q23 0 37.5 20t14.5 58zM1005 153q0 -39 -12 -69.5t-32.5 -51.5t-47.5 -32t-57 -11q-64 0 -102 38.5t-38 113.5q0 38 12 68t32.5 51t47 32t56.5 11t55.5 -8.5t44.5 -26.5t30 -46.5t11 -68.5zM912 147q0 42 -12.5 59t-37.5 17q-23 0 -38 -20t-15 -57q0 -43 13.5 -60
t37.5 -17q23 0 37.5 20t14.5 58z" />
    <glyph glyph-name="guilsinglleft" unicode="&#x2039;" horiz-adv-x="312" 
d="M154 100l-113 192l115 195l97 -47l-89 -147l91 -145z" />
    <glyph glyph-name="guilsinglright" unicode="&#x203a;" horiz-adv-x="312" 
d="M156 100l-97 47l90 147l-91 145l101 48l113 -192z" />
    <glyph glyph-name="fraction" unicode="&#x2044;" horiz-adv-x="163" 
d="M-206 -139l-79 55l645 895l78 -55z" />
    <glyph glyph-name="fraction" unicode="&#x2215;" horiz-adv-x="163" 
d="M-206 -139l-79 55l645 895l78 -55z" />
    <glyph glyph-name="zero.superior" unicode="&#x2070;" horiz-adv-x="480" 
d="M442 575q0 -111 -54.5 -173.5t-154.5 -62.5t-148 57t-48 169q0 111 55 173.5t155 62.5t147.5 -57t47.5 -169zM320 567q0 34 -4 60.5t-13.5 46t-25 30t-37.5 10.5q-43 0 -61.5 -36.5t-18.5 -104.5q0 -34 4 -60.5t13 -46t24.5 -30t38.5 -10.5q43 0 61.5 36.5t18.5 104.5z
" />
    <glyph glyph-name="four.superior" unicode="&#x2074;" horiz-adv-x="429" 
d="M346 440v-93h-117v93h-203l-7 80l154 272h173v-260h59v-92h-59zM229 720l-107 -191q10 1 24.5 1.5t30 0.5h27.5h25v189z" />
    <glyph glyph-name="five.superior" unicode="&#x2075;" horiz-adv-x="376" 
d="M46 434q41 -13 90 -13q43 0 64.5 16.5t21.5 44.5q0 29 -24 45t-82 16q-31 0 -61 -3v252h257v-93h-146v-77h11q80 0 123.5 -34t43.5 -94q0 -37 -14 -66t-40.5 -48.5t-64 -30t-84.5 -10.5q-54 0 -95 9v86z" />
    <glyph glyph-name="six.superior" unicode="&#x2076;" horiz-adv-x="441" 
d="M406 501q0 -39 -14.5 -69.5t-40 -51t-59 -31t-71.5 -10.5q-84 0 -132.5 48t-48.5 156q0 54 13.5 101.5t44.5 83t78 54.5t116 19q13 0 34.5 -1.5t36.5 -3.5v-84q-25 4 -46 5.5t-30 1.5q-33 0 -55 -7t-40 -23q-20 -20 -27 -47t-10 -38q16 14 38.5 22t54.5 9q72 0 115 -35.5
t43 -98.5zM290 487q0 34 -18.5 52.5t-47.5 18.5t-48 -18.5t-19 -49.5q0 -34 18.5 -53.5t50.5 -19.5q30 0 47 19t17 51z" />
    <glyph glyph-name="seven.superior" unicode="&#x2077;" horiz-adv-x="367" 
d="M340 711q-18 -37 -36 -81.5t-34.5 -93t-30 -97t-22.5 -92.5h-133q11 45 27 95t35 97.5t37.5 89t34.5 70.5q-8 -1 -25.5 -1.5t-43 -0.5h-52.5h-71v95h314v-81z" />
    <glyph glyph-name="eight.superior" unicode="&#x2078;" horiz-adv-x="442" 
d="M407 471q0 -61 -50.5 -97t-141.5 -36q-86 0 -133 29.5t-47 88.5q0 38 21 64.5t58 46.5q-33 17 -51.5 42.5t-18.5 64.5q0 58 48 93t135 35q82 0 126.5 -28.5t44.5 -85.5q0 -34 -18.5 -58.5t-52.5 -44.5q37 -19 58.5 -45.5t21.5 -68.5zM284 683q0 21 -16.5 33t-46.5 12
q-31 0 -47 -12.5t-16 -32.5q0 -37 70 -62q27 14 41.5 28.5t14.5 33.5zM291 462q-2 47 -78 68q-30 -15 -46 -31t-16 -37q0 -24 18 -36.5t52 -12.5t52 13t18 36z" />
    <glyph glyph-name="nine.superior" unicode="&#x2079;" horiz-adv-x="441" 
d="M401 597q0 -61 -15.5 -109t-47 -81.5t-79 -50.5t-110.5 -17q-22 0 -44 1.5t-39 4.5v86q20 -5 44 -8t44 -3q33 0 56.5 8t38.5 23q18 18 25.5 44.5t10.5 40.5q-16 -14 -40.5 -22.5t-51.5 -8.5q-72 0 -115 35t-43 98q0 39 14.5 69.5t40.5 51.5t59.5 31.5t70.5 10.5
q42 0 76 -12.5t55 -33.5q24 -24 37 -62.5t13 -95.5zM284 650q0 33 -19 52.5t-50 19.5q-29 0 -46.5 -19t-17.5 -51t17.5 -51t47.5 -19q31 0 49.5 19t18.5 49z" />
    <glyph glyph-name="uni207A" unicode="&#x207a;" horiz-adv-x="450" 
d="M272 508v-125h-94v125h-128v81h128v125h94v-125h128v-81h-128z" />
    <glyph glyph-name="uni207B" unicode="&#x207b;" horiz-adv-x="450" 
d="M50 508v81h350v-81h-350z" />
    <glyph glyph-name="uni207C" unicode="&#x207c;" horiz-adv-x="450" 
d="M50 422v80h350v-80h-350zM50 594v81h350v-81h-350z" />
    <glyph glyph-name="parenleft.superior" unicode="&#x207d;" horiz-adv-x="299" 
d="M158 188q-48 85 -72 177t-24 193q0 198 98 373l99 -27q-83 -155 -83 -343q0 -95 21 -182t63 -165z" />
    <glyph glyph-name="parenright.superior" unicode="&#x207e;" horiz-adv-x="299" 
d="M39 214q42 76 63 162.5t21 181.5q0 96 -21.5 182t-62.5 164l101 27q48 -85 72.5 -176t24.5 -194q0 -100 -25.5 -194t-73.5 -179z" />
    <glyph glyph-name="zero.inferior" unicode="&#x2080;" horiz-adv-x="480" 
d="M442 108q0 -111 -54.5 -173.5t-154.5 -62.5t-148 57t-48 169q0 111 55 173.5t155 62.5t147.5 -57t47.5 -169zM320 100q0 34 -4 60.5t-13.5 46t-25 30t-37.5 10.5q-43 0 -61.5 -36.5t-18.5 -104.5q0 -34 4 -60.5t13 -46t24.5 -30t38.5 -10.5q43 0 61.5 36.5t18.5 104.5z
" />
    <glyph glyph-name="one.inferior" unicode="&#x2081;" horiz-adv-x="306" 
d="M239 -120h-120v343l-96 -32v94l114 40h102v-445z" />
    <glyph glyph-name="two.inferior" unicode="&#x2082;" horiz-adv-x="386" 
d="M37 -120v93l96 95q40 39 56.5 65.5t16.5 49.5q0 26 -15.5 41.5t-47.5 15.5q-22 0 -44.5 -6t-49.5 -18v93q28 11 61 18t65 7q77 0 117.5 -34t40.5 -97q0 -24 -6 -45.5t-17.5 -41.5t-28 -39.5t-39.5 -41.5l-61 -59q29 2 74.5 3t94.5 1v-100h-313z" />
    <glyph glyph-name="three.inferior" unicode="&#x2083;" horiz-adv-x="377" 
d="M335 20q0 -68 -54.5 -108t-151.5 -40q-23 0 -48 2t-45 6v87q21 -6 45.5 -9.5t44.5 -3.5q44 0 65 16t21 42q0 33 -36 47.5t-115 7.5v78q71 0 105 16t34 46q0 22 -16 34t-48 12q-19 0 -45 -4.5t-49 -12.5v80q24 8 57 13t64 5q75 0 116 -29t41 -84q0 -35 -19 -59t-51 -38
q43 -13 64 -40.5t21 -63.5z" />
    <glyph glyph-name="four.inferior" unicode="&#x2084;" horiz-adv-x="429" 
d="M346 -27v-93h-117v93h-203l-7 80l154 272h173v-260h59v-92h-59zM229 253l-107 -191q10 1 24.5 1.5t30 0.5h27.5h25v189z" />
    <glyph glyph-name="five.inferior" unicode="&#x2085;" horiz-adv-x="376" 
d="M46 -33q41 -13 90 -13q43 0 64.5 16.5t21.5 44.5q0 29 -24 45t-82 16q-31 0 -61 -3v252h257v-93h-146v-77h11q80 0 123.5 -34t43.5 -94q0 -37 -14 -66t-40.5 -48.5t-64 -30t-84.5 -10.5q-54 0 -95 9v86z" />
    <glyph glyph-name="six.inferior" unicode="&#x2086;" horiz-adv-x="441" 
d="M406 34q0 -39 -14.5 -69.5t-40 -51t-59 -31t-71.5 -10.5q-84 0 -132.5 48t-48.5 156q0 54 13.5 101.5t44.5 83t78 54.5t116 19q13 0 34.5 -1.5t36.5 -3.5v-84q-25 4 -46 5.5t-30 1.5q-33 0 -55 -7t-40 -23q-20 -20 -27 -47t-10 -38q16 14 38.5 22t54.5 9q72 0 115 -35.5
t43 -98.5zM290 20q0 34 -18.5 52.5t-47.5 18.5t-48 -18.5t-19 -49.5q0 -34 18.5 -53.5t50.5 -19.5q30 0 47 19t17 51z" />
    <glyph glyph-name="seven.inferior" unicode="&#x2087;" horiz-adv-x="367" 
d="M340 244q-18 -37 -36 -81.5t-34.5 -93t-30 -97t-22.5 -92.5h-133q11 45 27 95t35 97.5t37.5 89t34.5 70.5q-8 -1 -25.5 -1.5t-43 -0.5h-52.5h-71v95h314v-81z" />
    <glyph glyph-name="eight.inferior" unicode="&#x2088;" horiz-adv-x="442" 
d="M407 4q0 -61 -50.5 -97t-141.5 -36q-86 0 -133 29.5t-47 88.5q0 38 21 64.5t58 46.5q-33 17 -51.5 42.5t-18.5 64.5q0 58 48 93t135 35q82 0 126.5 -28.5t44.5 -85.5q0 -34 -18.5 -58.5t-52.5 -44.5q37 -19 58.5 -45.5t21.5 -68.5zM284 216q0 21 -16.5 33t-46.5 12
q-31 0 -47 -12.5t-16 -32.5q0 -37 70 -62q27 14 41.5 28.5t14.5 33.5zM291 -5q-2 47 -78 68q-30 -15 -46 -31t-16 -37q0 -24 18 -36.5t52 -12.5t52 13t18 36z" />
    <glyph glyph-name="nine.inferior" unicode="&#x2089;" horiz-adv-x="441" 
d="M401 130q0 -61 -15.5 -109t-47 -81.5t-79 -50.5t-110.5 -17q-22 0 -44 1.5t-39 4.5v86q20 -5 44 -8t44 -3q33 0 56.5 8t38.5 23q18 18 25.5 44.5t10.5 40.5q-16 -14 -40.5 -22.5t-51.5 -8.5q-72 0 -115 35t-43 98q0 39 14.5 69.5t40.5 51.5t59.5 31.5t70.5 10.5
q42 0 76 -12.5t55 -33.5q24 -24 37 -62.5t13 -95.5zM284 183q0 33 -19 52.5t-50 19.5q-29 0 -46.5 -19t-17.5 -51t17.5 -51t47.5 -19q31 0 49.5 19t18.5 49z" />
    <glyph glyph-name="uni208A" unicode="&#x208a;" horiz-adv-x="450" 
d="M272 41v-125h-94v125h-128v81h128v125h94v-125h128v-81h-128z" />
    <glyph glyph-name="uni208B" unicode="&#x208b;" horiz-adv-x="450" 
d="M50 41v81h350v-81h-350z" />
    <glyph glyph-name="uni208C" unicode="&#x208c;" horiz-adv-x="450" 
d="M50 -45v80h350v-80h-350zM50 127v81h350v-81h-350z" />
    <glyph glyph-name="parenleft.inferior" unicode="&#x208d;" horiz-adv-x="299" 
d="M158 -279q-48 85 -72 177t-24 193q0 198 98 373l99 -27q-83 -155 -83 -343q0 -95 21 -182t63 -165z" />
    <glyph glyph-name="parenright.inferior" unicode="&#x208e;" horiz-adv-x="299" 
d="M39 -253q42 76 63 162.5t21 181.5q0 96 -21.5 182t-62.5 164l101 27q48 -85 72.5 -176t24.5 -194q0 -100 -25.5 -194t-73.5 -179z" />
    <glyph glyph-name="Euro" unicode="&#x20ac;" horiz-adv-x="592" 
d="M548 25q-38 -17 -86 -26.5t-93 -9.5q-121 0 -190.5 58t-89.5 176h-77v79h70v20q0 18 0.5 29.5t1.5 22.5h-72v80h84q13 57 39 100.5t63.5 73t85.5 44t105 14.5q40 0 79 -7t73 -19v-116q-35 17 -75.5 27t-78.5 10q-31 0 -55.5 -8t-43.5 -24t-32 -39.5t-21 -55.5h196v-80
h-207q-1 -8 -1 -16v-20v-36h208v-79h-199q14 -65 50 -96t104 -31q41 0 82 11t80 30v-112z" />
    <glyph glyph-name="uni20B4" unicode="&#x20b4;" 
d="M458 13q-37 -11 -78 -17.5t-82 -6.5q-50 0 -89 11.5t-65.5 32t-39.5 49.5t-13 63q0 19 4.5 38.5t13.5 39.5h-64v79h115q15 18 31 36t34 36h-180v80h247q11 18 17.5 34t6.5 31q0 30 -19.5 46.5t-62.5 16.5q-25 0 -56 -5t-62 -14v103q35 9 70.5 14t72.5 5q48 0 84.5 -11
t61 -31t36.5 -47t12 -59q0 -21 -5.5 -42t-15.5 -41h73v-80h-127q-15 -18 -31 -36t-34 -36h192v-79h-255q-10 -17 -15.5 -32t-5.5 -29q0 -32 23.5 -50t70.5 -18q27 0 62.5 5.5t72.5 16.5v-103z" />
    </font>
</defs>
</svg>
