<?xml version="1.0" standalone="no"?>
<!DOCTYPE svg PUBLIC "-//W3C//DTD SVG 1.1//EN" "http://www.w3.org/Graphics/SVG/1.1/DTD/svg11.dtd" >
<svg xmlns="http://www.w3.org/2000/svg" xmlns:xlink="http://www.w3.org/1999/xlink" version="1.1">
<metadata>
Created by FontForge 20170731 at Sun Nov 15 17:46:39 2015
 By Aleksey,,,
VWAG TheSans was created exclusively for Volkswagen AG in cooperation with MetaDesign AG. Copyright 1994-2015 Luc(as) de Groot. All rights reserved.
</metadata>
<defs>
<font id="VWAGTheSans-Italic" horiz-adv-x="550" >
  <font-face 
    font-family="VWAG TheSans"
    font-weight="400"
    font-style="italic"
    font-stretch="normal"
    units-per-em="1000"
    panose-1="2 11 5 2 5 3 2 9 2 3"
    ascent="740"
    descent="-260"
    x-height="497"
    cap-height="675"
    bbox="-443 -320 1305 980"
    underline-thickness="72"
    underline-position="-286"
    slope="-11"
    unicode-range="U+000D-FB04"
  />
<missing-glyph 
d="M450 100v350h-350v-350h350zM250 350v50h150v-250h-50v100h-100v50h100v50h-100zM50 50v450h450v-450h-450zM150 150v250h50v-200h100v-50h-150z" />
    <glyph glyph-name="ellipsis" unicode="&#x2e;&#x2e;&#x2e;" horiz-adv-x="652" 
d="M134 54q0 -27 -18.5 -45t-43.5 -18t-40.5 17t-15.5 40q0 28 18 46t44 18q25 0 40.5 -17.5t15.5 -40.5zM344 54q0 -27 -18 -45t-43 -18t-41 17t-16 40q0 28 18.5 46t43.5 18t40.5 -17.5t15.5 -40.5zM555 54q0 -27 -18.5 -45t-43.5 -18t-40.5 17t-15.5 40q0 28 18.5 46
t43.5 18t40.5 -17.5t15.5 -40.5z" />
    <glyph glyph-name="f_f" unicode="ff" horiz-adv-x="639" 
d="M192 -176q23 -4 41 -4q25 0 44 8t33.5 26t24.5 47.5t18 71.5l87 454h-208l-87 -454q-11 -61 -29.5 -104t-45 -70.5t-62 -40.5t-81.5 -13q-21 0 -47 4l15 75q24 -4 41 -4q25 0 44 8t33.5 26t25 47.5t18.5 71.5l87 454h-101l13 70h101l7 42q18 103 71.5 150t143.5 47
q27 0 54 -3l-14 -75q-25 5 -47 5q-25 0 -44 -6t-34 -20t-25 -38.5t-17 -61.5l-8 -40h209l7 34q20 106 74 155.5t149 49.5q39 0 80 -9l-20 -73q-41 9 -69 9q-52 0 -82.5 -31.5t-44.5 -106.5l-5 -28h134l-13 -70h-135l-86 -454q-23 -121 -74.5 -174.5t-143.5 -53.5
q-17 0 -46 4z" />
    <glyph glyph-name="f_i" unicode="fi" horiz-adv-x="578" 
d="M451 0h-88l81 427h-212l-87 -454q-11 -61 -29.5 -104t-45 -70.5t-62 -40.5t-81.5 -13q-20 0 -47 4l15 75q22 -4 41 -4q25 0 44 8t33.5 26t25 47.5t18.5 71.5l87 454h-101l13 70h101l8 42q20 105 71 151t143 46q15 0 29 -1t25 -2l-14 -75q-25 5 -49 5q-23 0 -41.5 -6
t-33.5 -20t-25.5 -38.5t-17.5 -61.5l-8 -40h301zM590 658q0 -27 -18 -44.5t-43 -17.5t-40.5 16t-15.5 39q0 27 18 44.5t43 17.5t40.5 -16.5t15.5 -38.5z" />
    <glyph glyph-name="f_dotlessi" unicode="f&#x131;" horiz-adv-x="578" 
d="M363 0l81 427h-212l-87 -454q-22 -121 -74 -174.5t-144 -53.5q-14 0 -27.5 1.5t-19.5 2.5l15 75q5 -1 16 -2.5t25 -1.5q26 0 45 8t33 26t24.5 47t18.5 72l87 454h-101l13 70h101l8 42q20 106 71.5 151.5t142.5 45.5q12 0 54 -3l-14 -75q-25 5 -49 5q-49 0 -77 -27.5
t-41 -98.5l-8 -40h301l-94 -497h-88z" />
    <glyph glyph-name="f_f_i" unicode="ffi" horiz-adv-x="873" 
d="M747 0h-88l80 427h-212l-85 -454q-23 -122 -74.5 -175t-143.5 -53q-18 0 -46 4l14 75q23 -4 41 -4q25 0 44 8t33.5 26t24.5 47.5t18 71.5l86 454h-207l-87 -454q-11 -61 -29.5 -104t-45 -70.5t-62 -40.5t-81.5 -13q-22 0 -47 4l15 75q22 -4 41 -4q25 0 44 8t33.5 26
t25 47.5t18.5 71.5l87 454h-101l13 70h101l7 42q18 103 71.5 150t143.5 47q27 0 54 -3l-14 -75q-25 5 -47 5q-25 0 -44 -6t-34 -20t-25 -38.5t-17 -61.5l-8 -40h208l8 42q21 108 73.5 152.5t141.5 44.5q15 0 29 -1t25 -2l-14 -75q-12 2 -25 3.5t-24 1.5q-23 0 -42 -6
t-33.5 -20t-25.5 -38.5t-18 -61.5l-7 -40h301zM886 658q0 -27 -18.5 -44.5t-42.5 -17.5q-26 0 -41 16t-15 39q0 27 18 44.5t43 17.5t40.5 -16.5t15.5 -38.5z" />
    <glyph glyph-name="f_l" unicode="fl" horiz-adv-x="578" 
d="M450 0h-88l125 656q-21 4 -42.5 6t-40.5 2q-65 0 -102 -29.5t-49 -94.5l-8 -43h124l-13 -70h-124l-86 -453q-23 -120 -78 -174t-148 -54q-40 0 -82 8l20 76q17 -4 35.5 -6.5t32.5 -2.5q27 0 47.5 7.5t36 24.5t27.5 46t20 72l86 456h-100l13 70h101l8 46q19 95 79 144
t171 49q44 0 87.5 -4t84.5 -11z" />
    <glyph glyph-name="f_f_l" unicode="ffl" horiz-adv-x="873" 
d="M658 0l125 656q-21 4 -41.5 6t-40.5 2q-66 0 -102.5 -29t-49.5 -95l-8 -43h124l-13 -70h-124l-86 -454q-23 -122 -74.5 -175t-143.5 -53q-18 0 -46 4l14 75q23 -4 41 -4q25 0 44 8t33.5 26t24.5 47.5t18 71.5l87 454h-208l-87 -454q-11 -61 -29.5 -104t-45 -70.5
t-62 -40.5t-81.5 -13q-18 0 -47 4l15 75q23 -4 41 -4q25 0 44 8t33.5 26t25 47.5t18.5 71.5l87 454h-101l13 70h101l7 42q18 103 71.5 150t143.5 47q27 0 54 -3l-14 -75q-25 5 -47 5q-25 0 -44 -6t-34 -20t-25 -38.5t-17 -61.5l-8 -40h209l9 46q18 92 77 142.5t173 50.5
q46 0 89.5 -4t82.5 -11l-137 -721h-89z" />
    <glyph glyph-name=".notdef" 
d="M450 100v350h-350v-350h350zM250 350v50h150v-250h-50v100h-100v50h100v50h-100zM50 50v450h450v-450h-450zM150 150v250h50v-200h100v-50h-150z" />
    <glyph glyph-name=".null" horiz-adv-x="0" 
 />
    <glyph glyph-name=".null" horiz-adv-x="0" 
 />
    <glyph glyph-name="nonmarkingreturn" unicode="&#xd;" horiz-adv-x="500" 
 />
    <glyph glyph-name="space" unicode=" " horiz-adv-x="218" 
 />
    <glyph glyph-name="exclam" unicode="!" horiz-adv-x="314" 
d="M190 52q0 -26 -17.5 -43.5t-43.5 -17.5q-25 0 -41.5 16.5t-16.5 40.5q0 26 18 43.5t44 17.5q25 0 41 -16.5t16 -40.5zM190 168h-74l86 535h104z" />
    <glyph glyph-name="quotedbl" unicode="&#x22;" horiz-adv-x="358" 
d="M174 469h-64l29 230h93zM338 469h-65l30 230h93z" />
    <glyph glyph-name="numbersign" unicode="#" horiz-adv-x="565" 
d="M569 429h-94l-52 -177h90l-12 -62h-96l-56 -190h-71l56 190h-150l-56 -190h-71l55 190h-89l12 62h96l52 177h-91l12 62h96l56 184h71l-55 -184h149l56 184h71l-56 -184h89zM254 429l-52 -177h150l52 177h-150z" />
    <glyph glyph-name="dollar" unicode="$" horiz-adv-x="479" 
d="M426 234q0 -39 -14.5 -74t-41.5 -63t-65 -47t-84 -27l-24 -128h-66l24 126q-34 1 -62.5 4.5t-53.5 9.5l17 85q13 -5 28 -9.5t31.5 -7.5t33 -4.5t32.5 -1.5q34 0 61.5 8.5t46.5 23.5t29 36t10 45q0 26 -15.5 44.5t-34 29t-59.5 30t-65 36t-39.5 42.5t-15.5 62
q0 39 14.5 72.5t40.5 59.5t61.5 43t77.5 23l19 103h67l-20 -101q28 -1 54 -4t44 -8l-15 -80q-27 8 -56 13t-55 5q-32 0 -58 -8t-44 -22t-27 -32.5t-9 -39.5q0 -25 15.5 -43t33.5 -27.5t60.5 -29.5t67 -37t40.5 -43.5t16 -63.5z" />
    <glyph glyph-name="percent" unicode="%" horiz-adv-x="735" 
d="M609 186q0 57 -53 57q-19 0 -37 -10t-31.5 -28.5t-21 -43t-7.5 -52.5q0 -58 53 -58q19 0 37 10t31.5 28t21 43t7.5 54zM317 567q0 58 -53 58q-20 0 -37.5 -10t-31 -28.5t-21 -43t-7.5 -53.5q0 -58 52 -58q20 0 37.5 10t31.5 28.5t21.5 43t7.5 53.5zM681 194
q0 -47 -15 -85t-40.5 -64.5t-57 -40.5t-64.5 -14q-58 0 -88 29t-30 81q0 47 15 85t41 64.5t57.5 40t63.5 13.5q58 0 88 -28t30 -81zM102 -21l-49 44l617 671l49 -44zM389 576q0 -47 -15 -85t-40.5 -64.5t-57 -40.5t-64.5 -14q-58 0 -88 29t-30 81q0 47 15 85t41 64.5
t57.5 40t63.5 13.5q58 0 88 -28.5t30 -80.5z" />
    <glyph glyph-name="ampersand" unicode="&#x26;" horiz-adv-x="779" 
d="M451 138q-49 49 -97.5 103t-87.5 107q-25 -18 -48.5 -37.5t-41.5 -41t-29 -45.5t-11 -52q0 -21 6.5 -40t20.5 -33.5t36 -23t53 -8.5q47 0 98 17t101 54zM414 606q0 27 -16 44t-48 17q-44 0 -70 -27.5t-26 -68.5q0 -23 12 -51.5t31 -61.5q24 17 44.5 33t36.5 33.5t26 38
t10 43.5zM718 448q-13 -91 -51.5 -168.5t-93.5 -136.5q31 -27 61 -52.5t58 -46.5l-62 -63q-34 26 -63 50.5t-60 53.5q-61 -48 -132 -71.5t-143 -23.5q-50 0 -86 13t-59 35.5t-34 52t-11 62.5q0 44 15.5 80.5t41.5 67.5t58.5 57t66.5 50q-25 40 -42.5 80t-17.5 73
q0 35 14 66.5t39.5 55.5t61.5 38.5t80 14.5q71 0 108 -31t37 -87q0 -35 -13.5 -64.5t-36.5 -56t-52.5 -50.5t-64.5 -48q36 -49 82.5 -100.5t96.5 -101.5q40 44 71 108.5t42 142.5h89v0z" />
    <glyph glyph-name="quotesingle" unicode="'" horiz-adv-x="195" 
d="M174 469h-64l29 230h93z" />
    <glyph glyph-name="parenleft" unicode="(" horiz-adv-x="297" 
d="M375 749q-47 -59 -88 -132.5t-73 -154t-49.5 -165t-17.5 -163.5q0 -88 11.5 -164t40.5 -147l-70 -32q-36 84 -52.5 166t-16.5 172q0 83 17.5 168t50.5 168.5t79.5 163.5t106.5 153l61 -33v0z" />
    <glyph glyph-name="parenright" unicode=")" horiz-adv-x="297" 
d="M260 444q0 -83 -17.5 -168t-50 -168.5t-79.5 -163.5t-107 -153l-61 33q47 59 89 132.5t73 154t49 164t18 163.5q0 88 -12 164t-41 148l70 32q36 -84 52.5 -166t16.5 -172z" />
    <glyph glyph-name="asterisk" unicode="*" horiz-adv-x="366" 
d="M290 578l91 -51l-42 -55l-78 70l-12 -114l-67 9l33 106l-95 -62l-25 61l109 41l-91 51l41 54l78 -69l12 114l67 -9l-34 -106l98 62l25 -61z" />
    <glyph glyph-name="plus" unicode="+" 
d="M511 260h-191l-38 -201h-85l38 201h-189l14 75h189l38 200h86l-39 -200h191z" />
    <glyph glyph-name="comma" unicode="," horiz-adv-x="228" 
d="M76 113q28 0 45.5 -22.5t13 -59.5t-37.5 -85t-105 -100l-33 39q58 49 71 83.5t-3 60.5q-7 13 -7 28t7 27.5t19.5 20.5t29.5 8z" />
    <glyph glyph-name="hyphen" unicode="-" horiz-adv-x="323" 
d="M280 250h-231l14 74h231z" />
    <glyph glyph-name="hyphen" unicode="&#xad;" horiz-adv-x="323" 
d="M280 250h-231l14 74h231z" />
    <glyph glyph-name="period" unicode="." horiz-adv-x="228" 
d="M139 56q0 -27 -18.5 -46t-45.5 -19q-25 0 -42 18t-17 42q0 27 18.5 45.5t44.5 18.5q25 0 42.5 -18t17.5 -41z" />
    <glyph glyph-name="slash" unicode="/" horiz-adv-x="429" 
d="M104 0h-89l382 675h88z" />
    <glyph glyph-name="zero" unicode="0" 
d="M438 478q0 27 -3.5 49.5t-12.5 41t-26.5 29.5t-45.5 11q-39 0 -69.5 -21t-53.5 -57t-38 -80t-24.5 -90.5t-13.5 -89t-4 -76.5q0 -26 4 -48t13.5 -40t27.5 -28.5t45 -10.5q37 0 67.5 21t53 56.5t37.5 79.5t24.5 90t14 88t4.5 75zM223 -9q-48 0 -81.5 14t-53.5 40.5
t-28.5 63t-8.5 83.5q0 50 7 104.5t22 109.5t39.5 105t59 89t81 61.5t103.5 22.5q47 0 80.5 -14.5t53 -41.5t28.5 -63.5t9 -82.5q0 -48 -7.5 -102.5t-22.5 -109.5t-40 -105t-59.5 -89.5t-80 -62t-101.5 -22.5z" />
    <glyph glyph-name="one" unicode="1" 
d="M451 0h-202h-224l15 81h177l95 500l-178 -58l16 86l200 66h73l-112 -594h156z" />
    <glyph glyph-name="two" unicode="2" 
d="M509 523q0 -39 -12.5 -75t-37.5 -72.5t-63.5 -75.5t-94.5 -88l-149 -127v-2q40 2 106 2.5t196 0.5l-17 -86h-425l14 74l171 149q58 51 95.5 87t64 69t40 64t13.5 63q0 20 -6.5 37.5t-19.5 31t-33.5 21.5t-47.5 8q-39 0 -79.5 -11t-87.5 -36l16 86q41 21 84.5 31t86.5 10
q46 0 81 -11.5t58.5 -33t35 -51t11.5 -65.5z" />
    <glyph glyph-name="three" unicode="3" 
d="M512 543q0 -26 -9 -52.5t-28 -51t-49 -44t-70 -31.5v-1q53 -12 82.5 -47.5t29.5 -85.5q0 -44 -18 -86.5t-55 -76.5t-94 -54.5t-131 -20.5q-36 0 -69.5 4t-63.5 11l16 83q28 -9 63.5 -15t67.5 -6q43 0 77.5 11.5t58.5 32.5t36.5 48t12.5 58q0 45 -35 71t-104 26
q-30 0 -53 -1t-47 -4l14 74h27q58 0 104 11t77 30t47 45t16 56q0 38 -24.5 59.5t-77.5 21.5q-39 0 -77.5 -9.5t-80.5 -27.5l16 83q36 14 78 22t84 8q88 0 133.5 -37t45.5 -104z" />
    <glyph glyph-name="four" unicode="4" 
d="M399 582h-1l-279 -342q26 1 67 2t76.5 1h70.5zM511 161h-106l-31 -161h-89l31 161h-299l5 74l357 440h124l-82 -432h106z" />
    <glyph glyph-name="five" unicode="5" 
d="M515 589h-265l-35 -182q12 1 27.5 1.5t22.5 0.5q53 0 92.5 -12t65 -34t37.5 -51t12 -63q0 -54 -21 -101t-60 -82.5t-94.5 -55t-121.5 -19.5q-76 0 -134 14l16 82q30 -9 64 -14t65 -5q44 0 79 13t59 35.5t36.5 52t12.5 63.5q0 49 -35 76t-104 27q-33 0 -65 -2t-53 -6
l67 348h348z" />
    <glyph glyph-name="six" unicode="6" 
d="M410 251q0 43 -27 71t-76 28q-32 0 -62.5 -14.5t-53.5 -39t-36.5 -54.5t-13.5 -60q0 -51 25.5 -83t73.5 -32q36 0 67.5 15t54.5 41.5t35.5 59.5t12.5 68zM509 600q-16 3 -30.5 4.5t-32.5 1.5q-95 0 -160 -54.5t-105 -157.5q-4 -9 -9.5 -23.5t-11.5 -30.5h1q31 40 76 63
t94 23q40 0 72.5 -12t54 -33.5t33 -51t11.5 -64.5q0 -51 -20 -100.5t-57 -89t-87 -62.5t-107 -23q-87 0 -134.5 50.5t-47.5 140.5q0 92 26.5 181t79.5 162t131.5 116t177.5 43q19 0 35 -1t25 -2z" />
    <glyph glyph-name="seven" unicode="7" 
d="M561 597q-103 -142 -198.5 -296.5t-168.5 -300.5h-108q84 156 178.5 307.5t188.5 281.5q-13 -1 -70 -1.5t-120 -0.5h-140l18 88h435z" />
    <glyph glyph-name="eight" unicode="8" 
d="M386 177q0 34 -23 63.5t-78 63.5q-76 -38 -114.5 -76.5t-38.5 -86.5q0 -33 28.5 -55t77.5 -22q30 0 56.5 8.5t47.5 24.5t32.5 36.5t11.5 43.5zM445 538q0 34 -26.5 55.5t-70.5 21.5q-60 0 -98 -32.5t-38 -79.5q0 -30 22.5 -54.5t66.5 -55.5q74 40 109 73t35 72zM537 548
q0 -34 -13.5 -63t-37 -53t-51.5 -43t-65 -39q56 -40 83 -78t27 -86q0 -42 -20 -78t-56 -62.5t-82.5 -41t-97.5 -14.5q-90 0 -138.5 37.5t-48.5 102.5q0 63 43 114.5t137 103.5q-51 35 -74 70t-23 76q0 43 18.5 79t52 61.5t77 39t92.5 13.5q43 0 76 -10.5t55.5 -29.5
t34 -44.5t11.5 -54.5z" />
    <glyph glyph-name="nine" unicode="9" 
d="M439 500q0 52 -25 80.5t-76 28.5q-34 0 -63.5 -15t-52 -41.5t-35 -60.5t-12.5 -70q0 -43 25 -70t74 -27q30 0 59.5 12t53.5 34.5t38 55.5t14 73zM534 490q0 -30 -6.5 -76t-22.5 -101.5t-45.5 -112t-75.5 -104.5t-113 -76.5t-153 -28.5q-51 0 -86 7l16 83q17 -5 40 -8
t44 -3q94 0 162 52.5t100 149.5q4 11 7.5 21.5t5.5 17.5h-1q-29 -31 -69.5 -48t-86.5 -17q-42 0 -74 12t-53 34t-31 51.5t-10 63.5q0 53 19.5 103.5t56 90t86 62t107.5 22.5q48 0 83 -14.5t57 -40.5t32.5 -61.5t10.5 -78.5z" />
    <glyph glyph-name="colon" unicode=":" horiz-adv-x="286" 
d="M182 55q0 -27 -18 -45.5t-44 -18.5q-25 0 -43 18t-18 42q0 27 18.5 45.5t44.5 18.5q25 0 42.5 -18t17.5 -42zM248 396q0 -27 -18 -45.5t-44 -18.5t-43.5 18t-17.5 43q0 27 18.5 45t44.5 18q25 0 42.5 -17.5t17.5 -42.5z" />
    <glyph glyph-name="semicolon" unicode=";" horiz-adv-x="286" 
d="M122 113q29 0 46 -22.5t12.5 -60t-37.5 -85t-105 -99.5l-33 39q57 49 71 83t-3 61q-7 13 -7 28t7 27.5t19.5 20.5t29.5 8zM248 395q0 -27 -18.5 -45t-44.5 -18q-25 0 -42.5 17.5t-17.5 42.5q0 27 18.5 45.5t43.5 18.5q26 0 43.5 -18t17.5 -43z" />
    <glyph glyph-name="less" unicode="&#x3c;" 
d="M199 302l219 -225l-65 -58l-269 290l362 277l52 -62z" />
    <glyph glyph-name="equal" unicode="=" 
d="M481 175h-439l15 74h438zM514 345h-439l15 75h438z" />
    <glyph glyph-name="greater" unicode="&#x3e;" 
d="M128 19l-52 62l298 222l-218 225l65 58l269 -290z" />
    <glyph glyph-name="question" unicode="?" horiz-adv-x="436" 
d="M212 52q0 -26 -17.5 -43.5t-43.5 -17.5q-25 0 -41.5 16.5t-16.5 40.5q0 26 18 43.5t44 17.5q25 0 41 -16.5t16 -40.5zM432 541q0 -41 -16 -73t-38 -54.5t-60 -55.5t-60 -57.5t-34 -57.5t-6 -75h-88q-7 48 4 86.5t33 66.5t50.5 53t57 50.5t44 49t15.5 52.5q0 23 -9.5 41
t-30.5 31.5t-56.5 21t-86.5 7.5l14 83q66 0 117 -12t84 -35t49.5 -53.5t16.5 -68.5z" />
    <glyph glyph-name="at" unicode="@" horiz-adv-x="1004" 
d="M610 426q-31 7 -60 7q-39 0 -69.5 -22.5t-51.5 -58t-31.5 -75.5t-10.5 -75q0 -64 43 -64q20 0 41.5 15t43 45t42 73.5t36.5 98.5zM942 407q0 -71 -19 -134t-54.5 -110.5t-84.5 -73.5t-106 -26q-33 0 -56.5 10t-36 27.5t-16.5 39.5t0 45h-2q-10 -23 -26.5 -45t-37.5 -39.5
t-46 -27.5t-50 -10q-106 0 -106 125q0 51 14.5 105.5t46.5 103t83.5 78.5t122.5 30q37 0 74.5 -4.5t70.5 -12.5l-63 -222q-19 -63 -9 -95.5t50 -32.5q36 0 67 20.5t54.5 57t36 84t12.5 99.5q0 50 -15 94t-48 78t-86 54t-126 20q-89 0 -166.5 -37t-135.5 -101.5t-89.5 -147
t-31.5 -170.5q0 -65 18 -117t55 -88.5t93 -56t131 -19.5q45 0 92 7t94 20l6 -69q-47 -15 -100.5 -22.5t-103.5 -7.5q-87 0 -155.5 24t-115.5 68.5t-71 108t-24 141.5q0 105 38 202.5t107.5 173t163.5 119t201 43.5q86 0 152.5 -24t110.5 -66.5t65.5 -98.5t21.5 -120z" />
    <glyph glyph-name="A" unicode="A" horiz-adv-x="603" 
d="M451 0l-24 161h-281l-86 -161h-94l364 675h110l108 -675h-97zM379 493q-4 31 -7 53t-4 42h-1q-8 -19 -20 -43.5t-25 -50.5l-140 -260h236z" />
    <glyph glyph-name="B" unicode="B" horiz-adv-x="559" 
d="M409 221q0 46 -35.5 69t-114.5 23h-28t-24 -0.5t-19 -0.5l-45 -236q27 -5 78 -5q46 0 81.5 12t59.5 33t35.5 48t11.5 57zM446 527q0 18 -6 32t-19.5 24.5t-36 16.5t-55.5 6q-18 0 -40.5 -1t-45.5 -2l-42 -220q9 0 19 -0.5t19 -0.5h23q50 0 85.5 12t57 33t31.5 46.5
t10 53.5zM542 543q0 -35 -11 -65.5t-31 -54.5t-45 -41.5t-54 -27.5v-1q50 -9 77.5 -42t27.5 -80q0 -46 -18.5 -88t-56 -75t-93.5 -52t-128 -19q-18 0 -49.5 0.5t-64.5 1.5t-57 1l128 675q16 0 53 1.5t65.5 2t55.5 0.5q105 0 153 -37t48 -99z" />
    <glyph glyph-name="C" unicode="C" horiz-adv-x="571" 
d="M576 569q-72 33 -147 33q-68 0 -121 -31.5t-87.5 -84t-51.5 -116.5t-17 -129q0 -37 9.5 -67t30 -52.5t54 -35t79.5 -12.5q38 0 81.5 8.5t88.5 23.5l-17 -84q-41 -13 -87.5 -21.5t-90.5 -8.5q-71 0 -119.5 20t-76 54t-39 74t-11.5 84q0 83 23 164t70.5 148t121.5 107
t172 40q40 0 79 -7.5t73 -19.5z" />
    <glyph glyph-name="D" unicode="D" horiz-adv-x="664" 
d="M553 424q0 41 -10.5 73t-34 56t-63.5 37t-98 13q-25 0 -58 -1t-46 -2l-100 -520q18 -3 41 -4.5t40 -1.5q85 0 148.5 30.5t103.5 81.5t58.5 112.5t18.5 125.5zM649 433q0 -85 -27 -163.5t-81.5 -140.5t-138 -97.5t-191.5 -35.5q-32 0 -57.5 0.5t-60.5 2t-54 1.5l128 674
q91 2 122.5 3t71.5 1q76 0 131 -17.5t89.5 -49.5t51 -77t16.5 -101z" />
    <glyph glyph-name="E" unicode="E" horiz-adv-x="525" 
d="M526 599h-284l-41 -214h261l-14 -74h-261l-44 -234h288l-14 -77h-288h-90l128 675h90h284z" />
    <glyph glyph-name="F" unicode="F" horiz-adv-x="490" 
d="M523 599h-281l-42 -220h265l-14 -74h-265l-57 -305h-90l128 675h90h282z" />
    <glyph glyph-name="G" unicode="G" horiz-adv-x="668" 
d="M630 572q-40 16 -83.5 24.5t-83.5 8.5q-79 0 -139 -31t-98.5 -82.5t-57.5 -112.5t-19 -121q0 -43 11.5 -77t35 -59t60.5 -38t87 -13q36 0 66.5 5t61.5 14l48 254h90l-59 -315q-51 -19 -110 -28.5t-112 -9.5q-69 0 -121 17.5t-86 50.5t-51 80.5t-17 108.5q0 77 26 154
t79 141t133 102.5t184 38.5q42 0 87 -6.5t85 -17.5z" />
    <glyph glyph-name="H" unicode="H" horiz-adv-x="684" 
d="M556 0h-90l59 311h-337l-59 -311h-90l128 675h90l-55 -286h338l54 286h90z" />
    <glyph glyph-name="I" unicode="I" horiz-adv-x="257" 
d="M129 0h-90l128 675h90z" />
    <glyph glyph-name="J" unicode="J" horiz-adv-x="257" 
d="M-73 -131q28 15 45 27t30.5 29t24 44.5t18.5 68.5l121 637h91l-122 -640q-9 -49 -23 -84t-34.5 -60t-48.5 -44.5t-70 -38.5z" />
    <glyph glyph-name="K" unicode="K" horiz-adv-x="573" 
d="M288 345l221 -345h-115l-201 336l-64 -336h-90l128 675h90l-60 -316l320 316h116z" />
    <glyph glyph-name="L" unicode="L" horiz-adv-x="445" 
d="M393 0h-264h-90l128 675h90l-114 -597h264z" />
    <glyph glyph-name="M" unicode="M" horiz-adv-x="876" 
d="M785 0h-92l22 394q4 58 9 108t10 88h-2q-12 -29 -29 -64.5t-39 -79.5l-237 -446h-82l-65 423q-6 39 -11 85t-7 82h-1q-10 -44 -23.5 -95t-29.5 -105l-117 -390h-90l214 675h120l64 -426q5 -31 8 -61.5t3 -59.5h1q26 66 54 121l228 426h132z" />
    <glyph glyph-name="N" unicode="N" horiz-adv-x="667" 
d="M453 0l-170 395q-22 51 -35 87.5t-23 70.5h-2q-4 -28 -10.5 -71.5t-15 -94.5t-18 -102.5t-17.5 -95.5l-35 -189h-88l128 675h49.5h48.5l160 -372q38 -87 60 -161h1q4 33 11 76t15 92t17 99t18 96l33 170h87l-128 -675h-42.5h-43.5z" />
    <glyph glyph-name="O" unicode="O" horiz-adv-x="695" 
d="M585 424q0 83 -41.5 131.5t-125.5 48.5q-58 0 -108 -28t-86.5 -77t-56 -113t-19.5 -135q0 -83 41.5 -131.5t125.5 -48.5q59 0 108.5 28t86 77t56 113t19.5 135zM682 439q0 -89 -27.5 -170.5t-78.5 -144.5t-122 -98.5t-156 -35.5q-122 0 -184 66.5t-62 179.5
q0 89 27 170.5t78 144.5t122 98.5t156 35.5q122 0 184.5 -66.5t62.5 -179.5z" />
    <glyph glyph-name="P" unicode="P" horiz-adv-x="539" 
d="M39 0l128 675q45 2 89 3q37 0 47 0.5t31 0.5q56 0 97.5 -13t69 -36t40.5 -54.5t13 -68.5q0 -53 -20.5 -103t-59.5 -88.5t-96 -61.5t-131 -23q-14 0 -33 0.5t-41 2.5l-44 -234h-90zM188 312q11 -2 33 -4t40 -2q53 0 90.5 17.5t61.5 45t35.5 60.5t11.5 65q0 23 -7.5 43
t-24.5 34.5t-44 23.5t-65 9q-23 0 -37 -0.5t-40 -1.5z" />
    <glyph glyph-name="Q" unicode="Q" horiz-adv-x="695" 
d="M458 40q18 0 39 -6.5t42.5 -13t48 -9.5t62.5 1l-16 -79q-37 -5 -66 -3t-51 7.5t-54 18.5t-46 18.5t-39.5 10.5t-57.5 5h-22q-122 0 -184 66.5t-62 178.5q0 90 27 171.5t78 144.5t122 98.5t156 35.5q122 0 184.5 -66.5t62.5 -179.5q0 -72 -17.5 -137t-48 -118t-71.5 -90
t-87 -54zM585 424q0 83 -41.5 131.5t-125.5 48.5q-58 0 -108 -28t-86.5 -77t-56 -113t-19.5 -135q0 -83 41.5 -131.5t125.5 -48.5q59 0 108.5 28t86 77t56 113t19.5 135z" />
    <glyph glyph-name="R" unicode="R" horiz-adv-x="556" 
d="M378 0l-145 292h-49l-55 -292h-90l128 674q54 2 89 3q18 1 36.5 1.5t41.5 0.5q49 0 87.5 -10t65 -29t40 -46.5t13.5 -62.5q0 -39 -12.5 -76t-38.5 -68.5t-66 -54.5t-95 -31q5 -10 12 -21q5 -10 12 -22.5t15 -25.5l120 -232h-109zM197 362q27 -1 70 -1q49 0 83 14t55 36.5
t30 49.5t9 53q0 40 -30 65t-96 25q-16 0 -40 -1t-36 -1z" />
    <glyph glyph-name="S" unicode="S" horiz-adv-x="493" 
d="M461 590q-31 9 -61.5 13.5t-58.5 4.5q-37 0 -64.5 -9t-46 -24.5t-27.5 -35t-9 -40.5q0 -29 16 -50t34 -32.5t63 -38t70.5 -48t42 -52.5t16.5 -74q0 -42 -17.5 -80t-51.5 -68t-84.5 -47.5t-115.5 -17.5q-42 0 -80 4.5t-71 13.5l17 89q34 -13 72 -20.5t79 -7.5
q74 0 115.5 35t41.5 88q0 30 -16 52t-36 35.5t-62.5 38.5t-67.5 45.5t-41.5 51t-16.5 71.5q0 39 16.5 75t49 63.5t80.5 43t108 15.5q32 0 63.5 -3t61.5 -9z" />
    <glyph glyph-name="T" unicode="T" horiz-adv-x="506" 
d="M557 598h-190l-114 -598h-90l114 598h-191l15 77h471z" />
    <glyph glyph-name="U" unicode="U" horiz-adv-x="679" 
d="M597 247q-24 -130 -101.5 -193.5t-205.5 -63.5q-72 0 -118 18.5t-68.5 51.5t-26.5 77t6 98l84 440h90l-85 -444q-16 -84 13.5 -124.5t116.5 -40.5q44 0 78.5 10t60 32.5t43 59t27.5 89.5l79 418h89z" />
    <glyph glyph-name="V" unicode="V" horiz-adv-x="605" 
d="M312 0h-110l-108 675h97l65 -439q4 -30 8.5 -69.5t7.5 -77.5h2q15 35 34.5 75t38.5 76l233 435h97z" />
    <glyph glyph-name="W" unicode="W" horiz-adv-x="936" 
d="M683 0h-111l-42 444q-4 46 -1 104h-2q-35 -93 -40 -104l-207 -444h-115l-48 675h95l30 -438q2 -45 2 -79t-1 -66h1q12 34 26 69.5t30 71.5l207 442h91l42 -448q2 -34 3.5 -69t0.5 -66h2q11 32 22 63t24 62l204 458h90z" />
    <glyph glyph-name="X" unicode="X" horiz-adv-x="587" 
d="M367 348l156 -348h-107l-115 279l-221 -279h-109l286 349l-142 326h100l108 -257l203 257h106z" />
    <glyph glyph-name="Y" unicode="Y" horiz-adv-x="526" 
d="M311 259l-49 -259h-90l49 259l-135 416h96l71 -220q8 -29 14.5 -54t14.5 -57h1q15 25 30.5 48.5t43.5 66.5l152 216h98z" />
    <glyph glyph-name="Z" unicode="Z" horiz-adv-x="528" 
d="M552 605l-377 -464q-12 -15 -24.5 -29.5t-25.5 -29.5q9 1 31 1.5t50.5 0.5h82.5h166l-15 -84h-440l13 68l359 446q16 21 33 40t37 41q-30 -1 -62 -1.5t-79 -0.5h-178l15 82h427z" />
    <glyph glyph-name="bracketleft" unicode="[" horiz-adv-x="315" 
d="M366 702h-111l-158 -830h112l-14 -71h-112h-82l184 970h83h112z" />
    <glyph glyph-name="backslash" unicode="\" horiz-adv-x="433" 
d="M251 0l-124 675h81l125 -675h-82z" />
    <glyph glyph-name="bracketright" unicode="]" horiz-adv-x="315" 
d="M148 -199h-81h-113l14 71h111l159 830h-112l12 69h111h84z" />
    <glyph glyph-name="asciicircum" unicode="^" 
d="M430 343l-95 265l-189 -265l-56 33l221 299h73l116 -298z" />
    <glyph glyph-name="underscore" unicode="_" 
d="M457 -249h-549l13 71h549z" />
    <glyph glyph-name="grave" unicode="`" horiz-adv-x="343" 
d="M283 569l-115 130l62 52l103 -140z" />
    <glyph glyph-name="a" unicode="a" horiz-adv-x="538" 
d="M403 425q-17 4 -34 6.5t-37 2.5q-53 0 -92.5 -24.5t-64.5 -65.5t-37 -89.5t-12 -96.5q0 -47 13.5 -69t37.5 -22q33 0 68.5 31t66 81t52.5 105t31 101zM503 490q-19 -100 -34 -179.5t-25 -130t-17.5 -93.5t-15.5 -87h-89q13 63 58 202l-2 1q-17 -37 -37.5 -71.5t-49.5 -67
t-65.5 -53.5t-79.5 -21q-55 0 -83 37t-28 114q0 71 18.5 136t57.5 116.5t98.5 81.5t137.5 30q41 0 80.5 -4t75.5 -11z" />
    <glyph glyph-name="b" unicode="b" horiz-adv-x="538" 
d="M416 339q0 47 -13 69t-37 22q-23 0 -46.5 -14.5t-46 -40t-42.5 -58.5t-37 -68.5t-28.5 -70.5t-17.5 -64l-9 -42q40 -9 72 -9q53 0 92 24.5t64 65t37 89t12 97.5zM508 356q0 -71 -19 -136t-57.5 -116.5t-98 -81.5t-138.5 -30q-42 0 -80.5 4.5t-75.5 12.5l137 721h89
l-46 -240q-3 -15 -7 -31t-10 -38t-15.5 -52t-22.5 -72l2 -1q20 46 44 84t53 66.5t62.5 44.5t70.5 16q55 0 83.5 -37t28.5 -114z" />
    <glyph glyph-name="c" unicode="c" horiz-adv-x="412" 
d="M406 408q-22 10 -47 15.5t-48 5.5q-45 0 -80 -22.5t-58 -60t-34 -82t-11 -88.5q0 -22 4.5 -40t16 -33t32.5 -24t52 -9q28 0 56.5 5.5t60.5 17.5l-15 -79q-31 -10 -63 -16t-63 -6q-47 0 -81 12t-54.5 34t-30 51.5t-9.5 66.5q0 71 19.5 134.5t56.5 112t90 75.5t118 27
q24 0 51 -4.5t52 -11.5z" />
    <glyph glyph-name="d" unicode="d" horiz-adv-x="538" 
d="M403 425q-17 4 -34 6.5t-37 2.5q-53 0 -92.5 -24.5t-64.5 -65.5t-37 -89.5t-12 -96.5q0 -47 13.5 -69t37.5 -22q33 0 68.5 31t66 81t52.5 105t31 101zM444 180q-3 -18 -9.5 -54t-9 -48.5t-6.5 -34.5t-8 -43h-88q6 32 20 81t37 121l-2 1q-17 -37 -37.5 -71.5t-49.5 -67
t-65.5 -53.5t-79.5 -21q-55 0 -83 37t-28 114q0 71 18.5 136t57.5 116.5t98.5 81.5t137.5 30q18 0 34 -1.5t36 -4.5l43 231h89z" />
    <glyph glyph-name="e" unicode="e" horiz-adv-x="473" 
d="M363 382q0 26 -18 40.5t-49 14.5q-29 0 -53.5 -11.5t-44 -32.5t-33.5 -48.5t-23 -59.5q115 4 168 28t53 69zM453 393q0 -162 -323 -174q-2 -10 -3.5 -27t-1.5 -31q0 -29 5.5 -47.5t17.5 -29.5t31 -15.5t47 -4.5q33 0 72.5 7.5t79.5 20.5l-15 -78q-41 -12 -79.5 -17.5
t-81.5 -5.5q-87 0 -127.5 38.5t-40.5 122.5q0 72 19.5 136.5t55.5 113.5t87 76.5t111 27.5q38 0 66 -9t45.5 -25t26 -36t8.5 -43z" />
    <glyph glyph-name="f" unicode="f" horiz-adv-x="343" 
d="M443 653q-40 10 -73 10q-51 0 -78 -28.5t-40 -97.5l-8 -40h135l-13 -70h-134l-87 -454q-22 -121 -74 -174.5t-144 -53.5q-22 0 -47 4l15 75q20 -4 41 -4q26 0 45 8.5t33 26t24.5 46.5t18.5 72l87 454h-101l13 70h101l8 42q20 105 71 151t143 46q39 0 79 -8z" />
    <glyph glyph-name="g" unicode="g" horiz-adv-x="538" 
d="M403 425q-17 4 -34 6.5t-37 2.5q-53 0 -92.5 -24.5t-64.5 -65.5t-37 -89.5t-12 -96.5q0 -47 13.5 -69t37.5 -22q33 0 68.5 31t66 81t52.5 105t31 101zM401 -45q-9 -47 -28.5 -84.5t-52.5 -65.5t-81.5 -43.5t-113.5 -15.5q-38 0 -72.5 4t-64.5 11l17 83q30 -9 66.5 -15
t70.5 -6q74 0 117 35.5t59 117.5q5 28 11 54t13 52t16 54t20 62h-2q-16 -35 -36.5 -68.5t-49 -65.5t-65 -53t-79.5 -21q-55 0 -83 37t-28 114q0 71 19 136t57.5 116.5t98 81.5t137.5 30q41 0 78.5 -4t77.5 -11z" />
    <glyph glyph-name="h" unicode="h" horiz-adv-x="564" 
d="M436 0h-88l60 318q11 58 0.5 85t-43.5 27t-68 -31t-65.5 -80t-53 -104.5t-30.5 -102.5l-21 -112h-89l138 730h89l-45 -233q-3 -17 -7 -34t-10 -39.5t-15.5 -53t-22.5 -69.5h2q19 42 42.5 78.5t52.5 65.5t63 45.5t72 16.5q67 0 92.5 -45t10.5 -124z" />
    <glyph glyph-name="i" unicode="i" horiz-adv-x="254" 
d="M126 0h-88l94 497h88zM266 658q0 -26 -18.5 -44t-43.5 -18q-24 0 -40 16t-16 39q0 26 18.5 44t43.5 18q24 0 40 -16.5t16 -38.5z" />
    <glyph glyph-name="j" unicode="j" horiz-adv-x="254" 
d="M119 -34q-8 -44 -21.5 -77t-34.5 -59t-50 -46.5t-68 -39.5l-31 63q26 15 45 29t33 31.5t23.5 41t15.5 57.5l101 531h88zM265 658q0 -27 -18 -44.5t-43 -17.5t-40.5 16t-15.5 39q0 27 18.5 44.5t42.5 17.5q25 0 40.5 -16.5t15.5 -38.5z" />
    <glyph glyph-name="k" unicode="k" horiz-adv-x="475" 
d="M267 274l152 -274h-108l-135 264l-50 -264h-88l138 730h88l-84 -443l235 235l66 -51z" />
    <glyph glyph-name="l" unicode="l" horiz-adv-x="254" 
d="M126 0h-88l138 730h88z" />
    <glyph glyph-name="m" unicode="m" horiz-adv-x="860" 
d="M732 0h-88l60 318q11 58 1 85.5t-41 27.5q-29 0 -62 -27.5t-64 -74t-54.5 -103.5t-34.5 -114l-20 -112h-88l61 318q11 58 1 85.5t-42 27.5q-29 0 -62 -27.5t-64 -74t-54.5 -103.5t-33.5 -114l-21 -112h-88l50 259q3 18 7 37.5t6 32.5t7.5 43t9 49l7 38t7.5 38h87
q-5 -30 -18 -77t-37 -119h2q18 42 41.5 78.5t52 65.5t62 45.5t70.5 16.5q48 0 73.5 -25t25.5 -72q0 -22 -5.5 -45.5t-18.5 -64.5l2 -1q18 42 41.5 79t52 66t62 46t70.5 17q66 0 91 -44.5t10 -124.5z" />
    <glyph glyph-name="n" unicode="n" horiz-adv-x="563" 
d="M435 0h-88l61 318q11 58 0.5 85t-44.5 27q-33 0 -67.5 -31t-65.5 -80t-53 -104.5t-31 -102.5l-21 -112h-88l50 259q3 18 7 37.5t6 32.5t7.5 43t9 49l7 38t7.5 38h88q-7 -32 -19.5 -78.5t-36.5 -117.5h2q19 42 42.5 78.5t52.5 65.5t63 45.5t72 16.5q68 0 93.5 -44.5
t10.5 -124.5z" />
    <glyph glyph-name="o" unicode="o" horiz-adv-x="534" 
d="M412 316q0 51 -26 83t-79 32q-45 0 -79 -22.5t-56.5 -59.5t-33.5 -81t-11 -87q0 -51 26 -82.5t79 -31.5q45 0 79 22.5t56.5 59t33.5 80.5t11 87zM505 328q0 -65 -19 -125.5t-56.5 -108.5t-91.5 -75.5t-121 -27.5q-91 0 -137 48.5t-46 129.5q0 65 19 125.5t56.5 108.5
t91.5 75.5t121 27.5q46 0 81 -13t57.5 -37t33.5 -56.5t11 -71.5z" />
    <glyph glyph-name="p" unicode="p" horiz-adv-x="537" 
d="M417 339q0 49 -14 70t-37 21t-47 -15.5t-46 -40.5t-42.5 -58t-37 -68t-28 -70t-17.5 -64l-8 -38q16 -5 36 -8.5t36 -3.5q55 0 93.5 25.5t63.5 65.5t36.5 89t11.5 95zM508 356q0 -69 -18.5 -134t-56.5 -116t-97 -82t-141 -31q-36 0 -70 6l-46 -246h-88l97 506q1 6 4.5 24
t8 42.5t9.5 52.5t9.5 52.5t8 42.5t4.5 24h88q-3 -16 -7.5 -34t-11 -41.5t-15.5 -53.5t-22 -70l2 -1q19 44 43 82t53 66.5t63 45t72 16.5q54 0 82.5 -36t28.5 -115z" />
    <glyph glyph-name="q" unicode="q" horiz-adv-x="538" 
d="M403 425q-17 4 -34 6.5t-37 2.5q-53 0 -92.5 -24.5t-64.5 -65.5t-37 -89.5t-12 -96.5q0 -47 13.5 -69t37.5 -22q33 0 68.5 31t66 81t52.5 105t31 101zM363 -247h-88l43 229q5 24 10 46.5t12 47t16.5 55t23.5 71.5l-2 1q-17 -37 -37.5 -71.5t-49.5 -67t-65.5 -53.5
t-79.5 -21q-55 0 -83 37t-28 114q0 71 18.5 136t57.5 116.5t98.5 81.5t137.5 30q41 0 80.5 -4t75.5 -11z" />
    <glyph glyph-name="r" unicode="r" horiz-adv-x="349" 
d="M364 419q-33 9 -67.5 -16t-64.5 -73.5t-52.5 -106.5t-32.5 -111l-21 -112h-88l50 259q7 35 21.5 115t22.5 123h86q-6 -34 -18 -77t-33 -106l2 -1q23 50 45 86.5t47 62.5t54.5 38t63.5 6z" />
    <glyph glyph-name="s" unicode="s" horiz-adv-x="392" 
d="M345 425q-46 12 -81 12q-48 0 -73 -19.5t-25 -51.5q0 -19 10.5 -34.5t22.5 -24.5t41.5 -31t46.5 -38.5t28 -39t11 -50.5q0 -31 -13 -59.5t-39.5 -50.5t-66.5 -34.5t-93 -12.5q-56 0 -103 11l15 78q48 -17 100 -17q51 0 79 20t28 57q0 19 -10.5 34.5t-22.5 25.5
t-41.5 31.5t-46 38t-27.5 38.5t-11 50q0 30 13 56.5t38.5 47.5t62.5 32.5t84 11.5q19 0 41 -2t47 -5z" />
    <glyph glyph-name="t" unicode="t" horiz-adv-x="364" 
d="M365 427h-136l-49 -263q-11 -56 -1.5 -76t45.5 -20q16 0 35 2.5t39 6.5l-15 -76q-21 -4 -44.5 -6.5t-43.5 -2.5q-38 0 -62.5 9.5t-37 28.5t-14 49t6.5 73l53 275h-98l13 70h99l30 161l92 21l-34 -182h134z" />
    <glyph glyph-name="u" unicode="u" horiz-adv-x="563" 
d="M480 238q-2 -13 -7 -39.5t-8.5 -44.5t-7 -37t-7.5 -39t-7.5 -39.5t-6.5 -38.5h-88q5 29 18 76t37 120h-2q-19 -42 -42.5 -78.5t-52.5 -65.5t-63 -45.5t-72 -16.5q-67 0 -92.5 44.5t-10.5 124.5l64 338h88l-60 -318q-11 -58 -0.5 -85t43.5 -27t68 31t65.5 80t53 104.5
t30.5 102.5l21 112h89z" />
    <glyph glyph-name="v" unicode="v" horiz-adv-x="476" 
d="M243 0h-102l-82 497h94l46 -304q8 -59 9 -101h1l219 426l84 -29z" />
    <glyph glyph-name="w" unicode="w" horiz-adv-x="777" 
d="M560 0h-100l-40 295q-3 25 -4.5 51t-2.5 51h-1q-13 -32 -28 -64l-30 -64l-132 -269h-102l-54 497h95l25 -274q3 -33 5 -66t3 -61h1q12 31 27 64t29 64l136 273h97l33 -273q2 -23 4 -42.5t3 -33t1.5 -26.5t0.5 -27h2q12 31 25 60.5t31 67.5l140 295l84 -28z" />
    <glyph glyph-name="x" unicode="x" horiz-adv-x="508" 
d="M315 251l128 -251h-110l-88 192l-193 -218l-71 49l222 229l-124 245h104l87 -187l189 212l66 -47z" />
    <glyph glyph-name="y" unicode="y" horiz-adv-x="470" 
d="M98 -257l-87 28l135 222l-87 504h95l43 -267q5 -33 9 -64.5t6 -62.5h1l215 415l84 -29z" />
    <glyph glyph-name="z" unicode="z" horiz-adv-x="431" 
d="M414 434l-285 -353q14 1 35.5 1t45.5 0.5t45 0.5h96l-15 -83h-334l12 64l287 355q-25 -1 -55.5 -1.5t-66.5 -0.5h-93l15 80h325z" />
    <glyph glyph-name="braceleft" unicode="{" horiz-adv-x="335" 
d="M387 702q-26 0 -44.5 -6t-31 -20t-21.5 -37.5t-15 -58.5l-23 -118q-14 -70 -44 -106t-76 -41v-2q42 -7 59 -43t4 -104l-33 -172q-7 -35 -7 -58q0 -24 7 -38t23 -20t43 -6l-14 -71h-18q-83 0 -108.5 51.5t-7.5 143.5l34 175q11 60 -9 83.5t-74 26.5l14 71q29 1 50.5 7
t36 18t23.5 32.5t14 49.5l23 118q8 43 22.5 79t37 61.5t54 39.5t75.5 14h18z" />
    <glyph glyph-name="bar" unicode="|" horiz-adv-x="279" 
d="M82 -247h-70l190 1000h70z" />
    <glyph glyph-name="braceright" unicode="}" horiz-adv-x="335" 
d="M319 281q-29 -2 -50 -7.5t-35 -18t-23.5 -33t-15.5 -51.5l-34 -175q-18 -101 -62 -148t-126 -47h-19l13 71q26 0 44.5 6t31 20t21 37.5t15.5 58.5l34 175q13 71 43.5 107t76.5 42v2q-42 6 -59.5 42t-4.5 103l22 116q13 70 -1 95.5t-65 25.5l13 69h16q44 0 70.5 -14
t40 -39t15 -61t-7.5 -79l-23 -118q-11 -60 9 -82.5t75 -25.5z" />
    <glyph glyph-name="asciitilde" unicode="~" 
d="M556 574q-4 -72 -43 -114t-101 -42q-32 0 -56.5 12.5t-51.5 46.5t-40.5 42.5t-30.5 8.5q-29 0 -47 -24t-22 -65h-67q4 72 43 114.5t101 42.5q33 0 57.5 -13t51 -47t40 -42.5t30.5 -8.5q29 0 47 24t22 65h67z" />
    <glyph glyph-name="uni00A0" unicode="&#xa0;" horiz-adv-x="218" 
 />
    <glyph glyph-name="exclamdown" unicode="&#xa1;" horiz-adv-x="314" 
d="M115 -206h-104l116 535h74zM246 449q0 -26 -18 -43.5t-44 -17.5q-25 0 -41 16.5t-16 40.5q0 26 17.5 43.5t43.5 17.5q25 0 41.5 -16.5t16.5 -40.5z" />
    <glyph glyph-name="cent" unicode="&#xa2;" horiz-adv-x="446" 
d="M380 127q-22 -7 -49 -12.5t-55 -7.5l-26 -132h-69l26 134q-36 4 -63.5 17t-46 34t-27.5 51t-9 68q0 55 15 106.5t45 93.5t75 70.5t102 36.5l21 111h69l-20 -109q23 -2 47.5 -6t46.5 -11l-16 -78q-27 10 -55 16t-51 6q-50 0 -86.5 -21t-58.5 -55t-32.5 -72.5t-10.5 -73.5
q0 -25 6 -45t20 -34.5t36.5 -22.5t54.5 -8q28 0 61.5 6.5t64.5 18.5z" />
    <glyph glyph-name="sterling" unicode="&#xa3;" horiz-adv-x="462" 
d="M391 391l-13 -70h-138q-5 -49 -13 -84.5t-22 -63.5t-35 -51.5t-53 -47.5q23 2 48.5 3.5t51.5 1.5h186l-15 -79h-391l12 63q40 28 64.5 51.5t40.5 51.5t24.5 64.5t12.5 90.5h-106l13 70h95q1 41 5 77t13.5 68.5t25.5 59.5t40.5 46.5t59.5 30.5t81 11q25 0 50 -2.5t49 -8.5
l-15 -79q-24 8 -46 12.5t-43 4.5q-29 0 -50 -8t-35 -23t-23 -35t-13.5 -44.5t-6 -50.5t-2.5 -59h148z" />
    <glyph glyph-name="currency" unicode="&#xa4;" 
d="M398 370q0 34 -18.5 56t-62.5 22q-32 0 -56 -13.5t-40 -35.5t-24.5 -50t-8.5 -56q0 -35 18 -58.5t61 -23.5q30 0 54 14.5t41.5 37.5t26.5 51t9 56zM464 450q15 -23 15 -66q0 -44 -15 -88.5t-52 -83.5l64 -104l-73 -48l-61 108q-44 -24 -90 -24q-41 0 -67 13l-89 -97
l-61 51l90 90q-20 29 -20 79q0 46 17 92t56 83l-59 97l74 46l55 -101q20 10 41.5 14t42.5 4q20 0 40 -3.5t37 -13.5l94 101l57 -52z" />
    <glyph glyph-name="yen" unicode="&#xa5;" horiz-adv-x="579" 
d="M347 311l-3 -22h161l-12 -60h-161l-17 -86h162l-12 -60h-161l-15 -83h-89l14 83h-161l12 60h161l17 86h-162l12 60h161l4 22l-140 364h98l66 -187q8 -23 18 -52.5t15 -52.5h1q37 56 77 111l134 181h101z" />
    <glyph glyph-name="brokenbar" unicode="&#xa6;" horiz-adv-x="279" 
d="M82 -247h-70l71 378h70zM201 385h-70l71 368h70z" />
    <glyph glyph-name="section" unicode="&#xa7;" horiz-adv-x="509" 
d="M342 246q0 23 -9 44.5t-24 44t-34 46t-39 50.5q-34 -22 -48 -49.5t-14 -56.5q0 -22 9 -43.5t24 -43.5t34 -45.5t39 -48.5q34 21 48 48.5t14 53.5zM435 652q-33 10 -62 10q-32 0 -52 -10t-32 -24.5t-16.5 -31t-4.5 -30.5q0 -31 24.5 -62.5t54.5 -67.5t54.5 -78.5
t24.5 -96.5q0 -48 -26.5 -91.5t-78.5 -77.5q9 -17 14.5 -35.5t5.5 -39.5q0 -35 -14 -67.5t-40.5 -58t-65.5 -41t-88 -15.5q-21 0 -43 3t-40 8l18 77q38 -13 72 -13q30 0 51 10t33.5 24.5t18 31.5t5.5 31q0 22 -12 43.5t-29.5 44t-38 46t-38 50t-29.5 56t-12 63.5
q0 100 106 173q-22 41 -22 79q0 24 10.5 54t34.5 57t63 45t96 18q20 0 38.5 -2t35.5 -6z" />
    <glyph glyph-name="dieresis" unicode="&#xa8;" horiz-adv-x="456" 
d="M267 657q0 -24 -16 -40.5t-39 -16.5q-22 0 -37 15.5t-15 36.5q0 24 16 40t39 16q22 0 37 -15t15 -36zM455 657q0 -24 -16 -40.5t-39 -16.5q-22 0 -37 15.5t-15 37.5q0 23 16 39t39 16q22 0 37 -15t15 -36z" />
    <glyph glyph-name="copyright" unicode="&#xa9;" horiz-adv-x="741" 
d="M496 437q-39 15 -71 15t-55.5 -14.5t-38 -38.5t-21 -51.5t-6.5 -54.5q0 -35 17.5 -53t53.5 -18q20 0 42 3.5t43 10.5l-12 -65q-23 -6 -46.5 -9.5t-44.5 -3.5q-67 0 -98.5 31.5t-31.5 91.5q0 47 14 89.5t41 74.5t64.5 50t83.5 18q19 0 40.5 -3t37.5 -8zM651 360
q0 48 -17 92t-49 78t-77.5 53t-100.5 19q-54 0 -105.5 -21.5t-92 -61t-64 -93.5t-23.5 -117q0 -48 17 -92t49.5 -77.5t78 -52.5t100.5 -19q54 0 105.5 21.5t92 60.5t63.5 93t23 117zM724 365q0 -78 -29.5 -145t-81.5 -116t-117.5 -76t-134.5 -27q-71 0 -129 23.5t-99 66
t-62 97.5t-21 117q0 77 29.5 144t81 116t117 76t135.5 27q71 0 129 -23.5t99 -65.5t62 -97t21 -117z" />
    <glyph glyph-name="ordfeminine" unicode="&#xaa;" horiz-adv-x="393" 
d="M325 616q-12 3 -23.5 4t-23.5 1q-29 0 -52 -14t-39.5 -38t-25 -53.5t-8.5 -59.5q0 -29 8 -41.5t26 -12.5q21 0 42 15.5t39 42t31.5 60.5t20.5 69zM346 211h-289l13 68h289zM407 672q-8 -44 -17.5 -94t-18 -93.5t-15 -81t-9.5 -60.5h-74q4 17 11.5 42t18.5 58h-1
q-25 -51 -61 -78.5t-79 -27.5q-84 0 -84 102q0 48 14 92t41 77.5t67.5 53t92.5 19.5q18 0 37 -1t38 -3t39 -5z" />
    <glyph glyph-name="guillemotleft" unicode="&#xab;" horiz-adv-x="499" 
d="M152 292l64 -144l-72 -34l-80 183l143 178l63 -37zM341 292l71 -142l-71 -34l-88 181l151 176l61 -38z" />
    <glyph glyph-name="logicalnot" unicode="&#xac;" 
d="M456 103h-79l30 157h-361l14 75h361h79z" />
    <glyph glyph-name="registered" unicode="&#xae;" horiz-adv-x="551" 
d="M372 587q0 20 -27 20h-23l-12 -62h14q23 0 35.5 12.5t12.5 29.5zM425 595q0 -31 -19.5 -50.5t-48.5 -26.5q3 -5 7 -13.5t7 -16.5l28 -71h-55l-34 94h-7l-18 -94h-47l43 228h74q37 0 53.5 -13.5t16.5 -36.5zM488 537q0 31 -11.5 59t-31 49.5t-47 34t-58.5 12.5
q-33 0 -62.5 -13t-52.5 -35.5t-36.5 -54t-13.5 -67.5q0 -32 11.5 -60.5t31 -50t46.5 -34t59 -12.5q33 0 62.5 13t52.5 36t36.5 54.5t13.5 68.5zM548 540q0 -49 -19 -91t-50.5 -73t-73 -48.5t-85.5 -17.5t-82 16t-66 43.5t-43.5 65t-15.5 80.5q0 51 19 93.5t51 73t73 48
t86 17.5q44 0 81.5 -15.5t65.5 -43.5t43.5 -65.5t15.5 -82.5z" />
    <glyph glyph-name="macron" unicode="&#xaf;" horiz-adv-x="409" 
d="M401 616h-247l12 68h248z" />
    <glyph glyph-name="macron" unicode="&#x2c9;" horiz-adv-x="409" 
d="M401 616h-247l12 68h248z" />
    <glyph glyph-name="degree" unicode="&#xb0;" horiz-adv-x="368" 
d="M314 620q0 13 -3.5 24t-10.5 19t-17.5 12t-23.5 4q-29 0 -48.5 -22t-19.5 -57q0 -27 14.5 -42.5t40.5 -15.5q30 0 49 21.5t19 56.5zM385 627q0 -33 -11.5 -60t-32 -45.5t-47 -28.5t-55.5 -10q-56 0 -87 30t-31 80q0 33 11.5 60t32 45.5t47 28.5t55.5 10q56 0 87 -30
t31 -80z" />
    <glyph glyph-name="plusminus" unicode="&#xb1;" 
d="M460 0h-462l14 75h462zM525 336h-190l-37 -197h-85l37 197h-191l15 74h190l38 196h85l-37 -196h190z" />
    <glyph glyph-name="twosuperior" unicode="&#xb2;" horiz-adv-x="372" 
d="M63 350l12 67l116 102q60 50 87 87t27 70q0 26 -14 41t-44 15q-25 0 -51.5 -6.5t-54.5 -18.5l14 71q25 10 54.5 16.5t58.5 6.5q64 0 95.5 -27.5t31.5 -81.5q0 -49 -31.5 -97.5t-91.5 -97.5l-90 -77q33 1 82.5 2t102.5 1l-14 -73h-290z" />
    <glyph glyph-name="threesuperior" unicode="&#xb3;" horiz-adv-x="361" 
d="M361 502q0 -32 -14 -61t-40.5 -51t-65.5 -35t-87 -13q-24 0 -48 2t-42 6l13 66q20 -5 41.5 -8.5t39.5 -3.5q51 0 83.5 25t32.5 64q0 26 -25.5 41t-75.5 15q-10 0 -22 -0.5t-25 -1.5l12 60q79 0 119.5 23.5t40.5 61.5q0 47 -60 47q-21 0 -46.5 -5t-50.5 -13l12 63
q25 7 52.5 12t50.5 5q63 0 95.5 -25t32.5 -68q0 -42 -25.5 -74.5t-68.5 -46.5q32 -8 51.5 -31t19.5 -54z" />
    <glyph glyph-name="acute" unicode="&#xb4;" horiz-adv-x="343" 
d="M189 569l-36 45l150 137l46 -56z" />
    <glyph glyph-name="mu1" unicode="&#xb5;" horiz-adv-x="574" 
d="M507 -2q-13 -3 -25.5 -4.5t-20.5 -1.5q-41 0 -62.5 17t-21.5 60q0 22 6 52.5t22 74.5h-1q-17 -41 -39.5 -78t-49.5 -65t-57 -45t-63 -17q-70 0 -79 65q-1 -17 -1.5 -37t-2.5 -34q-8 -51 -12 -106.5t-4 -125.5h-88q1 95 10.5 168.5t23 138.5t29 127t28.5 134l34 176h88
l-54 -283q-8 -41 -9 -69.5t4 -45.5t16.5 -24.5t28.5 -7.5q33 0 67.5 32.5t64.5 80.5t52 103.5t30 101.5l21 112h89l-57 -297q-7 -35 -9.5 -59.5t-2.5 -38.5q0 -19 7 -26.5t21 -7.5q5 0 9 0.5t12 2.5z" />
    <glyph glyph-name="paragraph" unicode="&#xb6;" horiz-adv-x="565" 
d="M285 247q-47 0 -81.5 12.5t-57 35t-33.5 53.5t-11 68q0 47 17.5 93.5t52 83t81.5 58.5t113 24zM576 605h-70l-133 -701h-79h-72l13 70h72l133 701h79h69z" />
    <glyph glyph-name="periodcentered" unicode="&#xb7;" horiz-adv-x="230" 
d="M189 300q0 -28 -19 -47.5t-46 -19.5q-26 0 -43.5 18.5t-17.5 43.5q0 28 19.5 47.5t46.5 19.5q25 0 42.5 -18.5t17.5 -43.5z" />
    <glyph glyph-name="periodcentered" unicode="&#x2219;" horiz-adv-x="230" 
d="M189 300q0 -28 -19 -47.5t-46 -19.5q-26 0 -43.5 18.5t-17.5 43.5q0 28 19.5 47.5t46.5 19.5q25 0 42.5 -18.5t17.5 -43.5z" />
    <glyph glyph-name="cedilla" unicode="&#xb8;" horiz-adv-x="285" 
d="M118 -40q28 -49 15.5 -96.5t-60.5 -98.5h-78q24 25 38 46t20 40.5t2 39t-17 41.5z" />
    <glyph glyph-name="onesuperior" unicode="&#xb9;" horiz-adv-x="286" 
d="M146 350l70 364l-106 -33l13 71l118 40h73l-83 -442h-85z" />
    <glyph glyph-name="ordmasculine" unicode="&#xba;" horiz-adv-x="411" 
d="M341 551q0 32 -15 49.5t-48 17.5q-25 0 -44.5 -12.5t-33 -34t-20 -48t-6.5 -54.5q0 -32 15 -49.5t47 -17.5q25 0 45 12.5t33 34t20 48t7 54.5zM344 211h-286l13 68h286zM420 562q0 -47 -13.5 -88t-39.5 -72t-63 -48t-81 -17q-61 0 -94.5 32t-33.5 90q0 47 13.5 88
t39.5 72t62.5 48t80.5 17q62 0 95.5 -32.5t33.5 -89.5z" />
    <glyph glyph-name="guillemotright" unicode="&#xbb;" horiz-adv-x="499" 
d="M116 116l-62 38l126 143l-71 142l71 34l88 -181zM312 114l-63 37l120 146l-63 144l71 34l79 -183z" />
    <glyph glyph-name="onequarter" unicode="&#xbc;" horiz-adv-x="792" 
d="M146 350l70 364l-106 -33l13 71l118 40h73l-83 -442h-85zM18 -135l-51 41l796 901l49 -41zM651 -21l-19 -99h-82l18 99h-202l6 61l219 282h125l-52 -275h67l-13 -68h-67zM623 263l-170 -218q12 0 30 0.5t37 1t35 0.5h26z" />
    <glyph glyph-name="onehalf" unicode="&#xbd;" horiz-adv-x="844" 
d="M18 -135l-51 41l796 901l49 -41zM146 350l70 364l-106 -33l13 71l118 40h73l-83 -442h-85zM446 -120l12 67l116 102q60 50 87 87t27 70q0 26 -14 41t-44 15q-25 0 -51.5 -6.5t-54.5 -18.5l14 71q25 10 54.5 16.5t58.5 6.5q64 0 95.5 -27.5t31.5 -81.5q0 -49 -31.5 -97.5
t-91.5 -97.5l-90 -77q33 1 82.5 2t102.5 1l-14 -73h-290z" />
    <glyph glyph-name="threequarters" unicode="&#xbe;" horiz-adv-x="847" 
d="M72 -135l-51 41l796 901l49 -41zM361 502q0 -32 -14 -61t-40.5 -51t-65.5 -35t-87 -13q-24 0 -48 2t-42 6l13 66q20 -5 41.5 -8.5t39.5 -3.5q51 0 83.5 25t32.5 64q0 26 -25.5 41t-75.5 15q-10 0 -22 -0.5t-25 -1.5l12 60q79 0 119.5 23.5t40.5 61.5q0 47 -60 47
q-21 0 -46.5 -5t-50.5 -13l12 63q25 7 52.5 12t50.5 5q63 0 95.5 -25t32.5 -68q0 -42 -25.5 -74.5t-68.5 -46.5q32 -8 51.5 -31t19.5 -54zM706 -21l-19 -99h-82l18 99h-202l6 61l219 282h125l-52 -275h67l-13 -68h-67zM678 263l-170 -218q12 0 30 0.5t37 1t35 0.5h26z" />
    <glyph glyph-name="questiondown" unicode="&#xbf;" horiz-adv-x="436" 
d="M312 329q7 -48 -4.5 -86.5t-33 -66.5t-50.5 -53t-57.5 -50.5t-43.5 -49t-15 -52.5q0 -23 9.5 -41t30.5 -31.5t56.5 -21t86.5 -7.5l-15 -83q-66 0 -116.5 12t-83.5 35t-49.5 53.5t-16.5 68.5q0 41 16 73t38 54.5t60 55.5t59.5 57.5t34 57.5t6.5 75h88zM349 449
q0 -26 -18 -43.5t-44 -17.5q-25 0 -41.5 16.5t-16.5 40.5q0 26 18 43.5t44 17.5q25 0 41.5 -16.5t16.5 -40.5z" />
    <glyph glyph-name="Agrave" unicode="&#xc0;" horiz-adv-x="603" 
d="M451 0l-24 161h-281l-86 -161h-94l364 675h110l108 -675h-97zM379 493q-4 31 -7 53t-4 42h-1q-8 -19 -20 -43.5t-25 -50.5l-140 -260h236zM440 725l-177 58l37 68l165 -75z" />
    <glyph glyph-name="Aacute" unicode="&#xc1;" horiz-adv-x="603" 
d="M451 0l-24 161h-281l-86 -161h-94l364 675h110l108 -675h-97zM379 493q-4 31 -7 53t-4 42h-1q-8 -19 -20 -43.5t-25 -50.5l-140 -260h236zM342 725l-9 53l191 73l13 -71z" />
    <glyph glyph-name="Acircumflex" unicode="&#xc2;" horiz-adv-x="603" 
d="M451 0l-24 161h-281l-86 -161h-94l364 675h110l108 -675h-97zM379 493q-4 31 -7 53t-4 42h-1q-8 -19 -20 -43.5t-25 -50.5l-140 -260h236zM525 724l-119 60l-143 -60l-16 51l172 82l139 -82z" />
    <glyph glyph-name="Atilde" unicode="&#xc3;" horiz-adv-x="603" 
d="M451 0l-24 161h-281l-86 -161h-94l364 675h110l108 -675h-97zM379 493q-4 31 -7 53t-4 42h-1q-8 -19 -20 -43.5t-25 -50.5l-140 -260h236zM582 808q-43 -73 -112 -73q-22 0 -38.5 7t-36 20.5t-29.5 19t-24 5.5q-34 0 -64 -45l-44 33q21 36 50.5 55t63.5 19q22 0 38.5 -7
t35.5 -20.5t29 -19t24 -5.5q34 0 64 44z" />
    <glyph glyph-name="Adieresis" unicode="&#xc4;" horiz-adv-x="603" 
d="M451 0l-24 161h-281l-86 -161h-94l364 675h110l108 -675h-97zM379 493q-4 31 -7 53t-4 42h-1q-8 -19 -20 -43.5t-25 -50.5l-140 -260h236zM562 783q0 -22 -16 -38.5t-39 -16.5q-22 0 -37 15t-15 38t16.5 39t38.5 16q23 0 37.5 -15.5t14.5 -37.5zM352 783q0 -22 -16 -38.5
t-39 -16.5q-22 0 -37 15t-15 37q0 23 16.5 39.5t39.5 16.5q22 0 36.5 -15.5t14.5 -37.5z" />
    <glyph glyph-name="Aring" unicode="&#xc5;" horiz-adv-x="603" 
d="M451 0l-24 161h-281l-86 -161h-94l364 675h110l108 -675h-97zM379 493q-4 31 -7 53t-4 42h-1q-8 -19 -20 -43.5t-25 -50.5l-140 -260h236zM531 840q0 -27 -9.5 -51t-28 -41.5t-43 -27t-54.5 -9.5q-45 0 -72 22.5t-27 61.5q0 28 9.5 51.5t28 41t43 27t54.5 9.5
q45 0 72 -22.5t27 -61.5zM404 761q27 0 44 20t17 51q0 20 -10.5 31t-30.5 11q-27 0 -44 -20t-17 -51q0 -20 10.5 -31t30.5 -11z" />
    <glyph glyph-name="AE" unicode="&#xc6;" horiz-adv-x="817" 
d="M423 600q-17 -30 -38 -61.5t-54 -77.5l-159 -225h205l69 364h-23zM818 599h-284l-41 -214h260l-13 -74h-261l-44 -234h288l-14 -77h-289h-88l31 163h-237l-114 -163h-99l476 675h71h88h285z" />
    <glyph glyph-name="Ccedilla" unicode="&#xc7;" horiz-adv-x="571" 
d="M576 569q-72 33 -147 33q-68 0 -121 -31.5t-87.5 -84t-51.5 -116.5t-17 -129q0 -37 9.5 -67t30 -52.5t54 -35t79.5 -12.5q38 0 81.5 8.5t88.5 23.5l-17 -84q-41 -13 -87.5 -21.5t-90.5 -8.5q-71 0 -119.5 20t-76 54t-39 74t-11.5 84q0 83 23 164t70.5 148t121.5 107
t172 40q40 0 79 -7.5t73 -19.5zM295 -40q28 -49 15.5 -96.5t-60.5 -98.5h-78q24 25 38 46t20 40.5t2 39t-17 41.5z" />
    <glyph glyph-name="Egrave" unicode="&#xc8;" horiz-adv-x="525" 
d="M526 599h-284l-41 -214h261l-14 -74h-261l-44 -234h288l-14 -77h-288h-90l128 675h90h284zM397 725l-177 58l37 68l165 -75z" />
    <glyph glyph-name="Eacute" unicode="&#xc9;" horiz-adv-x="525" 
d="M526 599h-284l-41 -214h261l-14 -74h-261l-44 -234h288l-14 -77h-288h-90l128 675h90h284zM310 725l-9 53l191 73l13 -71z" />
    <glyph glyph-name="Ecircumflex" unicode="&#xca;" horiz-adv-x="525" 
d="M526 599h-284l-41 -214h261l-14 -74h-261l-44 -234h288l-14 -77h-288h-90l128 675h90h284zM493 724l-119 60l-143 -60l-16 51l172 82l139 -82z" />
    <glyph glyph-name="Edieresis" unicode="&#xcb;" horiz-adv-x="525" 
d="M526 599h-284l-41 -214h261l-14 -74h-261l-44 -234h288l-14 -77h-288h-90l128 675h90h284zM530 783q0 -22 -16 -38.5t-39 -16.5q-22 0 -37 15t-15 38t16.5 39t38.5 16q23 0 37.5 -15.5t14.5 -37.5zM320 783q0 -22 -16 -38.5t-39 -16.5q-22 0 -37 15t-15 37
q0 23 16.5 39.5t39.5 16.5q22 0 36.5 -15.5t14.5 -37.5z" />
    <glyph glyph-name="Igrave" unicode="&#xcc;" horiz-adv-x="257" 
d="M129 0h-90l128 675h90zM269 725l-177 58l37 68l165 -75z" />
    <glyph glyph-name="Iacute" unicode="&#xcd;" horiz-adv-x="257" 
d="M129 0h-90l128 675h90zM177 725l-9 53l191 73l13 -71z" />
    <glyph glyph-name="Icircumflex" unicode="&#xce;" horiz-adv-x="257" 
d="M129 0h-90l128 675h90zM352 724l-119 60l-143 -60l-16 51l172 82l139 -82z" />
    <glyph glyph-name="Idieresis" unicode="&#xcf;" horiz-adv-x="257" 
d="M129 0h-90l128 675h90zM381 783q0 -22 -16 -38.5t-39 -16.5q-22 0 -37 15t-15 38t16.5 39t38.5 16q23 0 37.5 -15.5t14.5 -37.5zM188 783q0 -22 -16 -38.5t-39 -16.5q-22 0 -37 15t-15 37q0 23 16.5 39.5t39.5 16.5q22 0 36.5 -15.5t14.5 -37.5z" />
    <glyph glyph-name="Eth" unicode="&#xd0;" horiz-adv-x="673" 
d="M560 424q0 41 -10.5 73t-34 56t-63.5 37t-98 13q-24 0 -42.5 -0.5t-61.5 -2.5l-42 -218h141l-13 -70h-141l-44 -232q17 -3 40 -4.5t41 -1.5q85 0 148 30t103 81t58.5 112.5t18.5 126.5zM657 433q0 -85 -27 -163.5t-82 -140.5t-138 -97.5t-192 -35.5q-39 0 -97 2t-74 2
l59 312h-88l13 70h88l55 292q58 1 106.5 2.5t88.5 1.5q76 0 131 -17.5t89.5 -49.5t51 -77t16.5 -101z" />
    <glyph glyph-name="Ntilde" unicode="&#xd1;" horiz-adv-x="667" 
d="M453 0l-170 395q-22 51 -35 87.5t-23 70.5h-2q-4 -28 -10.5 -71.5t-15 -94.5t-18 -102.5t-17.5 -95.5l-35 -189h-88l128 675h49.5h48.5l160 -372q38 -87 60 -161h1q4 33 11 76t15 92t17 99t18 96l33 170h87l-128 -675h-42.5h-43.5zM615 808q-43 -73 -112 -73
q-22 0 -38.5 7t-36 20.5t-29.5 19t-24 5.5q-34 0 -64 -45l-44 33q21 36 50.5 55t63.5 19q22 0 38.5 -7t35.5 -20.5t29 -19t24 -5.5q34 0 64 44z" />
    <glyph glyph-name="Ograve" unicode="&#xd2;" horiz-adv-x="695" 
d="M585 424q0 83 -41.5 131.5t-125.5 48.5q-58 0 -108 -28t-86.5 -77t-56 -113t-19.5 -135q0 -83 41.5 -131.5t125.5 -48.5q59 0 108.5 28t86 77t56 113t19.5 135zM682 439q0 -89 -27.5 -170.5t-78.5 -144.5t-122 -98.5t-156 -35.5q-122 0 -184 66.5t-62 179.5
q0 89 27 170.5t78 144.5t122 98.5t156 35.5q122 0 184.5 -66.5t62.5 -179.5zM484 725l-177 58l37 68l165 -75z" />
    <glyph glyph-name="Oacute" unicode="&#xd3;" horiz-adv-x="695" 
d="M585 424q0 83 -41.5 131.5t-125.5 48.5q-58 0 -108 -28t-86.5 -77t-56 -113t-19.5 -135q0 -83 41.5 -131.5t125.5 -48.5q59 0 108.5 28t86 77t56 113t19.5 135zM682 439q0 -89 -27.5 -170.5t-78.5 -144.5t-122 -98.5t-156 -35.5q-122 0 -184 66.5t-62 179.5
q0 89 27 170.5t78 144.5t122 98.5t156 35.5q122 0 184.5 -66.5t62.5 -179.5zM406 725l-9 53l191 73l13 -71z" />
    <glyph glyph-name="Ocircumflex" unicode="&#xd4;" horiz-adv-x="695" 
d="M585 424q0 83 -41.5 131.5t-125.5 48.5q-58 0 -108 -28t-86.5 -77t-56 -113t-19.5 -135q0 -83 41.5 -131.5t125.5 -48.5q59 0 108.5 28t86 77t56 113t19.5 135zM682 439q0 -89 -27.5 -170.5t-78.5 -144.5t-122 -98.5t-156 -35.5q-122 0 -184 66.5t-62 179.5
q0 89 27 170.5t78 144.5t122 98.5t156 35.5q122 0 184.5 -66.5t62.5 -179.5zM579 724l-119 60l-143 -60l-16 51l172 82l139 -82z" />
    <glyph glyph-name="Otilde" unicode="&#xd5;" horiz-adv-x="695" 
d="M585 424q0 83 -41.5 131.5t-125.5 48.5q-58 0 -108 -28t-86.5 -77t-56 -113t-19.5 -135q0 -83 41.5 -131.5t125.5 -48.5q59 0 108.5 28t86 77t56 113t19.5 135zM682 439q0 -89 -27.5 -170.5t-78.5 -144.5t-122 -98.5t-156 -35.5q-122 0 -184 66.5t-62 179.5
q0 89 27 170.5t78 144.5t122 98.5t156 35.5q122 0 184.5 -66.5t62.5 -179.5zM626 808q-43 -73 -112 -73q-22 0 -38.5 7t-36 20.5t-29.5 19t-24 5.5q-34 0 -64 -45l-44 33q21 36 50.5 55t63.5 19q22 0 38.5 -7t35.5 -20.5t29 -19t24 -5.5q34 0 64 44z" />
    <glyph glyph-name="Odieresis" unicode="&#xd6;" horiz-adv-x="695" 
d="M585 424q0 83 -41.5 131.5t-125.5 48.5q-58 0 -108 -28t-86.5 -77t-56 -113t-19.5 -135q0 -83 41.5 -131.5t125.5 -48.5q59 0 108.5 28t86 77t56 113t19.5 135zM682 439q0 -89 -27.5 -170.5t-78.5 -144.5t-122 -98.5t-156 -35.5q-122 0 -184 66.5t-62 179.5
q0 89 27 170.5t78 144.5t122 98.5t156 35.5q122 0 184.5 -66.5t62.5 -179.5zM612 783q0 -22 -16 -38.5t-39 -16.5q-22 0 -37 15t-15 38t16.5 39t38.5 16q23 0 37.5 -15.5t14.5 -37.5zM402 783q0 -22 -16 -38.5t-39 -16.5q-22 0 -37 15t-15 37q0 23 16.5 39.5t39.5 16.5
q22 0 36.5 -15.5t14.5 -37.5z" />
    <glyph glyph-name="multiply" unicode="&#xd7;" 
d="M338 295l136 -169l-60 -49l-135 168l-200 -168l-46 54l201 169l-136 169l60 48l136 -167l199 167l45 -54z" />
    <glyph glyph-name="Oslash" unicode="&#xd8;" horiz-adv-x="695" 
d="M48 -59l75 107q-33 30 -52 78t-19 110q0 89 27 170.5t78 144.5t122 98.5t156 35.5q33 0 64 -6.5t53 -16.5l74 105l59 -33l-75 -107q33 -28 52.5 -76.5t19.5 -111.5q0 -89 -27.5 -170.5t-78.5 -144.5t-122 -98.5t-156 -35.5q-35 0 -65 6.5t-52 17.5l-74 -106zM234 88
q14 -9 35.5 -14t45.5 -5q59 0 109.5 28t87 77.5t56.5 114t20 134.5q0 39 -9 71.5t-25 53.5zM499 587q-13 8 -34.5 13.5t-45.5 5.5q-59 0 -109.5 -28t-87.5 -77.5t-57 -114t-20 -134.5q0 -41 9.5 -71t25.5 -51z" />
    <glyph glyph-name="Ugrave" unicode="&#xd9;" horiz-adv-x="679" 
d="M597 247q-24 -130 -101.5 -193.5t-205.5 -63.5q-72 0 -118 18.5t-68.5 51.5t-26.5 77t6 98l84 440h90l-85 -444q-16 -84 13.5 -124.5t116.5 -40.5q44 0 78.5 10t60 32.5t43 59t27.5 89.5l79 418h89zM464 725l-177 58l37 68l165 -75z" />
    <glyph glyph-name="Uacute" unicode="&#xda;" horiz-adv-x="679" 
d="M597 247q-24 -130 -101.5 -193.5t-205.5 -63.5q-72 0 -118 18.5t-68.5 51.5t-26.5 77t6 98l84 440h90l-85 -444q-16 -84 13.5 -124.5t116.5 -40.5q44 0 78.5 10t60 32.5t43 59t27.5 89.5l79 418h89zM417 725l-9 53l191 73l13 -71z" />
    <glyph glyph-name="Ucircumflex" unicode="&#xdb;" horiz-adv-x="679" 
d="M597 247q-24 -130 -101.5 -193.5t-205.5 -63.5q-72 0 -118 18.5t-68.5 51.5t-26.5 77t6 98l84 440h90l-85 -444q-16 -84 13.5 -124.5t116.5 -40.5q44 0 78.5 10t60 32.5t43 59t27.5 89.5l79 418h89zM565 724l-119 60l-143 -60l-16 51l172 82l139 -82z" />
    <glyph glyph-name="Udieresis" unicode="&#xdc;" horiz-adv-x="679" 
d="M597 247q-24 -130 -101.5 -193.5t-205.5 -63.5q-72 0 -118 18.5t-68.5 51.5t-26.5 77t6 98l84 440h90l-85 -444q-16 -84 13.5 -124.5t116.5 -40.5q44 0 78.5 10t60 32.5t43 59t27.5 89.5l79 418h89zM600 783q0 -22 -16 -38.5t-39 -16.5q-22 0 -37 15t-15 38t16.5 39
t38.5 16q23 0 37.5 -15.5t14.5 -37.5zM390 783q0 -22 -16 -38.5t-39 -16.5q-22 0 -37 15t-15 37q0 23 16.5 39.5t39.5 16.5q22 0 36.5 -15.5t14.5 -37.5z" />
    <glyph glyph-name="Yacute" unicode="&#xdd;" horiz-adv-x="526" 
d="M311 259l-49 -259h-90l49 259l-135 416h96l71 -220q8 -29 14.5 -54t14.5 -57h1q15 25 30.5 48.5t43.5 66.5l152 216h98zM337 725l-9 53l191 73l13 -71z" />
    <glyph glyph-name="Thorn" unicode="&#xde;" horiz-adv-x="526" 
d="M440 395q0 49 -34 79t-107 30q-26 0 -46.5 -1.5t-29.5 -2.5l-55 -289q10 -1 31 -3t42 -2q50 0 88.5 16.5t63 44.5t36 61.5t11.5 66.5zM534 407q0 -53 -20.5 -103t-60 -89t-97 -61.5t-128.5 -22.5q-25 0 -45.5 1t-29.5 2l-24 -134h-90l128 675h90l-19 -98q12 1 35.5 1.5
t40.5 0.5q108 0 164 -47t56 -125z" />
    <glyph glyph-name="germandbls" unicode="&#xdf;" horiz-adv-x="566" 
d="M540 618q0 -35 -11 -60t-28.5 -42.5t-47.5 -38.5t-42.5 -31t-23.5 -27.5t-11 -41.5q0 -27 14 -47t45 -52.5t47 -59.5t16 -64q0 -33 -14 -63t-41.5 -52.5t-66 -35t-86.5 -12.5q-23 0 -43.5 1.5t-38.5 5.5l15 78q19 -6 40 -9t37 -3q49 0 77 21.5t28 58.5q0 28 -14 48
t-44.5 51.5t-46 58t-15.5 63.5q0 33 11 57t28 40.5t45 37.5t42 32.5t25 30t11 43.5q0 26 -19 42.5t-55 16.5q-59 0 -96.5 -38.5t-53.5 -121.5l-101 -532q-12 -61 -30.5 -104t-45 -70.5t-61.5 -40.5t-81 -13q-14 0 -27.5 1.5t-19.5 2.5l14 75q5 -1 16.5 -2.5t25.5 -1.5
q26 0 44.5 8t32.5 26t24.5 47t18.5 72l100 527q23 121 87 178t165 57q72 0 113.5 -32t41.5 -85z" />
    <glyph glyph-name="agrave" unicode="&#xe0;" horiz-adv-x="538" 
d="M403 425q-17 4 -34 6.5t-37 2.5q-53 0 -92.5 -24.5t-64.5 -65.5t-37 -89.5t-12 -96.5q0 -47 13.5 -69t37.5 -22q33 0 68.5 31t66 81t52.5 105t31 101zM503 490q-19 -100 -34 -179.5t-25 -130t-17.5 -93.5t-15.5 -87h-89q13 63 58 202l-2 1q-17 -37 -37.5 -71.5t-49.5 -67
t-65.5 -53.5t-79.5 -21q-55 0 -83 37t-28 114q0 71 18.5 136t57.5 116.5t98.5 81.5t137.5 30q41 0 80.5 -4t75.5 -11zM354 569l-115 130l62 52l103 -140z" />
    <glyph glyph-name="aacute" unicode="&#xe1;" horiz-adv-x="538" 
d="M403 425q-17 4 -34 6.5t-37 2.5q-53 0 -92.5 -24.5t-64.5 -65.5t-37 -89.5t-12 -96.5q0 -47 13.5 -69t37.5 -22q33 0 68.5 31t66 81t52.5 105t31 101zM503 490q-19 -100 -34 -179.5t-25 -130t-17.5 -93.5t-15.5 -87h-89q13 63 58 202l-2 1q-17 -37 -37.5 -71.5t-49.5 -67
t-65.5 -53.5t-79.5 -21q-55 0 -83 37t-28 114q0 71 18.5 136t57.5 116.5t98.5 81.5t137.5 30q41 0 80.5 -4t75.5 -11zM330 569l-36 45l150 137l46 -56z" />
    <glyph glyph-name="acircumflex" unicode="&#xe2;" horiz-adv-x="538" 
d="M403 425q-17 4 -34 6.5t-37 2.5q-53 0 -92.5 -24.5t-64.5 -65.5t-37 -89.5t-12 -96.5q0 -47 13.5 -69t37.5 -22q33 0 68.5 31t66 81t52.5 105t31 101zM503 490q-19 -100 -34 -179.5t-25 -130t-17.5 -93.5t-15.5 -87h-89q13 63 58 202l-2 1q-17 -37 -37.5 -71.5t-49.5 -67
t-65.5 -53.5t-79.5 -21q-55 0 -83 37t-28 114q0 71 18.5 136t57.5 116.5t98.5 81.5t137.5 30q41 0 80.5 -4t75.5 -11zM436 570l-81 85l-116 -85l-30 44l160 130l113 -131z" />
    <glyph glyph-name="atilde" unicode="&#xe3;" horiz-adv-x="538" 
d="M403 425q-17 4 -34 6.5t-37 2.5q-53 0 -92.5 -24.5t-64.5 -65.5t-37 -89.5t-12 -96.5q0 -47 13.5 -69t37.5 -22q33 0 68.5 31t66 81t52.5 105t31 101zM503 490q-19 -100 -34 -179.5t-25 -130t-17.5 -93.5t-15.5 -87h-89q13 63 58 202l-2 1q-17 -37 -37.5 -71.5t-49.5 -67
t-65.5 -53.5t-79.5 -21q-55 0 -83 37t-28 114q0 71 18.5 136t57.5 116.5t98.5 81.5t137.5 30q41 0 80.5 -4t75.5 -11zM526 671q-20 -37 -49.5 -57.5t-62.5 -20.5q-22 0 -37.5 7.5t-34 21.5t-27.5 20t-22 6q-33 0 -62 -47l-44 35q20 38 48.5 58t61.5 20q22 0 38 -7
t34.5 -21.5t28 -20t22.5 -5.5q34 0 61 46z" />
    <glyph glyph-name="adieresis" unicode="&#xe4;" horiz-adv-x="538" 
d="M403 425q-17 4 -34 6.5t-37 2.5q-53 0 -92.5 -24.5t-64.5 -65.5t-37 -89.5t-12 -96.5q0 -47 13.5 -69t37.5 -22q33 0 68.5 31t66 81t52.5 105t31 101zM503 490q-19 -100 -34 -179.5t-25 -130t-17.5 -93.5t-15.5 -87h-89q13 63 58 202l-2 1q-17 -37 -37.5 -71.5t-49.5 -67
t-65.5 -53.5t-79.5 -21q-55 0 -83 37t-28 114q0 71 18.5 136t57.5 116.5t98.5 81.5t137.5 30q41 0 80.5 -4t75.5 -11zM313 657q0 -24 -16 -40.5t-39 -16.5q-22 0 -37 15.5t-15 36.5q0 24 16 40t39 16q22 0 37 -15t15 -36zM501 657q0 -24 -16 -40.5t-39 -16.5q-22 0 -37 15.5
t-15 37.5q0 23 16 39t39 16q22 0 37 -15t15 -36z" />
    <glyph glyph-name="aring" unicode="&#xe5;" horiz-adv-x="538" 
d="M403 425q-17 4 -34 6.5t-37 2.5q-53 0 -92.5 -24.5t-64.5 -65.5t-37 -89.5t-12 -96.5q0 -47 13.5 -69t37.5 -22q33 0 68.5 31t66 81t52.5 105t31 101zM503 490q-19 -100 -34 -179.5t-25 -130t-17.5 -93.5t-15.5 -87h-89q13 63 58 202l-2 1q-17 -37 -37.5 -71.5t-49.5 -67
t-65.5 -53.5t-79.5 -21q-55 0 -83 37t-28 114q0 71 18.5 136t57.5 116.5t98.5 81.5t137.5 30q41 0 80.5 -4t75.5 -11zM477 681q0 -28 -10 -52t-28 -42t-43.5 -28t-55.5 -10q-44 0 -69.5 23.5t-25.5 62.5q0 28 10 52t28 42t43.5 28t56.5 10q43 0 68.5 -23.5t25.5 -62.5z
M350 601q27 0 44 20.5t17 49.5q0 20 -10 32.5t-29 12.5q-28 0 -45 -20.5t-17 -50.5q0 -20 10 -32t30 -12z" />
    <glyph glyph-name="ae" unicode="&#xe6;" horiz-adv-x="765" 
d="M334 224q-52 -2 -91.5 -7.5t-69 -17t-45.5 -31.5t-16 -48q0 -24 15.5 -41t44.5 -17q28 0 54.5 13.5t49 36.5t37.5 52t21 60zM655 382q0 26 -18 40.5t-49 14.5q-28 0 -53 -11.5t-44 -32t-33.5 -47.5t-22.5 -59q57 2 98.5 9t68.5 19t40 28.5t13 38.5zM745 393
q0 -38 -19.5 -68.5t-59 -53t-100.5 -35t-143 -15.5q-2 -11 -3.5 -28t-1.5 -32q0 -29 5.5 -47.5t17 -29.5t30.5 -15.5t47 -4.5q34 0 73.5 7.5t78.5 20.5l-15 -78q-41 -12 -79 -17.5t-82 -5.5q-39 0 -66.5 7t-45.5 21.5t-28 34.5t-15 48q-13 -22 -33 -42t-45.5 -35.5
t-55 -24.5t-60.5 -9q-58 0 -90 31.5t-32 82.5q0 48 24 82.5t67.5 56t102 32t130.5 12.5l6 30q13 61 -5.5 89.5t-76.5 28.5q-36 0 -76.5 -9t-82.5 -24l14 76q40 13 80.5 20.5t80.5 7.5q33 0 57.5 -6t40.5 -17t26 -25t16 -31q13 15 30.5 29t39.5 25t48 17.5t54 6.5
q38 0 66.5 -9t46 -25t25.5 -36t8 -43z" />
    <glyph glyph-name="ccedilla" unicode="&#xe7;" horiz-adv-x="412" 
d="M406 408q-22 10 -47 15.5t-48 5.5q-45 0 -80 -22.5t-58 -60t-34 -82t-11 -88.5q0 -22 4.5 -40t16 -33t32.5 -24t52 -9q28 0 56.5 5.5t60.5 17.5l-15 -79q-31 -10 -63 -16t-63 -6q-47 0 -81 12t-54.5 34t-30 51.5t-9.5 66.5q0 71 19.5 134.5t56.5 112t90 75.5t118 27
q24 0 51 -4.5t52 -11.5zM204 -40q28 -49 15.5 -96.5t-60.5 -98.5h-78q24 25 38 46t20 40.5t2 39t-17 41.5z" />
    <glyph glyph-name="egrave" unicode="&#xe8;" horiz-adv-x="473" 
d="M363 382q0 26 -18 40.5t-49 14.5q-29 0 -53.5 -11.5t-44 -32.5t-33.5 -48.5t-23 -59.5q115 4 168 28t53 69zM453 393q0 -162 -323 -174q-2 -10 -3.5 -27t-1.5 -31q0 -29 5.5 -47.5t17.5 -29.5t31 -15.5t47 -4.5q33 0 72.5 7.5t79.5 20.5l-15 -78q-41 -12 -79.5 -17.5
t-81.5 -5.5q-87 0 -127.5 38.5t-40.5 122.5q0 72 19.5 136.5t55.5 113.5t87 76.5t111 27.5q38 0 66 -9t45.5 -25t26 -36t8.5 -43zM313 569l-115 130l62 52l103 -140z" />
    <glyph glyph-name="eacute" unicode="&#xe9;" horiz-adv-x="473" 
d="M363 382q0 26 -18 40.5t-49 14.5q-29 0 -53.5 -11.5t-44 -32.5t-33.5 -48.5t-23 -59.5q115 4 168 28t53 69zM453 393q0 -162 -323 -174q-2 -10 -3.5 -27t-1.5 -31q0 -29 5.5 -47.5t17.5 -29.5t31 -15.5t47 -4.5q33 0 72.5 7.5t79.5 20.5l-15 -78q-41 -12 -79.5 -17.5
t-81.5 -5.5q-87 0 -127.5 38.5t-40.5 122.5q0 72 19.5 136.5t55.5 113.5t87 76.5t111 27.5q38 0 66 -9t45.5 -25t26 -36t8.5 -43zM293 569l-36 45l150 137l46 -56z" />
    <glyph glyph-name="ecircumflex" unicode="&#xea;" horiz-adv-x="473" 
d="M363 382q0 26 -18 40.5t-49 14.5q-29 0 -53.5 -11.5t-44 -32.5t-33.5 -48.5t-23 -59.5q115 4 168 28t53 69zM453 393q0 -162 -323 -174q-2 -10 -3.5 -27t-1.5 -31q0 -29 5.5 -47.5t17.5 -29.5t31 -15.5t47 -4.5q33 0 72.5 7.5t79.5 20.5l-15 -78q-41 -12 -79.5 -17.5
t-81.5 -5.5q-87 0 -127.5 38.5t-40.5 122.5q0 72 19.5 136.5t55.5 113.5t87 76.5t111 27.5q38 0 66 -9t45.5 -25t26 -36t8.5 -43zM407 570l-81 85l-116 -85l-30 44l160 130l113 -131z" />
    <glyph glyph-name="edieresis" unicode="&#xeb;" horiz-adv-x="473" 
d="M363 382q0 26 -18 40.5t-49 14.5q-29 0 -53.5 -11.5t-44 -32.5t-33.5 -48.5t-23 -59.5q115 4 168 28t53 69zM453 393q0 -162 -323 -174q-2 -10 -3.5 -27t-1.5 -31q0 -29 5.5 -47.5t17.5 -29.5t31 -15.5t47 -4.5q33 0 72.5 7.5t79.5 20.5l-15 -78q-41 -12 -79.5 -17.5
t-81.5 -5.5q-87 0 -127.5 38.5t-40.5 122.5q0 72 19.5 136.5t55.5 113.5t87 76.5t111 27.5q38 0 66 -9t45.5 -25t26 -36t8.5 -43zM286 657q0 -24 -16 -40.5t-39 -16.5q-22 0 -37 15.5t-15 36.5q0 24 16 40t39 16q22 0 37 -15t15 -36zM474 657q0 -24 -16 -40.5t-39 -16.5
q-22 0 -37 15.5t-15 37.5q0 23 16 39t39 16q22 0 37 -15t15 -36z" />
    <glyph glyph-name="igrave" unicode="&#xec;" horiz-adv-x="254" 
d="M126 0h-88l94 497h88zM180 564l-69 160l72 34l55 -166z" />
    <glyph glyph-name="iacute" unicode="&#xed;" horiz-adv-x="254" 
d="M126 0h-88l94 497h88zM196 568l-45 36l129 151l56 -44z" />
    <glyph glyph-name="icircumflex" unicode="&#xee;" horiz-adv-x="254" 
d="M126 0h-88l94 497h88zM275 570l-69 85l-104 -85l-29 43l148 130l99 -131z" />
    <glyph glyph-name="idieresis" unicode="&#xef;" horiz-adv-x="254" 
d="M126 0h-88l94 497h88zM174 657q0 -24 -16 -40.5t-39 -16.5q-22 0 -37 15.5t-15 36.5q0 24 16.5 40t39.5 16q22 0 36.5 -15t14.5 -36zM345 657q0 -24 -16 -40.5t-39 -16.5q-22 0 -37 15.5t-15 37.5q0 23 16.5 39t38.5 16t37 -15t15 -36z" />
    <glyph glyph-name="eth" unicode="&#xf0;" horiz-adv-x="535" 
d="M412 321q0 50 -26.5 80t-76.5 30q-42 0 -76 -20.5t-58 -55t-36.5 -77.5t-12.5 -87q0 -59 28 -91.5t78 -32.5q49 0 84 26.5t56 67.5t30.5 83.5t9.5 76.5zM433 630q38 -60 56.5 -126.5t18.5 -135.5q0 -79 -20.5 -148t-59 -120.5t-91.5 -80t-116 -28.5q-90 0 -138.5 45
t-48.5 135q0 66 20 126.5t58 107.5t90 73.5t113 26.5q36 0 63 -11t38 -34q-4 13 -10 28.5t-9 22.5q-12 26 -23 46.5t-23 38.5l-112 -46l-28 49l102 43q-13 15 -28.5 30t-35.5 33l88 39q18 -17 33 -33.5t28 -32.5l110 45l27 -50z" />
    <glyph glyph-name="ntilde" unicode="&#xf1;" horiz-adv-x="563" 
d="M435 0h-88l61 318q11 58 0.5 85t-44.5 27q-33 0 -67.5 -31t-65.5 -80t-53 -104.5t-31 -102.5l-21 -112h-88l50 259q3 18 7 37.5t6 32.5t7.5 43t9 49l7 38t7.5 38h88q-7 -32 -19.5 -78.5t-36.5 -117.5h2q19 42 42.5 78.5t52.5 65.5t63 45.5t72 16.5q68 0 93.5 -44.5
t10.5 -124.5zM534 671q-20 -37 -49.5 -57.5t-62.5 -20.5q-22 0 -37.5 7.5t-34 21.5t-27.5 20t-22 6q-33 0 -62 -47l-44 35q20 38 48.5 58t61.5 20q22 0 38 -7t34.5 -21.5t28 -20t22.5 -5.5q34 0 61 46z" />
    <glyph glyph-name="ograve" unicode="&#xf2;" horiz-adv-x="534" 
d="M412 316q0 51 -26 83t-79 32q-45 0 -79 -22.5t-56.5 -59.5t-33.5 -81t-11 -87q0 -51 26 -82.5t79 -31.5q45 0 79 22.5t56.5 59t33.5 80.5t11 87zM505 328q0 -65 -19 -125.5t-56.5 -108.5t-91.5 -75.5t-121 -27.5q-91 0 -137 48.5t-46 129.5q0 65 19 125.5t56.5 108.5
t91.5 75.5t121 27.5q46 0 81 -13t57.5 -37t33.5 -56.5t11 -71.5zM344 569l-115 130l62 52l103 -140z" />
    <glyph glyph-name="oacute" unicode="&#xf3;" horiz-adv-x="534" 
d="M412 316q0 51 -26 83t-79 32q-45 0 -79 -22.5t-56.5 -59.5t-33.5 -81t-11 -87q0 -51 26 -82.5t79 -31.5q45 0 79 22.5t56.5 59t33.5 80.5t11 87zM505 328q0 -65 -19 -125.5t-56.5 -108.5t-91.5 -75.5t-121 -27.5q-91 0 -137 48.5t-46 129.5q0 65 19 125.5t56.5 108.5
t91.5 75.5t121 27.5q46 0 81 -13t57.5 -37t33.5 -56.5t11 -71.5zM325 569l-36 45l150 137l46 -56z" />
    <glyph glyph-name="ocircumflex" unicode="&#xf4;" horiz-adv-x="534" 
d="M412 316q0 51 -26 83t-79 32q-45 0 -79 -22.5t-56.5 -59.5t-33.5 -81t-11 -87q0 -51 26 -82.5t79 -31.5q45 0 79 22.5t56.5 59t33.5 80.5t11 87zM505 328q0 -65 -19 -125.5t-56.5 -108.5t-91.5 -75.5t-121 -27.5q-91 0 -137 48.5t-46 129.5q0 65 19 125.5t56.5 108.5
t91.5 75.5t121 27.5q46 0 81 -13t57.5 -37t33.5 -56.5t11 -71.5zM431 570l-81 85l-116 -85l-30 44l160 130l113 -131z" />
    <glyph glyph-name="otilde" unicode="&#xf5;" horiz-adv-x="534" 
d="M412 316q0 51 -26 83t-79 32q-45 0 -79 -22.5t-56.5 -59.5t-33.5 -81t-11 -87q0 -51 26 -82.5t79 -31.5q45 0 79 22.5t56.5 59t33.5 80.5t11 87zM505 328q0 -65 -19 -125.5t-56.5 -108.5t-91.5 -75.5t-121 -27.5q-91 0 -137 48.5t-46 129.5q0 65 19 125.5t56.5 108.5
t91.5 75.5t121 27.5q46 0 81 -13t57.5 -37t33.5 -56.5t11 -71.5zM521 671q-20 -37 -49.5 -57.5t-62.5 -20.5q-22 0 -37.5 7.5t-34 21.5t-27.5 20t-22 6q-33 0 -62 -47l-44 35q20 38 48.5 58t61.5 20q22 0 38 -7t34.5 -21.5t28 -20t22.5 -5.5q34 0 61 46z" />
    <glyph glyph-name="odieresis" unicode="&#xf6;" horiz-adv-x="534" 
d="M412 316q0 51 -26 83t-79 32q-45 0 -79 -22.5t-56.5 -59.5t-33.5 -81t-11 -87q0 -51 26 -82.5t79 -31.5q45 0 79 22.5t56.5 59t33.5 80.5t11 87zM505 328q0 -65 -19 -125.5t-56.5 -108.5t-91.5 -75.5t-121 -27.5q-91 0 -137 48.5t-46 129.5q0 65 19 125.5t56.5 108.5
t91.5 75.5t121 27.5q46 0 81 -13t57.5 -37t33.5 -56.5t11 -71.5zM308 657q0 -24 -16 -40.5t-39 -16.5q-22 0 -37 15.5t-15 36.5q0 24 16 40t39 16q22 0 37 -15t15 -36zM496 657q0 -24 -16 -40.5t-39 -16.5q-22 0 -37 15.5t-15 37.5q0 23 16 39t39 16q22 0 37 -15t15 -36z
" />
    <glyph glyph-name="divide" unicode="&#xf7;" 
d="M304 97q0 -26 -17.5 -44t-42.5 -18t-42 17.5t-17 41.5q0 26 17.5 44t43.5 18q24 0 41 -17.5t17 -41.5zM511 260h-465l14 75h465zM383 500q0 -26 -18 -44t-43 -18t-42 17.5t-17 41.5q0 26 18 44t43 18t42 -17.5t17 -41.5z" />
    <glyph glyph-name="oslash" unicode="&#xf8;" horiz-adv-x="534" 
d="M358 422q-21 13 -50 13q-47 0 -82.5 -23t-59 -60.5t-34.5 -81.5t-11 -87q0 -22 4.5 -39.5t11.5 -31.5zM418 314q0 22 -4.5 40.5t-11.5 30.5l-221 -310q20 -12 51 -12q46 0 82 22.5t59 60t34 81.5t11 87zM505 328q0 -65 -19 -125.5t-56.5 -108.5t-91.5 -75.5t-121 -27.5
q-24 0 -46 4.5t-38 11.5l-67 -96l-51 29l69 97q-16 16 -27 36t-17 44t-6 52q0 65 19 125.5t56.5 108.5t91.5 75.5t121 27.5q47 0 83 -16l68 96l51 -29l-69 -97q16 -16 27 -35.5t17 -44t6 -52.5z" />
    <glyph glyph-name="ugrave" unicode="&#xf9;" horiz-adv-x="563" 
d="M480 238q-2 -13 -7 -39.5t-8.5 -44.5t-7 -37t-7.5 -39t-7.5 -39.5t-6.5 -38.5h-88q5 29 18 76t37 120h-2q-19 -42 -42.5 -78.5t-52.5 -65.5t-63 -45.5t-72 -16.5q-67 0 -92.5 44.5t-10.5 124.5l64 338h88l-60 -318q-11 -58 -0.5 -85t43.5 -27t68 31t65.5 80t53 104.5
t30.5 102.5l21 112h89zM349 569l-115 130l62 52l103 -140z" />
    <glyph glyph-name="uacute" unicode="&#xfa;" horiz-adv-x="563" 
d="M480 238q-2 -13 -7 -39.5t-8.5 -44.5t-7 -37t-7.5 -39t-7.5 -39.5t-6.5 -38.5h-88q5 29 18 76t37 120h-2q-19 -42 -42.5 -78.5t-52.5 -65.5t-63 -45.5t-72 -16.5q-67 0 -92.5 44.5t-10.5 124.5l64 338h88l-60 -318q-11 -58 -0.5 -85t43.5 -27t68 31t65.5 80t53 104.5
t30.5 102.5l21 112h89zM343 569l-36 45l150 137l46 -56z" />
    <glyph glyph-name="ucircumflex" unicode="&#xfb;" horiz-adv-x="563" 
d="M480 238q-2 -13 -7 -39.5t-8.5 -44.5t-7 -37t-7.5 -39t-7.5 -39.5t-6.5 -38.5h-88q5 29 18 76t37 120h-2q-19 -42 -42.5 -78.5t-52.5 -65.5t-63 -45.5t-72 -16.5q-67 0 -92.5 44.5t-10.5 124.5l64 338h88l-60 -318q-11 -58 -0.5 -85t43.5 -27t68 31t65.5 80t53 104.5
t30.5 102.5l21 112h89zM443 570l-81 85l-116 -85l-30 44l160 130l113 -131z" />
    <glyph glyph-name="udieresis" unicode="&#xfc;" horiz-adv-x="563" 
d="M480 238q-2 -13 -7 -39.5t-8.5 -44.5t-7 -37t-7.5 -39t-7.5 -39.5t-6.5 -38.5h-88q5 29 18 76t37 120h-2q-19 -42 -42.5 -78.5t-52.5 -65.5t-63 -45.5t-72 -16.5q-67 0 -92.5 44.5t-10.5 124.5l64 338h88l-60 -318q-11 -58 -0.5 -85t43.5 -27t68 31t65.5 80t53 104.5
t30.5 102.5l21 112h89zM320 657q0 -24 -16 -40.5t-39 -16.5q-22 0 -37 15.5t-15 36.5q0 24 16 40t39 16q22 0 37 -15t15 -36zM508 657q0 -24 -16 -40.5t-39 -16.5q-22 0 -37 15.5t-15 37.5q0 23 16 39t39 16q22 0 37 -15t15 -36z" />
    <glyph glyph-name="yacute" unicode="&#xfd;" horiz-adv-x="470" 
d="M98 -257l-87 28l135 222l-87 504h95l43 -267q5 -33 9 -64.5t6 -62.5h1l215 415l84 -29zM303 569l-36 45l150 137l46 -56z" />
    <glyph glyph-name="thorn" unicode="&#xfe;" horiz-adv-x="537" 
d="M416 339q0 47 -13 69t-37 22q-23 0 -46.5 -14.5t-46 -40t-42.5 -58.5t-37 -68.5t-28.5 -70.5t-17.5 -64l-8 -38q16 -5 36 -8.5t35 -3.5q52 0 91.5 24.5t64.5 65t37 89t12 96.5zM508 356q0 -71 -19 -136t-57.5 -116t-98 -81t-138.5 -30q-35 0 -70 6l-46 -246h-88l186 977
h89l-38 -199q-5 -26 -10 -48.5t-12 -49t-17 -59.5t-24 -74l2 -1q20 45 44 82.5t53 65.5t62.5 44t70.5 16q55 0 83 -37t28 -114z" />
    <glyph glyph-name="ydieresis" unicode="&#xff;" horiz-adv-x="470" 
d="M98 -257l-87 28l135 222l-87 504h95l43 -267q5 -33 9 -64.5t6 -62.5h1l215 415l84 -29zM276 657q0 -24 -16 -40.5t-39 -16.5q-22 0 -37 15.5t-15 36.5q0 24 16 40t39 16q22 0 37 -15t15 -36zM464 657q0 -24 -16 -40.5t-39 -16.5q-22 0 -37 15.5t-15 37.5q0 23 16 39
t39 16q22 0 37 -15t15 -36z" />
    <glyph glyph-name="Amacron" unicode="&#x100;" horiz-adv-x="603" 
d="M451 0l-24 161h-281l-86 -161h-94l364 675h110l108 -675h-97zM379 493q-4 31 -7 53t-4 42h-1q-8 -19 -20 -43.5t-25 -50.5l-140 -260h236zM532 748h-271l13 62h270z" />
    <glyph glyph-name="amacron" unicode="&#x101;" horiz-adv-x="538" 
d="M403 425q-17 4 -34 6.5t-37 2.5q-53 0 -92.5 -24.5t-64.5 -65.5t-37 -89.5t-12 -96.5q0 -47 13.5 -69t37.5 -22q33 0 68.5 31t66 81t52.5 105t31 101zM503 490q-19 -100 -34 -179.5t-25 -130t-17.5 -93.5t-15.5 -87h-89q13 63 58 202l-2 1q-17 -37 -37.5 -71.5t-49.5 -67
t-65.5 -53.5t-79.5 -21q-55 0 -83 37t-28 114q0 71 18.5 136t57.5 116.5t98.5 81.5t137.5 30q41 0 80.5 -4t75.5 -11zM469 616h-247l12 68h248z" />
    <glyph glyph-name="Abreve" unicode="&#x102;" horiz-adv-x="603" 
d="M451 0l-24 161h-281l-86 -161h-94l364 675h110l108 -675h-97zM379 493q-4 31 -7 53t-4 42h-1q-8 -19 -20 -43.5t-25 -50.5l-140 -260h236zM542 852q-5 -25 -16 -47t-29.5 -39t-43.5 -26.5t-57 -9.5q-31 0 -54 9.5t-36.5 27t-17.5 39.5t1 46h55q-5 -26 10.5 -43.5
t47.5 -17.5q33 0 54.5 16t27.5 45h58z" />
    <glyph glyph-name="abreve" unicode="&#x103;" horiz-adv-x="538" 
d="M403 425q-17 4 -34 6.5t-37 2.5q-53 0 -92.5 -24.5t-64.5 -65.5t-37 -89.5t-12 -96.5q0 -47 13.5 -69t37.5 -22q33 0 68.5 31t66 81t52.5 105t31 101zM503 490q-19 -100 -34 -179.5t-25 -130t-17.5 -93.5t-15.5 -87h-89q13 63 58 202l-2 1q-17 -37 -37.5 -71.5t-49.5 -67
t-65.5 -53.5t-79.5 -21q-55 0 -83 37t-28 114q0 71 18.5 136t57.5 116.5t98.5 81.5t137.5 30q41 0 80.5 -4t75.5 -11zM486 718q-5 -27 -16 -51.5t-29.5 -43.5t-43.5 -29.5t-57 -10.5q-31 0 -52.5 11t-33.5 30t-14.5 43t2.5 51h58q-6 -29 7 -48.5t42 -19.5t49 18t26 50h62z
" />
    <glyph glyph-name="Aogonek" unicode="&#x104;" horiz-adv-x="603" 
d="M525 -217q-21 -8 -45.5 -12.5t-47.5 -4.5q-45 0 -69.5 22t-24.5 55q0 43 29 83.5t84 75.5l-24 159h-281l-86 -161h-94l364 675h110l108 -675q-35 -20 -59 -39.5t-38 -37t-20 -33t-6 -28.5t7.5 -20t24.5 -7q40 0 82 19zM379 493q-4 31 -7 53t-4 42h-1q-8 -19 -20 -43.5
t-25 -50.5l-140 -260h236z" />
    <glyph glyph-name="aogonek" unicode="&#x105;" horiz-adv-x="538" 
d="M503 490q-27 -140 -43.5 -229t-25 -138.5t-11.5 -75t-4 -47.5q-62 -40 -89 -75t-27 -63q0 -27 32 -27q40 0 82 19l-14 -71q-21 -8 -45.5 -12.5t-46.5 -4.5q-45 0 -70 22t-25 55q0 42 29.5 84t88.5 81q5 43 15 88t31 106l-2 1q-17 -37 -37.5 -71.5t-49.5 -67t-65.5 -53.5
t-79.5 -21q-55 0 -83 37t-28 114q0 71 18.5 136t57.5 116.5t98.5 81.5t137.5 30q41 0 80.5 -4t75.5 -11zM177 67q33 0 68.5 31t66 81t52.5 105t31 101l8 40q-17 4 -34 6.5t-37 2.5q-53 0 -92.5 -24.5t-64.5 -65.5t-37 -89.5t-12 -96.5q0 -47 13.5 -69t37.5 -22z" />
    <glyph glyph-name="Cacute" unicode="&#x106;" horiz-adv-x="571" 
d="M576 569q-72 33 -147 33q-68 0 -121 -31.5t-87.5 -84t-51.5 -116.5t-17 -129q0 -37 9.5 -67t30 -52.5t54 -35t79.5 -12.5q38 0 81.5 8.5t88.5 23.5l-17 -84q-41 -13 -87.5 -21.5t-90.5 -8.5q-71 0 -119.5 20t-76 54t-39 74t-11.5 84q0 83 23 164t70.5 148t121.5 107
t172 40q40 0 79 -7.5t73 -19.5zM396 725l-9 53l191 73l13 -71z" />
    <glyph glyph-name="cacute" unicode="&#x107;" horiz-adv-x="412" 
d="M406 408q-22 10 -47 15.5t-48 5.5q-45 0 -80 -22.5t-58 -60t-34 -82t-11 -88.5q0 -22 4.5 -40t16 -33t32.5 -24t52 -9q28 0 56.5 5.5t60.5 17.5l-15 -79q-31 -10 -63 -16t-63 -6q-47 0 -81 12t-54.5 34t-30 51.5t-9.5 66.5q0 71 19.5 134.5t56.5 112t90 75.5t118 27
q24 0 51 -4.5t52 -11.5zM307 568l-45 36l129 151l56 -44z" />
    <glyph glyph-name="Ccircumflex" unicode="&#x108;" horiz-adv-x="571" 
d="M576 569q-72 33 -147 33q-68 0 -121 -31.5t-87.5 -84t-51.5 -116.5t-17 -129q0 -37 9.5 -67t30 -52.5t54 -35t79.5 -12.5q38 0 81.5 8.5t88.5 23.5l-17 -84q-41 -13 -87.5 -21.5t-90.5 -8.5q-71 0 -119.5 20t-76 54t-39 74t-11.5 84q0 83 23 164t70.5 148t121.5 107
t172 40q40 0 79 -7.5t73 -19.5zM567 724l-119 60l-143 -60l-16 51l172 82l139 -82z" />
    <glyph glyph-name="ccircumflex" unicode="&#x109;" horiz-adv-x="412" 
d="M406 408q-22 10 -47 15.5t-48 5.5q-45 0 -80 -22.5t-58 -60t-34 -82t-11 -88.5q0 -22 4.5 -40t16 -33t32.5 -24t52 -9q28 0 56.5 5.5t60.5 17.5l-15 -79q-31 -10 -63 -16t-63 -6q-47 0 -81 12t-54.5 34t-30 51.5t-9.5 66.5q0 71 19.5 134.5t56.5 112t90 75.5t118 27
q24 0 51 -4.5t52 -11.5zM405 570l-81 85l-116 -85l-30 44l160 130l113 -131z" />
    <glyph glyph-name="Cdotaccent" unicode="&#x10a;" horiz-adv-x="571" 
d="M576 569q-72 33 -147 33q-68 0 -121 -31.5t-87.5 -84t-51.5 -116.5t-17 -129q0 -37 9.5 -67t30 -52.5t54 -35t79.5 -12.5q38 0 81.5 8.5t88.5 23.5l-17 -84q-41 -13 -87.5 -21.5t-90.5 -8.5q-71 0 -119.5 20t-76 54t-39 74t-11.5 84q0 83 23 164t70.5 148t121.5 107
t172 40q40 0 79 -7.5t73 -19.5zM505 788q0 -26 -17.5 -43.5t-41.5 -17.5q-23 0 -38.5 16.5t-15.5 38.5q0 26 17.5 43.5t41.5 17.5q23 0 38.5 -16t15.5 -39z" />
    <glyph glyph-name="cdotaccent" unicode="&#x10b;" horiz-adv-x="412" 
d="M406 408q-22 10 -47 15.5t-48 5.5q-45 0 -80 -22.5t-58 -60t-34 -82t-11 -88.5q0 -22 4.5 -40t16 -33t32.5 -24t52 -9q28 0 56.5 5.5t60.5 17.5l-15 -79q-31 -10 -63 -16t-63 -6q-47 0 -81 12t-54.5 34t-30 51.5t-9.5 66.5q0 71 19.5 134.5t56.5 112t90 75.5t118 27
q24 0 51 -4.5t52 -11.5zM381 656q0 -26 -17.5 -43t-41.5 -17q-23 0 -39 16.5t-16 38.5q0 26 17.5 43.5t41.5 17.5t39.5 -16.5t15.5 -39.5z" />
    <glyph glyph-name="Ccaron" unicode="&#x10c;" horiz-adv-x="571" 
d="M576 569q-72 33 -147 33q-68 0 -121 -31.5t-87.5 -84t-51.5 -116.5t-17 -129q0 -37 9.5 -67t30 -52.5t54 -35t79.5 -12.5q38 0 81.5 8.5t88.5 23.5l-17 -84q-41 -13 -87.5 -21.5t-90.5 -8.5q-71 0 -119.5 20t-76 54t-39 74t-11.5 84q0 83 23 164t70.5 148t121.5 107
t172 40q40 0 79 -7.5t73 -19.5zM434 724l-140 83l32 50l119 -60l144 60l16 -51z" />
    <glyph glyph-name="ccaron" unicode="&#x10d;" horiz-adv-x="412" 
d="M406 408q-22 10 -47 15.5t-48 5.5q-45 0 -80 -22.5t-58 -60t-34 -82t-11 -88.5q0 -22 4.5 -40t16 -33t32.5 -24t52 -9q28 0 56.5 5.5t60.5 17.5l-15 -79q-31 -10 -63 -16t-63 -6q-47 0 -81 12t-54.5 34t-30 51.5t-9.5 66.5q0 71 19.5 134.5t56.5 112t90 75.5t118 27
q24 0 51 -4.5t52 -11.5zM312 570l-113 131l46 43l81 -85l116 85l30 -44z" />
    <glyph glyph-name="Dcaron" unicode="&#x10e;" horiz-adv-x="664" 
d="M553 424q0 41 -10.5 73t-34 56t-63.5 37t-98 13q-25 0 -58 -1t-46 -2l-100 -520q18 -3 41 -4.5t40 -1.5q85 0 148.5 30.5t103.5 81.5t58.5 112.5t18.5 125.5zM649 433q0 -85 -27 -163.5t-81.5 -140.5t-138 -97.5t-191.5 -35.5q-32 0 -57.5 0.5t-60.5 2t-54 1.5l128 674
q91 2 122.5 3t71.5 1q76 0 131 -17.5t89.5 -49.5t51 -77t16.5 -101zM387 724l-140 83l32 50l119 -60l144 60l16 -51z" />
    <glyph glyph-name="dcaron" unicode="&#x10f;" horiz-adv-x="569" 
d="M403 425q-17 4 -34 6.5t-37 2.5q-53 0 -92.5 -24.5t-64.5 -65.5t-37 -89.5t-12 -96.5q0 -47 13.5 -69t37.5 -22q33 0 68.5 31t66 81t52.5 105t31 101zM444 180q-3 -18 -9.5 -54t-9 -48.5t-6.5 -34.5t-8 -43h-88q6 32 20 81t37 121l-2 1q-17 -37 -37.5 -71.5t-49.5 -67
t-65.5 -53.5t-79.5 -21q-55 0 -83 37t-28 114q0 71 18.5 136t57.5 116.5t98.5 81.5t137.5 30q18 0 34 -1.5t36 -4.5l43 231h89zM727 741l-102 -176l-56 17l87 180z" />
    <glyph glyph-name="Dcroat" unicode="&#x110;" horiz-adv-x="673" 
d="M560 424q0 41 -10.5 73t-34 56t-63.5 37t-98 13q-24 0 -42.5 -0.5t-61.5 -2.5l-42 -218h141l-13 -70h-141l-44 -232q17 -3 40 -4.5t41 -1.5q85 0 148 30t103 81t58.5 112.5t18.5 126.5zM657 433q0 -85 -27 -163.5t-82 -140.5t-138 -97.5t-192 -35.5q-39 0 -97 2t-74 2
l59 312h-88l13 70h88l55 292q58 1 106.5 2.5t88.5 1.5q76 0 131 -17.5t89.5 -49.5t51 -77t16.5 -101z" />
    <glyph glyph-name="dcroat" unicode="&#x111;" horiz-adv-x="538" 
d="M403 425q-17 4 -34 6.5t-37 2.5q-53 0 -92.5 -24.5t-64.5 -65.5t-37 -89.5t-12 -96.5q0 -47 13.5 -69t37.5 -22q33 0 68.5 31t66 81t52.5 105t31 101zM592 591h-70l-78 -411l-13 -71.5t-20 -108.5h-88q6 32 20 81t37 121l-2 1q-17 -37 -37.5 -71.5t-49.5 -67t-65.5 -53.5
t-79.5 -21q-55 0 -83 37t-28 114q0 71 18.5 136t57.5 116.5t98.5 81.5t137.5 30q18 0 34 -1.5t36 -4.5l17 92h-113l11 61h113l15 78h89l-15 -78h70z" />
    <glyph glyph-name="Emacron" unicode="&#x112;" horiz-adv-x="525" 
d="M526 599h-284l-41 -214h261l-14 -74h-261l-44 -234h288l-14 -77h-288h-90l128 675h90h284zM502 748h-271l13 62h270z" />
    <glyph glyph-name="emacron" unicode="&#x113;" horiz-adv-x="473" 
d="M363 382q0 26 -18 40.5t-49 14.5q-29 0 -53.5 -11.5t-44 -32.5t-33.5 -48.5t-23 -59.5q115 4 168 28t53 69zM453 393q0 -162 -323 -174q-2 -10 -3.5 -27t-1.5 -31q0 -29 5.5 -47.5t17.5 -29.5t31 -15.5t47 -4.5q33 0 72.5 7.5t79.5 20.5l-15 -78q-41 -12 -79.5 -17.5
t-81.5 -5.5q-87 0 -127.5 38.5t-40.5 122.5q0 72 19.5 136.5t55.5 113.5t87 76.5t111 27.5q38 0 66 -9t45.5 -25t26 -36t8.5 -43zM436 616h-247l12 68h248z" />
    <glyph glyph-name="Ebreve" unicode="&#x114;" horiz-adv-x="525" 
d="M526 599h-284l-41 -214h261l-14 -74h-261l-44 -234h288l-14 -77h-288h-90l128 675h90h284zM513 852q-5 -25 -16 -47t-29.5 -39t-43.5 -26.5t-57 -9.5q-31 0 -54 9.5t-36.5 27t-17.5 39.5t1 46h55q-5 -26 10.5 -43.5t47.5 -17.5q33 0 54.5 16t27.5 45h58z" />
    <glyph glyph-name="ebreve" unicode="&#x115;" horiz-adv-x="473" 
d="M363 382q0 26 -18 40.5t-49 14.5q-29 0 -53.5 -11.5t-44 -32.5t-33.5 -48.5t-23 -59.5q115 4 168 28t53 69zM453 393q0 -162 -323 -174q-2 -10 -3.5 -27t-1.5 -31q0 -29 5.5 -47.5t17.5 -29.5t31 -15.5t47 -4.5q33 0 72.5 7.5t79.5 20.5l-15 -78q-41 -12 -79.5 -17.5
t-81.5 -5.5q-87 0 -127.5 38.5t-40.5 122.5q0 72 19.5 136.5t55.5 113.5t87 76.5t111 27.5q38 0 66 -9t45.5 -25t26 -36t8.5 -43zM455 718q-5 -27 -16 -51.5t-29.5 -43.5t-43.5 -29.5t-57 -10.5q-31 0 -52.5 11t-33.5 30t-14.5 43t2.5 51h58q-6 -29 7 -48.5t42 -19.5t49 18
t26 50h62z" />
    <glyph glyph-name="Edotaccent" unicode="&#x116;" horiz-adv-x="525" 
d="M526 599h-284l-41 -214h261l-14 -74h-261l-44 -234h288l-14 -77h-288h-90l128 675h90h284zM431 788q0 -26 -17.5 -43.5t-41.5 -17.5q-23 0 -38.5 16.5t-15.5 38.5q0 26 17.5 43.5t41.5 17.5q23 0 38.5 -16t15.5 -39z" />
    <glyph glyph-name="edotaccent" unicode="&#x117;" horiz-adv-x="473" 
d="M363 382q0 26 -18 40.5t-49 14.5q-29 0 -53.5 -11.5t-44 -32.5t-33.5 -48.5t-23 -59.5q115 4 168 28t53 69zM453 393q0 -162 -323 -174q-2 -10 -3.5 -27t-1.5 -31q0 -29 5.5 -47.5t17.5 -29.5t31 -15.5t47 -4.5q33 0 72.5 7.5t79.5 20.5l-15 -78q-41 -12 -79.5 -17.5
t-81.5 -5.5q-87 0 -127.5 38.5t-40.5 122.5q0 72 19.5 136.5t55.5 113.5t87 76.5t111 27.5q38 0 66 -9t45.5 -25t26 -36t8.5 -43zM377 659q0 -26 -17.5 -43t-41.5 -17q-23 0 -39 16.5t-16 38.5q0 26 17.5 43.5t41.5 17.5t39.5 -16.5t15.5 -39.5z" />
    <glyph glyph-name="Eogonek" unicode="&#x118;" horiz-adv-x="525" 
d="M387 -217q-21 -8 -46 -12.5t-47 -4.5q-45 0 -70 22t-25 55q0 42 29.5 83t82.5 74h-182h-90l128 675h90h284l-15 -76h-284l-41 -214h261l-14 -74h-261l-44 -234h288l-13 -73q-69 -37 -100.5 -75t-31.5 -67q0 -27 32 -27q19 0 40.5 4.5t42.5 14.5z" />
    <glyph glyph-name="eogonek" unicode="&#x119;" horiz-adv-x="473" 
d="M363 382q0 26 -18 40.5t-49 14.5q-29 0 -53.5 -11.5t-44 -32.5t-33.5 -48.5t-23 -59.5q115 4 168 28t53 69zM453 393q0 -32 -13 -58.5t-39 -47t-65 -35t-90.5 -23t-115.5 -10.5q-2 -10 -3.5 -27t-1.5 -31q0 -56 22.5 -76.5t78.5 -20.5q33 0 72.5 7.5t79.5 20.5l-15 -75
q-36 -18 -64 -38.5t-47 -41t-28.5 -40t-9.5 -35.5q0 -27 32 -27q19 0 40.5 4.5t42.5 14.5l-14 -71q-21 -8 -46 -12.5t-47 -4.5q-45 0 -70 22t-25 55q0 41 27.5 80t72.5 69l-30 -1q-80 0 -121.5 37.5t-41.5 123.5q0 72 19.5 136.5t55.5 113.5t87 76.5t111 27.5q38 0 66 -9
t45.5 -25t26 -36t8.5 -43z" />
    <glyph glyph-name="Ecaron" unicode="&#x11a;" horiz-adv-x="525" 
d="M526 599h-284l-41 -214h261l-14 -74h-261l-44 -234h288l-14 -77h-288h-90l128 675h90h284zM362 724l-140 83l32 50l119 -60l144 60l16 -51z" />
    <glyph glyph-name="ecaron" unicode="&#x11b;" horiz-adv-x="473" 
d="M363 382q0 26 -18 40.5t-49 14.5q-29 0 -53.5 -11.5t-44 -32.5t-33.5 -48.5t-23 -59.5q115 4 168 28t53 69zM453 393q0 -162 -323 -174q-2 -10 -3.5 -27t-1.5 -31q0 -29 5.5 -47.5t17.5 -29.5t31 -15.5t47 -4.5q33 0 72.5 7.5t79.5 20.5l-15 -78q-41 -12 -79.5 -17.5
t-81.5 -5.5q-87 0 -127.5 38.5t-40.5 122.5q0 72 19.5 136.5t55.5 113.5t87 76.5t111 27.5q38 0 66 -9t45.5 -25t26 -36t8.5 -43zM305 570l-113 131l46 43l81 -85l116 85l30 -44z" />
    <glyph glyph-name="Gcircumflex" unicode="&#x11c;" horiz-adv-x="668" 
d="M630 572q-40 16 -83.5 24.5t-83.5 8.5q-79 0 -139 -31t-98.5 -82.5t-57.5 -112.5t-19 -121q0 -43 11.5 -77t35 -59t60.5 -38t87 -13q36 0 66.5 5t61.5 14l48 254h90l-59 -315q-51 -19 -110 -28.5t-112 -9.5q-69 0 -121 17.5t-86 50.5t-51 80.5t-17 108.5q0 77 26 154
t79 141t133 102.5t184 38.5q42 0 87 -6.5t85 -17.5zM597 724l-119 60l-143 -60l-16 51l172 82l139 -82z" />
    <glyph glyph-name="gcircumflex" unicode="&#x11d;" horiz-adv-x="538" 
d="M403 425q-17 4 -34 6.5t-37 2.5q-53 0 -92.5 -24.5t-64.5 -65.5t-37 -89.5t-12 -96.5q0 -47 13.5 -69t37.5 -22q33 0 68.5 31t66 81t52.5 105t31 101zM401 -45q-9 -47 -28.5 -84.5t-52.5 -65.5t-81.5 -43.5t-113.5 -15.5q-38 0 -72.5 4t-64.5 11l17 83q30 -9 66.5 -15
t70.5 -6q74 0 117 35.5t59 117.5q5 28 11 54t13 52t16 54t20 62h-2q-16 -35 -36.5 -68.5t-49 -65.5t-65 -53t-79.5 -21q-55 0 -83 37t-28 114q0 71 19 136t57.5 116.5t98 81.5t137.5 30q41 0 78.5 -4t77.5 -11zM433 570l-81 85l-116 -85l-30 44l160 130l113 -131z" />
    <glyph glyph-name="Gbreve" unicode="&#x11e;" horiz-adv-x="668" 
d="M630 572q-40 16 -83.5 24.5t-83.5 8.5q-79 0 -139 -31t-98.5 -82.5t-57.5 -112.5t-19 -121q0 -43 11.5 -77t35 -59t60.5 -38t87 -13q36 0 66.5 5t61.5 14l48 254h90l-59 -315q-51 -19 -110 -28.5t-112 -9.5q-69 0 -121 17.5t-86 50.5t-51 80.5t-17 108.5q0 77 26 154
t79 141t133 102.5t184 38.5q42 0 87 -6.5t85 -17.5zM622 852q-5 -25 -16 -47t-29.5 -39t-43.5 -26.5t-57 -9.5q-31 0 -54 9.5t-36.5 27t-17.5 39.5t1 46h55q-5 -26 10.5 -43.5t47.5 -17.5q33 0 54.5 16t27.5 45h58z" />
    <glyph glyph-name="gbreve" unicode="&#x11f;" horiz-adv-x="538" 
d="M403 425q-17 4 -34 6.5t-37 2.5q-53 0 -92.5 -24.5t-64.5 -65.5t-37 -89.5t-12 -96.5q0 -47 13.5 -69t37.5 -22q33 0 68.5 31t66 81t52.5 105t31 101zM401 -45q-9 -47 -28.5 -84.5t-52.5 -65.5t-81.5 -43.5t-113.5 -15.5q-38 0 -72.5 4t-64.5 11l17 83q30 -9 66.5 -15
t70.5 -6q74 0 117 35.5t59 117.5q5 28 11 54t13 52t16 54t20 62h-2q-16 -35 -36.5 -68.5t-49 -65.5t-65 -53t-79.5 -21q-55 0 -83 37t-28 114q0 71 19 136t57.5 116.5t98 81.5t137.5 30q41 0 78.5 -4t77.5 -11zM484 718q-5 -27 -16 -51.5t-29.5 -43.5t-43.5 -29.5t-57 -10.5
q-31 0 -52.5 11t-33.5 30t-14.5 43t2.5 51h58q-6 -29 7 -48.5t42 -19.5t49 18t26 50h62z" />
    <glyph glyph-name="Gdotaccent" unicode="&#x120;" horiz-adv-x="668" 
d="M630 572q-40 16 -83.5 24.5t-83.5 8.5q-79 0 -139 -31t-98.5 -82.5t-57.5 -112.5t-19 -121q0 -43 11.5 -77t35 -59t60.5 -38t87 -13q36 0 66.5 5t61.5 14l48 254h90l-59 -315q-51 -19 -110 -28.5t-112 -9.5q-69 0 -121 17.5t-86 50.5t-51 80.5t-17 108.5q0 77 26 154
t79 141t133 102.5t184 38.5q42 0 87 -6.5t85 -17.5zM533 791q0 -26 -17.5 -43.5t-41.5 -17.5q-23 0 -38.5 16.5t-15.5 38.5q0 26 17.5 43.5t41.5 17.5q23 0 38.5 -16t15.5 -39z" />
    <glyph glyph-name="gdotaccent" unicode="&#x121;" horiz-adv-x="538" 
d="M403 425q-17 4 -34 6.5t-37 2.5q-53 0 -92.5 -24.5t-64.5 -65.5t-37 -89.5t-12 -96.5q0 -47 13.5 -69t37.5 -22q33 0 68.5 31t66 81t52.5 105t31 101zM401 -45q-9 -47 -28.5 -84.5t-52.5 -65.5t-81.5 -43.5t-113.5 -15.5q-38 0 -72.5 4t-64.5 11l17 83q30 -9 66.5 -15
t70.5 -6q74 0 117 35.5t59 117.5q5 28 11 54t13 52t16 54t20 62h-2q-16 -35 -36.5 -68.5t-49 -65.5t-65 -53t-79.5 -21q-55 0 -83 37t-28 114q0 71 19 136t57.5 116.5t98 81.5t137.5 30q41 0 78.5 -4t77.5 -11zM412 659q0 -26 -17.5 -43t-41.5 -17q-23 0 -39 16.5t-16 38.5
q0 26 17.5 43.5t41.5 17.5t39.5 -16.5t15.5 -39.5z" />
    <glyph glyph-name="Gcommaaccent" unicode="&#x122;" horiz-adv-x="668" 
d="M630 572q-40 16 -83.5 24.5t-83.5 8.5q-79 0 -139 -31t-98.5 -82.5t-57.5 -112.5t-19 -121q0 -43 11.5 -77t35 -59t60.5 -38t87 -13q36 0 66.5 5t61.5 14l48 254h90l-59 -315q-51 -19 -110 -28.5t-112 -9.5q-69 0 -121 17.5t-86 50.5t-51 80.5t-17 108.5q0 77 26 154
t79 141t133 102.5t184 38.5q42 0 87 -6.5t85 -17.5zM301 -49q26 0 39.5 -23t4.5 -54.5t-41.5 -61t-84.5 -51.5l-19 36q37 22 51.5 46t5.5 46q-9 24 4.5 43t39.5 19z" />
    <glyph glyph-name="gcommaaccent" unicode="&#x123;" horiz-adv-x="538" 
d="M403 425q-17 4 -34 6.5t-37 2.5q-53 0 -92.5 -24.5t-64.5 -65.5t-37 -89.5t-12 -96.5q0 -47 13.5 -69t37.5 -22q33 0 68.5 31t66 81t52.5 105t31 101zM401 -45q-9 -47 -28.5 -84.5t-52.5 -65.5t-81.5 -43.5t-113.5 -15.5q-38 0 -72.5 4t-64.5 11l17 83q30 -9 66.5 -15
t70.5 -6q74 0 117 35.5t59 117.5q5 28 11 54t13 52t16 54t20 62h-2q-16 -35 -36.5 -68.5t-49 -65.5t-65 -53t-79.5 -21q-55 0 -83 37t-28 114q0 71 19 136t57.5 116.5t98 81.5t137.5 30q41 0 78.5 -4t77.5 -11zM439 720q-39 -23 -52.5 -46.5t-3.5 -45.5q8 -24 -5 -43
t-40 -19q-24 0 -38 20t-8 50t37.5 62.5t90.5 57.5z" />
    <glyph glyph-name="Hcircumflex" unicode="&#x124;" horiz-adv-x="684" 
d="M556 0h-90l59 311h-337l-59 -311h-90l128 675h90l-55 -286h338l54 286h90zM567 724l-119 60l-143 -60l-16 51l172 82l139 -82z" />
    <glyph glyph-name="hcircumflex" unicode="&#x125;" horiz-adv-x="564" 
d="M436 0h-88l60 318q11 58 0.5 85t-43.5 27t-68 -31t-65.5 -80t-53 -104.5t-30.5 -102.5l-21 -112h-89l138 730h89l-45 -233q-3 -17 -7 -34t-10 -39.5t-15.5 -53t-22.5 -69.5h2q19 42 42.5 78.5t52.5 65.5t63 45.5t72 16.5q67 0 92.5 -45t10.5 -124zM509 757l-119 60
l-143 -60l-16 51l172 82l139 -82z" />
    <glyph glyph-name="Hbar" unicode="&#x126;" horiz-adv-x="703" 
d="M747 568l-14 -74h-74l-93 -494h-90l56 303h-337l-56 -303h-90l93 494h-74l13 74h75l21 107h90l-21 -107h337l21 107h90l-21 -107h74zM232 494l-22 -117h337l23 117h-338z" />
    <glyph glyph-name="hbar" unicode="&#x127;" horiz-adv-x="567" 
d="M350 0l61 318q11 58 0.5 84.5t-44.5 26.5q-22 0 -45 -14.5t-45.5 -39.5t-43 -57.5t-37 -68t-28.5 -71t-18 -66.5l-20 -112h-89l110 581h-85l13 70h85l15 79h89l-16 -79h134l-14 -70h-133l-18 -92q-3 -16 -6.5 -31.5t-9.5 -37t-15 -51.5t-22 -68h2q19 41 42.5 77.5
t52.5 65t62.5 45t70.5 16.5q35 0 58.5 -11.5t36.5 -33.5t15.5 -53t-5.5 -70l-64 -337h-89z" />
    <glyph glyph-name="Itilde" unicode="&#x128;" horiz-adv-x="257" 
d="M129 0h-90l128 675h90zM408 808q-43 -73 -112 -73q-22 0 -38.5 7t-36 20.5t-29.5 19t-24 5.5q-34 0 -64 -45l-44 33q21 36 50.5 55t63.5 19q22 0 38.5 -7t35.5 -20.5t29 -19t24 -5.5q34 0 64 44z" />
    <glyph glyph-name="itilde" unicode="&#x129;" horiz-adv-x="254" 
d="M126 0h-88l94 497h88zM351 671q-19 -36 -43.5 -55t-56.5 -19q-15 0 -28.5 6.5t-30.5 19t-24 17t-15 4.5q-14 0 -27 -12t-21 -30l-43 32q37 77 99 77q16 0 29.5 -6.5t31.5 -20t24 -17.5t14 -4q14 0 26 11.5t22 30.5z" />
    <glyph glyph-name="Imacron" unicode="&#x12a;" horiz-adv-x="257" 
d="M129 0h-90l128 675h90zM361 748h-271l13 62h270z" />
    <glyph glyph-name="imacron" unicode="&#x12b;" horiz-adv-x="254" 
d="M126 0h-88l94 497h88zM84 616l13 68h232l-13 -68h-232z" />
    <glyph glyph-name="Ibreve" unicode="&#x12c;" horiz-adv-x="257" 
d="M129 0h-90l128 675h90zM372 852q-5 -25 -16 -47t-29.5 -39t-43.5 -26.5t-57 -9.5q-31 0 -54 9.5t-36.5 27t-17.5 39.5t1 46h55q-5 -26 10.5 -43.5t47.5 -17.5q33 0 54.5 16t27.5 45h58z" />
    <glyph glyph-name="ibreve" unicode="&#x12d;" horiz-adv-x="254" 
d="M126 0h-88l94 497h88zM335 718q-13 -66 -48 -100.5t-89 -34.5q-56 0 -80.5 35.5t-12.5 99.5h59q-6 -29 5 -48.5t37 -19.5q25 0 43.5 18.5t23.5 49.5h62z" />
    <glyph glyph-name="Iogonek" unicode="&#x12e;" horiz-adv-x="257" 
d="M129 0q-56 -40 -78 -74.5t-22 -63.5q0 -27 32 -27q19 0 40 5t42 14l-14 -71q-21 -8 -45.5 -12.5t-47.5 -4.5q-44 0 -69 22t-25 55q0 21 6 42t18 41t30.5 39.5t42.5 38.5l128 671h90z" />
    <glyph glyph-name="iogonek" unicode="&#x12f;" horiz-adv-x="254" 
d="M28 -138q0 -27 32 -27q19 0 40.5 5t41.5 14l-14 -71q-21 -8 -45.5 -12.5t-46.5 -4.5q-45 0 -70 22t-25 55q0 37 23 74.5t75 86.5l93 493h88l-94 -497q-54 -48 -76 -81.5t-22 -56.5zM266 658q0 -26 -18.5 -44t-43.5 -18q-24 0 -40 16t-16 39q0 26 18.5 44t43.5 18
q24 0 40 -16.5t16 -38.5z" />
    <glyph glyph-name="Idotaccent" unicode="&#x130;" horiz-adv-x="257" 
d="M129 0h-90l128 675h90zM290 788q0 -26 -17.5 -43.5t-41.5 -17.5q-23 0 -38.5 16.5t-15.5 38.5q0 26 17.5 43.5t41.5 17.5q23 0 38.5 -16t15.5 -39z" />
    <glyph glyph-name="dotlessi" unicode="&#x131;" horiz-adv-x="254" 
d="M126 0h-88l94 497h88z" />
    <glyph glyph-name="IJ" unicode="&#x132;" horiz-adv-x="532" 
d="M129 0h-90l128 675h90zM203 -131q28 15 45 27t30.5 29t24 44.5t18.5 68.5l121 637h91l-122 -640q-9 -49 -23 -84t-34.5 -60t-48.5 -44.5t-70 -38.5z" />
    <glyph glyph-name="ij" unicode="&#x133;" horiz-adv-x="509" 
d="M126 0h-88l94 497h88zM266 658q0 -26 -18.5 -44t-43.5 -18q-24 0 -40 16t-16 39q0 26 18.5 44t43.5 18q24 0 40 -16.5t16 -38.5zM373 -34q-8 -44 -21.5 -77t-34.5 -59t-50 -46.5t-68 -39.5l-31 63q26 15 45 29t33 31.5t23.5 41t15.5 57.5l101 531h88zM519 658
q0 -27 -18 -44.5t-43 -17.5t-40.5 16t-15.5 39q0 27 18.5 44.5t42.5 17.5q25 0 40.5 -16.5t15.5 -38.5z" />
    <glyph glyph-name="Jcircumflex" unicode="&#x134;" horiz-adv-x="257" 
d="M-73 -131q28 15 45 27t30.5 29t24 44.5t18.5 68.5l121 637h91l-122 -640q-9 -49 -23 -84t-34.5 -60t-48.5 -44.5t-70 -38.5zM353 724l-119 60l-143 -60l-16 51l172 82l139 -82z" />
    <glyph glyph-name="jcircumflex" unicode="&#x135;" horiz-adv-x="254" 
d="M119 -34q-8 -44 -21.5 -77t-34.5 -59t-50 -46.5t-68 -39.5l-31 63q26 15 45 29t33 31.5t23.5 41t15.5 57.5l101 531h88zM278 570l-69 85l-104 -85l-29 43l148 130l99 -131z" />
    <glyph glyph-name="Kcommaaccent" unicode="&#x136;" horiz-adv-x="573" 
d="M288 345l221 -345h-115l-201 336l-64 -336h-90l128 675h90l-60 -316l320 316h116zM229 -49q26 0 39.5 -23t4.5 -54.5t-41.5 -61t-84.5 -51.5l-19 36q37 22 51.5 46t5.5 46q-9 24 4.5 43t39.5 19z" />
    <glyph glyph-name="kcommaaccent" unicode="&#x137;" horiz-adv-x="475" 
d="M267 274l152 -274h-108l-135 264l-50 -264h-88l138 730h88l-84 -443l235 235l66 -51zM187 -49q26 0 39.5 -23t4.5 -54.5t-41.5 -61t-84.5 -51.5l-19 36q37 22 51.5 46t5.5 46q-9 24 4.5 43t39.5 19z" />
    <glyph glyph-name="kgreenlandic" unicode="&#x138;" horiz-adv-x="475" 
d="M266 269l149 -269h-108l-132 259l-49 -259h-88l94 497h89l-42 -216l239 241l66 -51z" />
    <glyph glyph-name="Lacute" unicode="&#x139;" horiz-adv-x="445" 
d="M393 0h-264h-90l128 675h90l-114 -597h264zM240 725l-9 53l191 73l13 -71z" />
    <glyph glyph-name="lacute" unicode="&#x13a;" horiz-adv-x="254" 
d="M126 0h-88l138 730h88zM200 785l-9 53l191 73l13 -71z" />
    <glyph glyph-name="Lcommaaccent" unicode="&#x13b;" horiz-adv-x="445" 
d="M393 0h-264h-90l128 675h90l-114 -597h264zM198 -49q26 0 39.5 -23t4.5 -54.5t-41.5 -61t-84.5 -51.5l-19 36q37 22 51.5 46t5.5 46q-9 24 4.5 43t39.5 19z" />
    <glyph glyph-name="lcommaaccent" unicode="&#x13c;" horiz-adv-x="254" 
d="M126 0h-88l138 730h88zM66 -49q26 0 39.5 -23t4.5 -54.5t-41.5 -61t-84.5 -51.5l-19 36q37 22 51.5 46t5.5 46q-9 24 4.5 43t39.5 19z" />
    <glyph glyph-name="Lcaron" unicode="&#x13d;" horiz-adv-x="445" 
d="M393 0h-264h-90l128 675h90l-114 -597h264zM465 741l-102 -176l-56 17l87 180z" />
    <glyph glyph-name="lcaron" unicode="&#x13e;" horiz-adv-x="285" 
d="M126 0h-88l138 730h88zM442 741l-102 -176l-56 17l87 180z" />
    <glyph glyph-name="Lslash" unicode="&#x141;" horiz-adv-x="454" 
d="M402 0h-266h-89l66 348l-82 -35l-7 71l104 44l47 247h89l-38 -204l116 49l8 -71l-139 -59l-60 -312h265z" />
    <glyph glyph-name="lslash" unicode="&#x142;" horiz-adv-x="285" 
d="M222 412l-78 -412h-88l68 363l-67 -36l-9 65l91 48l55 290h88l-45 -241l73 39l10 -65z" />
    <glyph glyph-name="Nacute" unicode="&#x143;" horiz-adv-x="667" 
d="M453 0l-170 395q-22 51 -35 87.5t-23 70.5h-2q-4 -28 -10.5 -71.5t-15 -94.5t-18 -102.5t-17.5 -95.5l-35 -189h-88l128 675h49.5h48.5l160 -372q38 -87 60 -161h1q4 33 11 76t15 92t17 99t18 96l33 170h87l-128 -675h-42.5h-43.5zM400 725l-9 53l191 73l13 -71z" />
    <glyph glyph-name="nacute" unicode="&#x144;" horiz-adv-x="563" 
d="M435 0h-88l61 318q11 58 0.5 85t-44.5 27q-33 0 -67.5 -31t-65.5 -80t-53 -104.5t-31 -102.5l-21 -112h-88l50 259q3 18 7 37.5t6 32.5t7.5 43t9 49l7 38t7.5 38h88q-7 -32 -19.5 -78.5t-36.5 -117.5h2q19 42 42.5 78.5t52.5 65.5t63 45.5t72 16.5q68 0 93.5 -44.5
t10.5 -124.5zM350 569l-36 45l150 137l46 -56z" />
    <glyph glyph-name="Ncommaaccent" unicode="&#x145;" horiz-adv-x="667" 
d="M453 0l-170 395q-22 51 -35 87.5t-23 70.5h-2q-4 -28 -10.5 -71.5t-15 -94.5t-18 -102.5t-17.5 -95.5l-35 -189h-88l128 675h49.5h48.5l160 -372q38 -87 60 -161h1q4 33 11 76t15 92t17 99t18 96l33 170h87l-128 -675h-42.5h-43.5zM269 -49q26 0 39.5 -23t4.5 -54.5
t-41.5 -61t-84.5 -51.5l-19 36q37 22 51.5 46t5.5 46q-9 24 4.5 43t39.5 19z" />
    <glyph glyph-name="ncommaaccent" unicode="&#x146;" horiz-adv-x="563" 
d="M435 0h-88l61 318q11 58 0.5 85t-44.5 27q-33 0 -67.5 -31t-65.5 -80t-53 -104.5t-31 -102.5l-21 -112h-88l50 259q3 18 7 37.5t6 32.5t7.5 43t9 49l7 38t7.5 38h88q-7 -32 -19.5 -78.5t-36.5 -117.5h2q19 42 42.5 78.5t52.5 65.5t63 45.5t72 16.5q68 0 93.5 -44.5
t10.5 -124.5zM222 -49q26 0 39.5 -23t4.5 -54.5t-41.5 -61t-84.5 -51.5l-19 36q37 22 51.5 46t5.5 46q-9 24 4.5 43t39.5 19z" />
    <glyph glyph-name="Ncaron" unicode="&#x147;" horiz-adv-x="667" 
d="M453 0l-170 395q-22 51 -35 87.5t-23 70.5h-2q-4 -28 -10.5 -71.5t-15 -94.5t-18 -102.5t-17.5 -95.5l-35 -189h-88l128 675h49.5h48.5l160 -372q38 -87 60 -161h1q4 33 11 76t15 92t17 99t18 96l33 170h87l-128 -675h-42.5h-43.5zM428 724l-140 83l32 50l119 -60l144 60
l16 -51z" />
    <glyph glyph-name="ncaron" unicode="&#x148;" horiz-adv-x="563" 
d="M435 0h-88l61 318q11 58 0.5 85t-44.5 27q-33 0 -67.5 -31t-65.5 -80t-53 -104.5t-31 -102.5l-21 -112h-88l50 259q3 18 7 37.5t6 32.5t7.5 43t9 49l7 38t7.5 38h88q-7 -32 -19.5 -78.5t-36.5 -117.5h2q19 42 42.5 78.5t52.5 65.5t63 45.5t72 16.5q68 0 93.5 -44.5
t10.5 -124.5zM347 570l-113 131l46 43l81 -85l116 85l30 -44z" />
    <glyph glyph-name="napostrophe" unicode="&#x149;" horiz-adv-x="647" 
d="M519 0h-88l61 318q11 58 0.5 85t-44.5 27q-33 0 -67.5 -31t-65.5 -80t-53 -104.5t-31 -102.5l-21 -112h-88l50 259q3 18 7 37.5t6 32.5t7.5 43t9 49l7 38t7.5 38h88q-7 -32 -19.5 -78.5t-36.5 -117.5h2q19 42 42.5 78.5t52.5 65.5t63 45.5t72 16.5q68 0 93.5 -44.5
t10.5 -124.5zM180 743q29 0 46 -23t12 -61.5t-39.5 -86.5t-102.5 -96l-33 39q55 46 69.5 80.5t-1.5 62.5q-7 13 -7 28t7 28t19.5 21t29.5 8z" />
    <glyph glyph-name="Eng" unicode="&#x14a;" horiz-adv-x="671" 
d="M544 5q-13 -68 -34 -113.5t-50.5 -75.5t-68 -46.5t-86.5 -25.5l-6 72q30 6 54.5 16.5t44 31.5t34 54.5t24.5 86.5l-168 390q-13 29 -22.5 52.5t-16.5 43t-12.5 36.5t-10.5 34h-1q-4 -29 -11 -73.5t-16 -96t-18 -104.5t-18 -98l-35 -189h-88l128 675h103l160 -372
q24 -57 37 -94t22 -67h2q4 33 10.5 76t14.5 91t17 98.5t18 97.5l33 170h87z" />
    <glyph glyph-name="eng" unicode="&#x14b;" horiz-adv-x="564" 
d="M203 -135q32 9 54.5 19.5t36.5 24.5q13 13 23.5 29.5t21 44.5t22 75t25.5 118q12 64 17.5 103.5t5.5 66.5q0 46 -14 65.5t-42 19.5q-31 0 -63.5 -28.5t-60.5 -75t-49 -99t-30 -99.5l-24 -129h-88l50 259q11 55 21.5 114t22.5 124h88q-4 -19 -8 -35.5t-9.5 -36.5
t-14 -45.5t-19.5 -60.5h1q42 95 96.5 141t114.5 46q59 0 87.5 -35.5t28.5 -114.5q0 -32 -5 -72.5t-17 -101.5q-15 -79 -29 -133.5t-27.5 -89.5t-27 -56t-29.5 -38q-25 -24 -59.5 -40.5t-84.5 -29.5z" />
    <glyph glyph-name="Omacron" unicode="&#x14c;" horiz-adv-x="695" 
d="M585 424q0 83 -41.5 131.5t-125.5 48.5q-58 0 -108 -28t-86.5 -77t-56 -113t-19.5 -135q0 -83 41.5 -131.5t125.5 -48.5q59 0 108.5 28t86 77t56 113t19.5 135zM682 439q0 -89 -27.5 -170.5t-78.5 -144.5t-122 -98.5t-156 -35.5q-122 0 -184 66.5t-62 179.5
q0 89 27 170.5t78 144.5t122 98.5t156 35.5q122 0 184.5 -66.5t62.5 -179.5zM581 748h-271l13 62h270z" />
    <glyph glyph-name="omacron" unicode="&#x14d;" horiz-adv-x="534" 
d="M412 316q0 51 -26 83t-79 32q-45 0 -79 -22.5t-56.5 -59.5t-33.5 -81t-11 -87q0 -51 26 -82.5t79 -31.5q45 0 79 22.5t56.5 59t33.5 80.5t11 87zM505 328q0 -65 -19 -125.5t-56.5 -108.5t-91.5 -75.5t-121 -27.5q-91 0 -137 48.5t-46 129.5q0 65 19 125.5t56.5 108.5
t91.5 75.5t121 27.5q46 0 81 -13t57.5 -37t33.5 -56.5t11 -71.5zM468 616h-247l12 68h248z" />
    <glyph glyph-name="Obreve" unicode="&#x14e;" horiz-adv-x="695" 
d="M585 424q0 83 -41.5 131.5t-125.5 48.5q-58 0 -108 -28t-86.5 -77t-56 -113t-19.5 -135q0 -83 41.5 -131.5t125.5 -48.5q59 0 108.5 28t86 77t56 113t19.5 135zM682 439q0 -89 -27.5 -170.5t-78.5 -144.5t-122 -98.5t-156 -35.5q-122 0 -184 66.5t-62 179.5
q0 89 27 170.5t78 144.5t122 98.5t156 35.5q122 0 184.5 -66.5t62.5 -179.5zM592 852q-5 -25 -16 -47t-29.5 -39t-43.5 -26.5t-57 -9.5q-31 0 -54 9.5t-36.5 27t-17.5 39.5t1 46h55q-5 -26 10.5 -43.5t47.5 -17.5q33 0 54.5 16t27.5 45h58z" />
    <glyph glyph-name="obreve" unicode="&#x14f;" horiz-adv-x="534" 
d="M412 316q0 51 -26 83t-79 32q-45 0 -79 -22.5t-56.5 -59.5t-33.5 -81t-11 -87q0 -51 26 -82.5t79 -31.5q45 0 79 22.5t56.5 59t33.5 80.5t11 87zM505 328q0 -65 -19 -125.5t-56.5 -108.5t-91.5 -75.5t-121 -27.5q-91 0 -137 48.5t-46 129.5q0 65 19 125.5t56.5 108.5
t91.5 75.5t121 27.5q46 0 81 -13t57.5 -37t33.5 -56.5t11 -71.5zM481 718q-5 -27 -16 -51.5t-29.5 -43.5t-43.5 -29.5t-57 -10.5q-31 0 -52.5 11t-33.5 30t-14.5 43t2.5 51h58q-6 -29 7 -48.5t42 -19.5t49 18t26 50h62z" />
    <glyph glyph-name="Ohungarumlaut" unicode="&#x150;" horiz-adv-x="695" 
d="M585 424q0 83 -41.5 131.5t-125.5 48.5q-58 0 -108 -28t-86.5 -77t-56 -113t-19.5 -135q0 -83 41.5 -131.5t125.5 -48.5q59 0 108.5 28t86 77t56 113t19.5 135zM682 439q0 -89 -27.5 -170.5t-78.5 -144.5t-122 -98.5t-156 -35.5q-122 0 -184 66.5t-62 179.5
q0 89 27 170.5t78 144.5t122 98.5t156 35.5q122 0 184.5 -66.5t62.5 -179.5zM364 724l-37 42l133 128l46 -52zM536 724l-35 42l150 125l42 -54z" />
    <glyph glyph-name="ohungarumlaut" unicode="&#x151;" horiz-adv-x="534" 
d="M412 316q0 51 -26 83t-79 32q-45 0 -79 -22.5t-56.5 -59.5t-33.5 -81t-11 -87q0 -51 26 -82.5t79 -31.5q45 0 79 22.5t56.5 59t33.5 80.5t11 87zM505 328q0 -65 -19 -125.5t-56.5 -108.5t-91.5 -75.5t-121 -27.5q-91 0 -137 48.5t-46 129.5q0 65 19 125.5t56.5 108.5
t91.5 75.5t121 27.5q46 0 81 -13t57.5 -37t33.5 -56.5t11 -71.5zM266 570l-42 39l136 141l50 -49zM437 570l-41 40l145 134l47 -52z" />
    <glyph glyph-name="OE" unicode="&#x152;" horiz-adv-x="890" 
d="M515 591q-20 6 -46 9.5t-51 3.5q-58 0 -108 -28t-86.5 -77t-56 -113t-19.5 -135q0 -83 41.5 -131.5t125.5 -48.5q53 0 104 12zM891 599h-284l-41 -214h261l-14 -74h-261l-45 -234h289l-15 -77h-368q-30 -5 -60.5 -7.5t-54.5 -2.5q-122 0 -184 66.5t-62 179.5
q0 89 27 170.5t78 144.5t122 98.5t156 35.5q27 0 54.5 -2.5t55.5 -7.5h361z" />
    <glyph glyph-name="oe" unicode="&#x153;" horiz-adv-x="834" 
d="M412 316q0 51 -26 83t-79 32q-45 0 -79 -22.5t-56.5 -59.5t-33.5 -81t-11 -87q0 -51 26 -82.5t79 -31.5q45 0 79 22.5t56.5 59t33.5 80.5t11 87zM725 382q0 26 -18.5 40.5t-49.5 14.5q-29 0 -53.5 -11.5t-44 -32.5t-33.5 -48.5t-23 -59.5q116 4 169 28t53 69zM814 393
q0 -80 -81 -124t-241 -50q-2 -10 -3.5 -27t-1.5 -31q0 -29 5.5 -47.5t17 -29.5t30.5 -15.5t47 -4.5q34 0 73.5 7.5t79.5 20.5l-16 -78q-40 -12 -78.5 -17.5t-82.5 -5.5q-66 0 -102.5 22.5t-48.5 72.5q-34 -46 -84 -70.5t-111 -24.5q-91 0 -137 48.5t-46 129.5q0 65 19 125.5
t56.5 108.5t91.5 75.5t121 27.5q62 0 102.5 -26t57.5 -73q31 46 79.5 72.5t107.5 26.5q38 0 66 -9t45.5 -25t25.5 -36t8 -43z" />
    <glyph glyph-name="Racute" unicode="&#x154;" horiz-adv-x="556" 
d="M378 0l-145 292h-49l-55 -292h-90l128 674q54 2 89 3q18 1 36.5 1.5t41.5 0.5q49 0 87.5 -10t65 -29t40 -46.5t13.5 -62.5q0 -39 -12.5 -76t-38.5 -68.5t-66 -54.5t-95 -31q5 -10 12 -21q5 -10 12 -22.5t15 -25.5l120 -232h-109zM197 362q27 -1 70 -1q49 0 83 14t55 36.5
t30 49.5t9 53q0 40 -30 65t-96 25q-16 0 -40 -1t-36 -1zM312 725l-9 53l191 73l13 -71z" />
    <glyph glyph-name="racute" unicode="&#x155;" horiz-adv-x="349" 
d="M364 419q-33 9 -67.5 -16t-64.5 -73.5t-52.5 -106.5t-32.5 -111l-21 -112h-88l50 259q7 35 21.5 115t22.5 123h86q-6 -34 -18 -77t-33 -106l2 -1q23 50 45 86.5t47 62.5t54.5 38t63.5 6zM266 569l-36 45l150 137l46 -56z" />
    <glyph glyph-name="Rcommaaccent" unicode="&#x156;" horiz-adv-x="556" 
d="M378 0l-145 292h-49l-55 -292h-90l128 674q54 2 89 3q18 1 36.5 1.5t41.5 0.5q49 0 87.5 -10t65 -29t40 -46.5t13.5 -62.5q0 -39 -12.5 -76t-38.5 -68.5t-66 -54.5t-95 -31q5 -10 12 -21q5 -10 12 -22.5t15 -25.5l120 -232h-109zM197 362q27 -1 70 -1q49 0 83 14t55 36.5
t30 49.5t9 53q0 40 -30 65t-96 25q-16 0 -40 -1t-36 -1zM217 -49q26 0 39.5 -23t4.5 -54.5t-41.5 -61t-84.5 -51.5l-19 36q37 22 51.5 46t5.5 46q-9 24 4.5 43t39.5 19z" />
    <glyph glyph-name="rcommaaccent" unicode="&#x157;" horiz-adv-x="349" 
d="M364 419q-33 9 -67.5 -16t-64.5 -73.5t-52.5 -106.5t-32.5 -111l-21 -112h-88l50 259q7 35 21.5 115t22.5 123h86q-6 -34 -18 -77t-33 -106l2 -1q23 50 45 86.5t47 62.5t54.5 38t63.5 6zM74 -49q26 0 39.5 -23t4.5 -54.5t-41.5 -61t-84.5 -51.5l-19 36q37 22 51.5 46
t5.5 46q-9 24 4.5 43t39.5 19z" />
    <glyph glyph-name="Rcaron" unicode="&#x158;" horiz-adv-x="556" 
d="M378 0l-145 292h-49l-55 -292h-90l128 674q54 2 89 3q18 1 36.5 1.5t41.5 0.5q49 0 87.5 -10t65 -29t40 -46.5t13.5 -62.5q0 -39 -12.5 -76t-38.5 -68.5t-66 -54.5t-95 -31q5 -10 12 -21q5 -10 12 -22.5t15 -25.5l120 -232h-109zM197 362q27 -1 70 -1q49 0 83 14t55 36.5
t30 49.5t9 53q0 40 -30 65t-96 25q-16 0 -40 -1t-36 -1zM348 724l-140 83l32 50l119 -60l144 60l16 -51z" />
    <glyph glyph-name="rcaron" unicode="&#x159;" horiz-adv-x="349" 
d="M364 419q-33 9 -67.5 -16t-64.5 -73.5t-52.5 -106.5t-32.5 -111l-21 -112h-88l50 259q7 35 21.5 115t22.5 123h86q-6 -34 -18 -77t-33 -106l2 -1q23 50 45 86.5t47 62.5t54.5 38t63.5 6zM268 570l-113 131l46 43l81 -85l116 85l30 -44z" />
    <glyph glyph-name="Sacute" unicode="&#x15a;" horiz-adv-x="493" 
d="M461 590q-31 9 -61.5 13.5t-58.5 4.5q-37 0 -64.5 -9t-46 -24.5t-27.5 -35t-9 -40.5q0 -29 16 -50t34 -32.5t63 -38t70.5 -48t42 -52.5t16.5 -74q0 -42 -17.5 -80t-51.5 -68t-84.5 -47.5t-115.5 -17.5q-42 0 -80 4.5t-71 13.5l17 89q34 -13 72 -20.5t79 -7.5
q74 0 115.5 35t41.5 88q0 30 -16 52t-36 35.5t-62.5 38.5t-67.5 45.5t-41.5 51t-16.5 71.5q0 39 16.5 75t49 63.5t80.5 43t108 15.5q32 0 63.5 -3t61.5 -9zM312 725l-9 53l191 73l13 -71z" />
    <glyph glyph-name="sacute" unicode="&#x15b;" horiz-adv-x="392" 
d="M345 425q-46 12 -81 12q-48 0 -73 -19.5t-25 -51.5q0 -19 10.5 -34.5t22.5 -24.5t41.5 -31t46.5 -38.5t28 -39t11 -50.5q0 -31 -13 -59.5t-39.5 -50.5t-66.5 -34.5t-93 -12.5q-56 0 -103 11l15 78q48 -17 100 -17q51 0 79 20t28 57q0 19 -10.5 34.5t-22.5 25.5
t-41.5 31.5t-46 38t-27.5 38.5t-11 50q0 30 13 56.5t38.5 47.5t62.5 32.5t84 11.5q19 0 41 -2t47 -5zM237 569l-36 45l150 137l46 -56z" />
    <glyph glyph-name="Scircumflex" unicode="&#x15c;" horiz-adv-x="493" 
d="M461 590q-31 9 -61.5 13.5t-58.5 4.5q-37 0 -64.5 -9t-46 -24.5t-27.5 -35t-9 -40.5q0 -29 16 -50t34 -32.5t63 -38t70.5 -48t42 -52.5t16.5 -74q0 -42 -17.5 -80t-51.5 -68t-84.5 -47.5t-115.5 -17.5q-42 0 -80 4.5t-71 13.5l17 89q34 -13 72 -20.5t79 -7.5
q74 0 115.5 35t41.5 88q0 30 -16 52t-36 35.5t-62.5 38.5t-67.5 45.5t-41.5 51t-16.5 71.5q0 39 16.5 75t49 63.5t80.5 43t108 15.5q32 0 63.5 -3t61.5 -9zM480 724l-119 60l-143 -60l-16 51l172 82l139 -82z" />
    <glyph glyph-name="scircumflex" unicode="&#x15d;" horiz-adv-x="392" 
d="M345 425q-46 12 -81 12q-48 0 -73 -19.5t-25 -51.5q0 -19 10.5 -34.5t22.5 -24.5t41.5 -31t46.5 -38.5t28 -39t11 -50.5q0 -31 -13 -59.5t-39.5 -50.5t-66.5 -34.5t-93 -12.5q-56 0 -103 11l15 78q48 -17 100 -17q51 0 79 20t28 57q0 19 -10.5 34.5t-22.5 25.5
t-41.5 31.5t-46 38t-27.5 38.5t-11 50q0 30 13 56.5t38.5 47.5t62.5 32.5t84 11.5q19 0 41 -2t47 -5zM348 570l-81 85l-116 -85l-30 44l160 130l113 -131z" />
    <glyph glyph-name="Scedilla" unicode="&#x15e;" horiz-adv-x="493" 
d="M461 590q-31 9 -61.5 13.5t-58.5 4.5q-37 0 -64.5 -9t-46 -24.5t-27.5 -35t-9 -40.5q0 -29 16 -50t34 -32.5t63 -38t70.5 -48t42 -52.5t16.5 -74q0 -42 -17.5 -80t-51.5 -68t-84.5 -47.5t-115.5 -17.5q-42 0 -80 4.5t-71 13.5l17 89q34 -13 72 -20.5t79 -7.5
q74 0 115.5 35t41.5 88q0 30 -16 52t-36 35.5t-62.5 38.5t-67.5 45.5t-41.5 51t-16.5 71.5q0 39 16.5 75t49 63.5t80.5 43t108 15.5q32 0 63.5 -3t61.5 -9zM209 -40q28 -49 15.5 -96.5t-60.5 -98.5h-78q24 25 38 46t20 40.5t2 39t-17 41.5z" />
    <glyph glyph-name="scedilla" unicode="&#x15f;" horiz-adv-x="392" 
d="M345 425q-46 12 -81 12q-48 0 -73 -19.5t-25 -51.5q0 -19 10.5 -34.5t22.5 -24.5t41.5 -31t46.5 -38.5t28 -39t11 -50.5q0 -31 -13 -59.5t-39.5 -50.5t-66.5 -34.5t-93 -12.5q-56 0 -103 11l15 78q48 -17 100 -17q51 0 79 20t28 57q0 19 -10.5 34.5t-22.5 25.5
t-41.5 31.5t-46 38t-27.5 38.5t-11 50q0 30 13 56.5t38.5 47.5t62.5 32.5t84 11.5q19 0 41 -2t47 -5zM157 -40q28 -49 15.5 -96.5t-60.5 -98.5h-78q24 25 38 46t20 40.5t2 39t-17 41.5z" />
    <glyph glyph-name="Scaron" unicode="&#x160;" horiz-adv-x="493" 
d="M461 590q-31 9 -61.5 13.5t-58.5 4.5q-37 0 -64.5 -9t-46 -24.5t-27.5 -35t-9 -40.5q0 -29 16 -50t34 -32.5t63 -38t70.5 -48t42 -52.5t16.5 -74q0 -42 -17.5 -80t-51.5 -68t-84.5 -47.5t-115.5 -17.5q-42 0 -80 4.5t-71 13.5l17 89q34 -13 72 -20.5t79 -7.5
q74 0 115.5 35t41.5 88q0 30 -16 52t-36 35.5t-62.5 38.5t-67.5 45.5t-41.5 51t-16.5 71.5q0 39 16.5 75t49 63.5t80.5 43t108 15.5q32 0 63.5 -3t61.5 -9zM341 724l-140 83l32 50l119 -60l144 60l16 -51z" />
    <glyph glyph-name="scaron" unicode="&#x161;" horiz-adv-x="392" 
d="M345 425q-46 12 -81 12q-48 0 -73 -19.5t-25 -51.5q0 -19 10.5 -34.5t22.5 -24.5t41.5 -31t46.5 -38.5t28 -39t11 -50.5q0 -31 -13 -59.5t-39.5 -50.5t-66.5 -34.5t-93 -12.5q-56 0 -103 11l15 78q48 -17 100 -17q51 0 79 20t28 57q0 19 -10.5 34.5t-22.5 25.5
t-41.5 31.5t-46 38t-27.5 38.5t-11 50q0 30 13 56.5t38.5 47.5t62.5 32.5t84 11.5q19 0 41 -2t47 -5zM255 570l-113 131l46 43l81 -85l116 85l30 -44z" />
    <glyph glyph-name="uni0162" unicode="&#x162;" horiz-adv-x="506" 
d="M557 598h-190l-114 -598h-90l114 598h-191l15 77h471zM229 -40q28 -49 15.5 -96.5t-60.5 -98.5h-78q24 25 38 46t20 40.5t2 39t-17 41.5z" />
    <glyph glyph-name="uni0163" unicode="&#x163;" horiz-adv-x="364" 
d="M365 427h-136l-49 -263q-11 -56 -1.5 -76t45.5 -20q16 0 35 2.5t39 6.5l-15 -76q-21 -4 -44.5 -6.5t-43.5 -2.5q-38 0 -62.5 9.5t-37 28.5t-14 49t6.5 73l53 275h-98l13 70h99l30 161l92 21l-34 -182h134zM188 -40q28 -49 15.5 -96.5t-60.5 -98.5h-78q24 25 38 46
t20 40.5t2 39t-17 41.5z" />
    <glyph glyph-name="Tcaron" unicode="&#x164;" horiz-adv-x="506" 
d="M557 598h-190l-114 -598h-90l114 598h-191l15 77h471zM342 724l-140 83l32 50l119 -60l144 60l16 -51z" />
    <glyph glyph-name="tcaron" unicode="&#x165;" horiz-adv-x="367" 
d="M365 427h-136l-49 -263q-11 -56 -1.5 -76t45.5 -20q16 0 35 2.5t39 6.5l-15 -76q-21 -4 -44.5 -6.5t-43.5 -2.5q-38 0 -62.5 9.5t-37 28.5t-14 49t6.5 73l53 275h-98l13 70h99l30 161l92 21l-34 -182h134zM470 741l-102 -176l-56 17l87 180z" />
    <glyph glyph-name="Tbar" unicode="&#x166;" horiz-adv-x="506" 
d="M277 598h-191l15 77h471l-15 -77h-190l-42 -219h113l-14 -74h-113l-58 -305h-90l58 305h-114l14 74h114z" />
    <glyph glyph-name="tbar" unicode="&#x167;" horiz-adv-x="391" 
d="M290 1q-27 -5 -46.5 -7t-41.5 -2q-75 0 -99.5 37.5t-7.5 122.5l14 72h-90l12 66h91l27 139h-98l13 68h98l30 161l92 21l-34 -182h135l-12 -68h-136l-27 -139h125l-12 -66h-126l-11 -61q-6 -32 -6 -48t5 -27.5t17 -16t29 -4.5q14 0 35 2.5t38 6.5z" />
    <glyph glyph-name="Utilde" unicode="&#x168;" horiz-adv-x="679" 
d="M597 247q-24 -130 -101.5 -193.5t-205.5 -63.5q-72 0 -118 18.5t-68.5 51.5t-26.5 77t6 98l84 440h90l-85 -444q-16 -84 13.5 -124.5t116.5 -40.5q44 0 78.5 10t60 32.5t43 59t27.5 89.5l79 418h89zM617 808q-43 -73 -112 -73q-22 0 -38.5 7t-36 20.5t-29.5 19t-24 5.5
q-34 0 -64 -45l-44 33q21 36 50.5 55t63.5 19q22 0 38.5 -7t35.5 -20.5t29 -19t24 -5.5q34 0 64 44z" />
    <glyph glyph-name="utilde" unicode="&#x169;" horiz-adv-x="563" 
d="M480 238q-2 -13 -7 -39.5t-8.5 -44.5t-7 -37t-7.5 -39t-7.5 -39.5t-6.5 -38.5h-88q5 29 18 76t37 120h-2q-19 -42 -42.5 -78.5t-52.5 -65.5t-63 -45.5t-72 -16.5q-67 0 -92.5 44.5t-10.5 124.5l64 338h88l-60 -318q-11 -58 -0.5 -85t43.5 -27t68 31t65.5 80t53 104.5
t30.5 102.5l21 112h89zM529 671q-20 -37 -49.5 -57.5t-62.5 -20.5q-22 0 -37.5 7.5t-34 21.5t-27.5 20t-22 6q-33 0 -62 -47l-44 35q20 38 48.5 58t61.5 20q22 0 38 -7t34.5 -21.5t28 -20t22.5 -5.5q34 0 61 46z" />
    <glyph glyph-name="Umacron" unicode="&#x16a;" horiz-adv-x="679" 
d="M597 247q-24 -130 -101.5 -193.5t-205.5 -63.5q-72 0 -118 18.5t-68.5 51.5t-26.5 77t6 98l84 440h90l-85 -444q-16 -84 13.5 -124.5t116.5 -40.5q44 0 78.5 10t60 32.5t43 59t27.5 89.5l79 418h89zM572 748h-271l13 62h270z" />
    <glyph glyph-name="umacron" unicode="&#x16b;" horiz-adv-x="563" 
d="M480 238q-2 -13 -7 -39.5t-8.5 -44.5t-7 -37t-7.5 -39t-7.5 -39.5t-6.5 -38.5h-88q5 29 18 76t37 120h-2q-19 -42 -42.5 -78.5t-52.5 -65.5t-63 -45.5t-72 -16.5q-67 0 -92.5 44.5t-10.5 124.5l64 338h88l-60 -318q-11 -58 -0.5 -85t43.5 -27t68 31t65.5 80t53 104.5
t30.5 102.5l21 112h89zM478 616h-247l12 68h248z" />
    <glyph glyph-name="Ubreve" unicode="&#x16c;" horiz-adv-x="679" 
d="M597 247q-24 -130 -101.5 -193.5t-205.5 -63.5q-72 0 -118 18.5t-68.5 51.5t-26.5 77t6 98l84 440h90l-85 -444q-16 -84 13.5 -124.5t116.5 -40.5q44 0 78.5 10t60 32.5t43 59t27.5 89.5l79 418h89zM584 852q-5 -25 -16 -47t-29.5 -39t-43.5 -26.5t-57 -9.5
q-31 0 -54 9.5t-36.5 27t-17.5 39.5t1 46h55q-5 -26 10.5 -43.5t47.5 -17.5q33 0 54.5 16t27.5 45h58z" />
    <glyph glyph-name="ubreve" unicode="&#x16d;" horiz-adv-x="563" 
d="M480 238q-2 -13 -7 -39.5t-8.5 -44.5t-7 -37t-7.5 -39t-7.5 -39.5t-6.5 -38.5h-88q5 29 18 76t37 120h-2q-19 -42 -42.5 -78.5t-52.5 -65.5t-63 -45.5t-72 -16.5q-67 0 -92.5 44.5t-10.5 124.5l64 338h88l-60 -318q-11 -58 -0.5 -85t43.5 -27t68 31t65.5 80t53 104.5
t30.5 102.5l21 112h89zM496 718q-5 -27 -16 -51.5t-29.5 -43.5t-43.5 -29.5t-57 -10.5q-31 0 -52.5 11t-33.5 30t-14.5 43t2.5 51h58q-6 -29 7 -48.5t42 -19.5t49 18t26 50h62z" />
    <glyph glyph-name="Uring" unicode="&#x16e;" horiz-adv-x="679" 
d="M597 247q-24 -130 -101.5 -193.5t-205.5 -63.5q-72 0 -118 18.5t-68.5 51.5t-26.5 77t6 98l84 440h90l-85 -444q-16 -84 13.5 -124.5t116.5 -40.5q44 0 78.5 10t60 32.5t43 59t27.5 89.5l79 418h89zM563 823q0 -27 -9.5 -51t-28 -41.5t-43 -27t-54.5 -9.5q-45 0 -72 22.5
t-27 61.5q0 28 9.5 51.5t28 41t43 27t54.5 9.5q45 0 72 -22.5t27 -61.5zM436 744q27 0 44 20t17 51q0 20 -10.5 31t-30.5 11q-27 0 -44 -20t-17 -51q0 -20 10.5 -31t30.5 -11z" />
    <glyph glyph-name="uring" unicode="&#x16f;" horiz-adv-x="563" 
d="M480 238q-2 -13 -7 -39.5t-8.5 -44.5t-7 -37t-7.5 -39t-7.5 -39.5t-6.5 -38.5h-88q5 29 18 76t37 120h-2q-19 -42 -42.5 -78.5t-52.5 -65.5t-63 -45.5t-72 -16.5q-67 0 -92.5 44.5t-10.5 124.5l64 338h88l-60 -318q-11 -58 -0.5 -85t43.5 -27t68 31t65.5 80t53 104.5
t30.5 102.5l21 112h89zM479 681q0 -28 -10 -52t-28 -42t-43.5 -28t-55.5 -10q-44 0 -69.5 23.5t-25.5 62.5q0 28 10 52t28 42t43.5 28t56.5 10q43 0 68.5 -23.5t25.5 -62.5zM352 601q27 0 44 20.5t17 49.5q0 20 -10 32.5t-29 12.5q-28 0 -45 -20.5t-17 -50.5q0 -20 10 -32
t30 -12z" />
    <glyph glyph-name="Uhungarumlaut" unicode="&#x170;" horiz-adv-x="679" 
d="M597 247q-24 -130 -101.5 -193.5t-205.5 -63.5q-72 0 -118 18.5t-68.5 51.5t-26.5 77t6 98l84 440h90l-85 -444q-16 -84 13.5 -124.5t116.5 -40.5q44 0 78.5 10t60 32.5t43 59t27.5 89.5l79 418h89zM342 724l-37 42l133 128l46 -52zM514 724l-35 42l150 125l42 -54z" />
    <glyph glyph-name="uhungarumlaut" unicode="&#x171;" horiz-adv-x="563" 
d="M480 238q-2 -13 -7 -39.5t-8.5 -44.5t-7 -37t-7.5 -39t-7.5 -39.5t-6.5 -38.5h-88q5 29 18 76t37 120h-2q-19 -42 -42.5 -78.5t-52.5 -65.5t-63 -45.5t-72 -16.5q-67 0 -92.5 44.5t-10.5 124.5l64 338h88l-60 -318q-11 -58 -0.5 -85t43.5 -27t68 31t65.5 80t53 104.5
t30.5 102.5l21 112h89zM275 570l-42 39l136 141l50 -49zM446 570l-41 40l145 134l47 -52z" />
    <glyph glyph-name="Uogonek" unicode="&#x172;" horiz-adv-x="679" 
d="M597 247q-11 -57 -31.5 -101.5t-55.5 -79.5q-23 -22 -84 -58.5t-87 -62.5q-25 -25 -35 -46t-10 -37q0 -27 32 -27q19 0 40.5 4.5t42.5 14.5l-14 -71q-21 -8 -46 -12.5t-47 -4.5q-45 0 -70 22t-25 55q0 42 28 81t74 68l-26 -1q-65 0 -108.5 16.5t-67.5 48t-29.5 76.5
t5.5 103l84 440h90l-85 -444q-16 -84 13.5 -124.5t116.5 -40.5q44 0 78.5 10t60 32.5t43 59t27.5 89.5l79 418h89z" />
    <glyph glyph-name="uogonek" unicode="&#x173;" horiz-adv-x="563" 
d="M334 -138q0 -27 32 -27q19 0 40 5t42 14l-14 -71q-21 -8 -45.5 -12.5t-47.5 -4.5q-45 0 -69.5 22t-24.5 55q0 43 29.5 84t87.5 80q2 39 9.5 80t29.5 109h-2q-19 -42 -42.5 -78.5t-52.5 -65.5t-63 -45.5t-72 -16.5q-67 0 -92.5 44.5t-10.5 124.5l64 338h88l-60 -318
q-11 -58 -0.5 -85t43.5 -27t68 31t65.5 80t53 104.5t30.5 102.5l21 112h89l-62 -320q-12 -63 -15.5 -107t-3.5 -70q-62 -40 -88.5 -75t-26.5 -63z" />
    <glyph glyph-name="Wcircumflex" unicode="&#x174;" horiz-adv-x="936" 
d="M683 0h-111l-42 444q-4 46 -1 104h-2q-35 -93 -40 -104l-207 -444h-115l-48 675h95l30 -438q2 -45 2 -79t-1 -66h1q12 34 26 69.5t30 71.5l207 442h91l42 -448q2 -34 3.5 -69t0.5 -66h2q11 32 22 63t24 62l204 458h90zM693 724l-119 60l-143 -60l-16 51l172 82l139 -82z
" />
    <glyph glyph-name="wcircumflex" unicode="&#x175;" horiz-adv-x="777" 
d="M560 0h-100l-40 295q-3 25 -4.5 51t-2.5 51h-1q-13 -32 -28 -64l-30 -64l-132 -269h-102l-54 497h95l25 -274q3 -33 5 -66t3 -61h1q12 31 27 64t29 64l136 273h97l33 -273q2 -23 4 -42.5t3 -33t1.5 -26.5t0.5 -27h2q12 31 25 60.5t31 67.5l140 295l84 -28zM549 570
l-81 85l-116 -85l-30 44l160 130l113 -131z" />
    <glyph glyph-name="Ycircumflex" unicode="&#x176;" horiz-adv-x="526" 
d="M311 259l-49 -259h-90l49 259l-135 416h96l71 -220q8 -29 14.5 -54t14.5 -57h1q15 25 30.5 48.5t43.5 66.5l152 216h98zM484 724l-119 60l-143 -60l-16 51l172 82l139 -82z" />
    <glyph glyph-name="ycircumflex" unicode="&#x177;" horiz-adv-x="470" 
d="M98 -257l-87 28l135 222l-87 504h95l43 -267q5 -33 9 -64.5t6 -62.5h1l215 415l84 -29zM394 570l-81 85l-116 -85l-30 44l160 130l113 -131z" />
    <glyph glyph-name="Ydieresis" unicode="&#x178;" horiz-adv-x="526" 
d="M311 259l-49 -259h-90l49 259l-135 416h96l71 -220q8 -29 14.5 -54t14.5 -57h1q15 25 30.5 48.5t43.5 66.5l152 216h98zM524 783q0 -22 -16 -38.5t-39 -16.5q-22 0 -37 15t-15 38t16.5 39t38.5 16q23 0 37.5 -15.5t14.5 -37.5zM314 783q0 -22 -16 -38.5t-39 -16.5
q-22 0 -37 15t-15 37q0 23 16.5 39.5t39.5 16.5q22 0 36.5 -15.5t14.5 -37.5z" />
    <glyph glyph-name="Zacute" unicode="&#x179;" horiz-adv-x="528" 
d="M552 605l-377 -464q-12 -15 -24.5 -29.5t-25.5 -29.5q9 1 31 1.5t50.5 0.5h82.5h166l-15 -84h-440l13 68l359 446q16 21 33 40t37 41q-30 -1 -62 -1.5t-79 -0.5h-178l15 82h427zM332 725l-9 53l191 73l13 -71z" />
    <glyph glyph-name="zacute" unicode="&#x17a;" horiz-adv-x="431" 
d="M414 434l-285 -353q14 1 35.5 1t45.5 0.5t45 0.5h96l-15 -83h-334l12 64l287 355q-25 -1 -55.5 -1.5t-66.5 -0.5h-93l15 80h325zM278 569l-36 45l150 137l46 -56z" />
    <glyph glyph-name="Zdotaccent" unicode="&#x17b;" horiz-adv-x="528" 
d="M552 605l-377 -464q-12 -15 -24.5 -29.5t-25.5 -29.5q9 1 31 1.5t50.5 0.5h82.5h166l-15 -84h-440l13 68l359 446q16 21 33 40t37 41q-30 -1 -62 -1.5t-79 -0.5h-178l15 82h427zM425 788q0 -26 -17.5 -43.5t-41.5 -17.5q-23 0 -38.5 16.5t-15.5 38.5q0 26 17.5 43.5
t41.5 17.5q23 0 38.5 -16t15.5 -39z" />
    <glyph glyph-name="zdotaccent" unicode="&#x17c;" horiz-adv-x="431" 
d="M414 434l-285 -353q14 1 35.5 1t45.5 0.5t45 0.5h96l-15 -83h-334l12 64l287 355q-25 -1 -55.5 -1.5t-66.5 -0.5h-93l15 80h325zM348 656q0 -26 -17.5 -43t-41.5 -17q-23 0 -39 16.5t-16 38.5q0 26 17.5 43.5t41.5 17.5t39.5 -16.5t15.5 -39.5z" />
    <glyph glyph-name="Zcaron" unicode="&#x17d;" horiz-adv-x="528" 
d="M552 605l-377 -464q-12 -15 -24.5 -29.5t-25.5 -29.5q9 1 31 1.5t50.5 0.5h82.5h166l-15 -84h-440l13 68l359 446q16 21 33 40t37 41q-30 -1 -62 -1.5t-79 -0.5h-178l15 82h427zM360 724l-140 83l32 50l119 -60l144 60l16 -51z" />
    <glyph glyph-name="zcaron" unicode="&#x17e;" horiz-adv-x="431" 
d="M414 434l-285 -353q14 1 35.5 1t45.5 0.5t45 0.5h96l-15 -83h-334l12 64l287 355q-25 -1 -55.5 -1.5t-66.5 -0.5h-93l15 80h325zM278 570l-113 131l46 43l81 -85l116 85l30 -44z" />
    <glyph glyph-name="uni018F" unicode="&#x18f;" horiz-adv-x="591" 
d="M579 437q0 -80 -21.5 -158.5t-64.5 -144t-109.5 -104.5t-151.5 -39q-100 0 -149 54.5t-49 154.5q0 41 8 85.5t25 95.5h412q2 19 3 29.5t1 20.5q0 86 -42.5 129t-127.5 43q-45 0 -93 -11t-87 -27l16 85q47 15 91.5 24t90.5 9q120 0 184 -61t64 -185zM143 306
q-4 -17 -8 -47t-4 -55q0 -68 30.5 -100t88.5 -32q41 0 76 17t62.5 48t47 74t29.5 95h-322z" />
    <glyph glyph-name="florin" unicode="&#x192;" horiz-adv-x="433" 
d="M164 81q-21 -69 -42 -114.5t-48 -73.5t-62 -41t-84 -13q-20 0 -37 1t-31 3l15 78q15 -4 33 -6t35 -2q25 0 43.5 8t33.5 27t28 50t27 80l77 262h-118l13 70h125l39 135q27 97 82 145.5t142 48.5q18 0 35 -1.5t32 -4.5l-15 -76q-30 8 -66 8q-45 0 -74 -29t-48 -93l-39 -133
h159l-13 -70h-165z" />
    <glyph glyph-name="Gcaron" unicode="&#x1e6;" horiz-adv-x="668" 
d="M630 572q-40 16 -83.5 24.5t-83.5 8.5q-79 0 -139 -31t-98.5 -82.5t-57.5 -112.5t-19 -121q0 -43 11.5 -77t35 -59t60.5 -38t87 -13q36 0 66.5 5t61.5 14l48 254h90l-59 -315q-51 -19 -110 -28.5t-112 -9.5q-69 0 -121 17.5t-86 50.5t-51 80.5t-17 108.5q0 77 26 154
t79 141t133 102.5t184 38.5q42 0 87 -6.5t85 -17.5zM459 724l-140 83l32 50l119 -60l144 60l16 -51z" />
    <glyph glyph-name="gcaron" unicode="&#x1e7;" horiz-adv-x="538" 
d="M403 425q-17 4 -34 6.5t-37 2.5q-53 0 -92.5 -24.5t-64.5 -65.5t-37 -89.5t-12 -96.5q0 -47 13.5 -69t37.5 -22q33 0 68.5 31t66 81t52.5 105t31 101zM401 -45q-9 -47 -28.5 -84.5t-52.5 -65.5t-81.5 -43.5t-113.5 -15.5q-38 0 -72.5 4t-64.5 11l17 83q30 -9 66.5 -15
t70.5 -6q74 0 117 35.5t59 117.5q5 28 11 54t13 52t16 54t20 62h-2q-16 -35 -36.5 -68.5t-49 -65.5t-65 -53t-79.5 -21q-55 0 -83 37t-28 114q0 71 19 136t57.5 116.5t98 81.5t137.5 30q41 0 78.5 -4t77.5 -11zM341 570l-113 131l46 43l81 -85l116 85l30 -44z" />
    <glyph glyph-name="Aringacute" unicode="&#x1fa;" horiz-adv-x="603" 
d="M451 0l-24 161h-281l-86 -161h-94l364 675h110l108 -675h-97zM379 493q-4 31 -7 53t-4 42h-1q-8 -19 -20 -43.5t-25 -50.5l-140 -260h236zM381 882l-8 42l175 56l12 -55zM512 798q0 -24 -10 -43t-27.5 -32.5t-40 -20.5t-45.5 -7q-39 0 -63.5 19t-24.5 53q0 23 10 42.5
t27.5 33t40 20.5t45.5 7q39 0 63.5 -19t24.5 -53zM398 738q24 0 40.5 14.5t16.5 39.5q0 16 -10 25.5t-30 9.5q-24 0 -40.5 -15t-16.5 -40q0 -16 10 -25t30 -9z" />
    <glyph glyph-name="aringacute" unicode="&#x1fb;" horiz-adv-x="538" 
d="M403 425q-17 4 -34 6.5t-37 2.5q-53 0 -92.5 -24.5t-64.5 -65.5t-37 -89.5t-12 -96.5q0 -47 13.5 -69t37.5 -22q33 0 68.5 31t66 81t52.5 105t31 101zM503 490q-19 -100 -34 -179.5t-25 -130t-17.5 -93.5t-15.5 -87h-89q13 63 58 202l-2 1q-17 -37 -37.5 -71.5t-49.5 -67
t-65.5 -53.5t-79.5 -21q-55 0 -83 37t-28 114q0 71 18.5 136t57.5 116.5t98.5 81.5t137.5 30q41 0 80.5 -4t75.5 -11zM343 780l-9 47l185 69l14 -64zM472 669q0 -26 -9.5 -49t-26.5 -40t-41 -26.5t-52 -9.5q-42 0 -67 21t-25 58q0 26 9.5 49t27 40t41.5 26.5t52 9.5
q42 0 66.5 -21t24.5 -58zM352 591q27 0 43 20t16 50q0 18 -10.5 29t-28.5 11q-28 0 -44 -20t-16 -50q0 -18 11 -29t29 -11z" />
    <glyph glyph-name="AEacute" unicode="&#x1fc;" horiz-adv-x="817" 
d="M423 600q-17 -30 -38 -61.5t-54 -77.5l-159 -225h205l69 364h-23zM818 599h-284l-41 -214h260l-13 -74h-261l-44 -234h288l-14 -77h-289h-88l31 163h-237l-114 -163h-99l476 675h71h88h285zM537 725l-9 53l191 73l13 -71z" />
    <glyph glyph-name="aeacute" unicode="&#x1fd;" horiz-adv-x="765" 
d="M334 224q-52 -2 -91.5 -7.5t-69 -17t-45.5 -31.5t-16 -48q0 -24 15.5 -41t44.5 -17q28 0 54.5 13.5t49 36.5t37.5 52t21 60zM655 382q0 26 -18 40.5t-49 14.5q-28 0 -53 -11.5t-44 -32t-33.5 -47.5t-22.5 -59q57 2 98.5 9t68.5 19t40 28.5t13 38.5zM745 393
q0 -38 -19.5 -68.5t-59 -53t-100.5 -35t-143 -15.5q-2 -11 -3.5 -28t-1.5 -32q0 -29 5.5 -47.5t17 -29.5t30.5 -15.5t47 -4.5q34 0 73.5 7.5t78.5 20.5l-15 -78q-41 -12 -79 -17.5t-82 -5.5q-39 0 -66.5 7t-45.5 21.5t-28 34.5t-15 48q-13 -22 -33 -42t-45.5 -35.5
t-55 -24.5t-60.5 -9q-58 0 -90 31.5t-32 82.5q0 48 24 82.5t67.5 56t102 32t130.5 12.5l6 30q13 61 -5.5 89.5t-76.5 28.5q-36 0 -76.5 -9t-82.5 -24l14 76q40 13 80.5 20.5t80.5 7.5q33 0 57.5 -6t40.5 -17t26 -25t16 -31q13 15 30.5 29t39.5 25t48 17.5t54 6.5
q38 0 66.5 -9t46 -25t25.5 -36t8 -43zM467 569l-36 45l150 137l46 -56z" />
    <glyph glyph-name="Oslashacute" unicode="&#x1fe;" horiz-adv-x="695" 
d="M48 -59l75 107q-33 30 -52 78t-19 110q0 89 27 170.5t78 144.5t122 98.5t156 35.5q33 0 64 -6.5t53 -16.5l74 105l59 -33l-75 -107q33 -28 52.5 -76.5t19.5 -111.5q0 -89 -27.5 -170.5t-78.5 -144.5t-122 -98.5t-156 -35.5q-35 0 -65 6.5t-52 17.5l-74 -106zM234 88
q14 -9 35.5 -14t45.5 -5q59 0 109.5 28t87 77.5t56.5 114t20 134.5q0 39 -9 71.5t-25 53.5zM499 587q-13 8 -34.5 13.5t-45.5 5.5q-59 0 -109.5 -28t-87.5 -77.5t-57 -114t-20 -134.5q0 -41 9.5 -71t25.5 -51zM386 765l-9 53l191 73l13 -71z" />
    <glyph glyph-name="oslashacute" unicode="&#x1ff;" horiz-adv-x="534" 
d="M358 422q-21 13 -50 13q-47 0 -82.5 -23t-59 -60.5t-34.5 -81.5t-11 -87q0 -22 4.5 -39.5t11.5 -31.5zM418 314q0 22 -4.5 40.5t-11.5 30.5l-221 -310q20 -12 51 -12q46 0 82 22.5t59 60t34 81.5t11 87zM505 328q0 -65 -19 -125.5t-56.5 -108.5t-91.5 -75.5t-121 -27.5
q-24 0 -46 4.5t-38 11.5l-67 -96l-51 29l69 97q-16 16 -27 36t-17 44t-6 52q0 65 19 125.5t56.5 108.5t91.5 75.5t121 27.5q47 0 83 -16l68 96l51 -29l-69 -97q16 -16 27 -35.5t17 -44t6 -52.5zM311 569l-36 45l150 137l46 -56z" />
    <glyph glyph-name="Scommaaccent" unicode="&#x218;" horiz-adv-x="493" 
d="M461 590q-31 9 -61.5 13.5t-58.5 4.5q-37 0 -64.5 -9t-46 -24.5t-27.5 -35t-9 -40.5q0 -29 16 -50t34 -32.5t63 -38t70.5 -48t42 -52.5t16.5 -74q0 -42 -17.5 -80t-51.5 -68t-84.5 -47.5t-115.5 -17.5q-42 0 -80 4.5t-71 13.5l17 89q34 -13 72 -20.5t79 -7.5
q74 0 115.5 35t41.5 88q0 30 -16 52t-36 35.5t-62.5 38.5t-67.5 45.5t-41.5 51t-16.5 71.5q0 39 16.5 75t49 63.5t80.5 43t108 15.5q32 0 63.5 -3t61.5 -9zM179 -49q26 0 39.5 -23t4.5 -54.5t-41.5 -61t-84.5 -51.5l-19 36q37 22 51.5 46t5.5 46q-9 24 4.5 43t39.5 19z" />
    <glyph glyph-name="scommaaccent" unicode="&#x219;" horiz-adv-x="392" 
d="M345 425q-46 12 -81 12q-48 0 -73 -19.5t-25 -51.5q0 -19 10.5 -34.5t22.5 -24.5t41.5 -31t46.5 -38.5t28 -39t11 -50.5q0 -31 -13 -59.5t-39.5 -50.5t-66.5 -34.5t-93 -12.5q-56 0 -103 11l15 78q48 -17 100 -17q51 0 79 20t28 57q0 19 -10.5 34.5t-22.5 25.5
t-41.5 31.5t-46 38t-27.5 38.5t-11 50q0 30 13 56.5t38.5 47.5t62.5 32.5t84 11.5q19 0 41 -2t47 -5zM128 -49q26 0 39.5 -23t4.5 -54.5t-41.5 -61t-84.5 -51.5l-19 36q37 22 51.5 46t5.5 46q-9 24 4.5 43t39.5 19z" />
    <glyph glyph-name="Tcommaaccent" unicode="&#x21a;" horiz-adv-x="506" 
d="M557 598h-190l-114 -598h-90l114 598h-191l15 77h471zM193 -49q26 0 39.5 -23t4.5 -54.5t-41.5 -61t-84.5 -51.5l-19 36q37 22 51.5 46t5.5 46q-9 24 4.5 43t39.5 19z" />
    <glyph glyph-name="tcommaaccent" unicode="&#x21b;" horiz-adv-x="364" 
d="M365 427h-136l-49 -263q-11 -56 -1.5 -76t45.5 -20q16 0 35 2.5t39 6.5l-15 -76q-21 -4 -44.5 -6.5t-43.5 -2.5q-38 0 -62.5 9.5t-37 28.5t-14 49t6.5 73l53 275h-98l13 70h99l30 161l92 21l-34 -182h134zM149 -49q26 0 39.5 -23t4.5 -54.5t-41.5 -61t-84.5 -51.5l-19 36
q37 22 51.5 46t5.5 46q-9 24 4.5 43t39.5 19z" />
    <glyph glyph-name="dotlessj" unicode="&#x237;" horiz-adv-x="254" 
d="M119 -34q-8 -44 -21.5 -77t-34.5 -59t-50 -46.5t-68 -39.5l-31 63q26 15 45 29t33 31.5t23.5 41t15.5 57.5l101 531h88z" />
    <glyph glyph-name="uni0259" unicode="&#x259;" horiz-adv-x="473" 
d="M440 344q0 -72 -19.5 -136t-56 -113t-87 -76.5t-111.5 -27.5q-38 0 -65.5 9t-45 25.5t-26 38t-8.5 45.5q0 42 20.5 73.5t61.5 54t101.5 35t140.5 15.5q2 12 3 25.5t1 25.5q0 53 -23.5 75t-78.5 22q-36 0 -74 -8t-72 -22l15 77q35 11 73.5 17.5t77.5 6.5q44 0 76.5 -10
t54 -30.5t32 -50.5t10.5 -71zM334 222q-115 -5 -169 -29.5t-54 -72.5q0 -29 18 -44t49 -15q29 0 54 12t44.5 34t34 51t23.5 64z" />
    <glyph glyph-name="circumflex" unicode="&#x2c6;" horiz-adv-x="435" 
d="M380 570l-81 85l-116 -85l-30 44l160 130l113 -131z" />
    <glyph glyph-name="caron" unicode="&#x2c7;" horiz-adv-x="435" 
d="M282 570l-113 131l46 43l81 -85l116 85l30 -44z" />
    <glyph glyph-name="breve" unicode="&#x2d8;" horiz-adv-x="407" 
d="M417 718q-5 -27 -16 -51.5t-29.5 -43.5t-43.5 -29.5t-57 -10.5q-31 0 -52.5 11t-33.5 30t-14.5 43t2.5 51h58q-6 -29 7 -48.5t42 -19.5t49 18t26 50h62z" />
    <glyph glyph-name="dotaccent" unicode="&#x2d9;" horiz-adv-x="276" 
d="M274 656q0 -26 -17.5 -43t-41.5 -17q-23 0 -39 16.5t-16 38.5q0 26 17.5 43.5t41.5 17.5t39.5 -16.5t15.5 -39.5z" />
    <glyph glyph-name="ring" unicode="&#x2da;" horiz-adv-x="389" 
d="M391 681q0 -28 -10 -52t-28 -42t-43.5 -28t-55.5 -10q-44 0 -69.5 23.5t-25.5 62.5q0 28 10 52t28 42t43.5 28t56.5 10q43 0 68.5 -23.5t25.5 -62.5zM264 601q27 0 44 20.5t17 49.5q0 20 -10 32.5t-29 12.5q-28 0 -45 -20.5t-17 -50.5q0 -20 10 -32t30 -12z" />
    <glyph glyph-name="ogonek" unicode="&#x2db;" horiz-adv-x="378" 
d="M211 0q-61 -40 -88.5 -75t-27.5 -63q0 -27 32 -27q19 0 40.5 5t41.5 14l-14 -71q-21 -8 -45.5 -12.5t-46.5 -4.5q-45 0 -70 22t-25 55q0 43 29.5 84t87.5 80z" />
    <glyph glyph-name="tilde" unicode="&#x2dc;" horiz-adv-x="497" 
d="M497 671q-20 -37 -49.5 -57.5t-62.5 -20.5q-22 0 -37.5 7.5t-34 21.5t-27.5 20t-22 6q-33 0 -62 -47l-44 35q20 38 48.5 58t61.5 20q22 0 38 -7t34.5 -21.5t28 -20t22.5 -5.5q34 0 61 46z" />
    <glyph glyph-name="hungarumlaut" unicode="&#x2dd;" horiz-adv-x="512" 
d="M194 570l-42 39l136 141l50 -49zM365 570l-41 40l145 134l47 -52z" />
    <glyph glyph-name="uni0312" unicode="&#x312;" horiz-adv-x="0" 
d="M-110 720q-39 -23 -52.5 -46.5t-3.5 -45.5q8 -24 -5 -43t-40 -19q-24 0 -38 20t-8 50t37.5 62.5t90.5 57.5z" />
    <glyph glyph-name="uni0315" unicode="&#x315;" horiz-adv-x="290" 
d="M305 741l-102 -176l-56 17l87 180z" />
    <glyph glyph-name="uni0326" unicode="&#x326;" horiz-adv-x="0" 
d="M-342 -49q26 0 39.5 -23t4.5 -54.5t-41.5 -61t-84.5 -51.5l-19 36q37 22 51.5 46t5.5 46q-9 24 4.5 43t39.5 19z" />
    <glyph glyph-name="uni037E" unicode="&#x37e;" horiz-adv-x="286" 
d="M122 113q29 0 46 -22.5t12.5 -60t-37.5 -85t-105 -99.5l-33 39q57 49 71 83t-3 61q-7 13 -7 28t7 27.5t19.5 20.5t29.5 8zM248 395q0 -27 -18.5 -45t-44.5 -18q-25 0 -42.5 17.5t-17.5 42.5q0 27 18.5 45.5t43.5 18.5q26 0 43.5 -18t17.5 -43z" />
    <glyph glyph-name="tonos" unicode="&#x384;" horiz-adv-x="265" 
d="M207 560l-63 9l55 173l80 -10z" />
    <glyph glyph-name="dieresistonos" unicode="&#x385;" horiz-adv-x="509" 
d="M507 657q0 -24 -14.5 -39t-35.5 -15q-20 0 -34 13.5t-14 32.5q0 23 15 38t36 15q20 0 33.5 -13t13.5 -32zM257 657q0 -23 -15 -38.5t-35 -15.5t-34 13.5t-14 32.5q0 23 15 38t36 15q20 0 33.5 -13t13.5 -32zM337 560l-55 5l33 172l72 -5z" />
    <glyph glyph-name="Alphatonos" unicode="&#x386;" horiz-adv-x="617" 
d="M465 0l-24 161h-281l-86 -161h-94l364 675h110l108 -675h-97zM393 493q-4 31 -7 53t-4 42h-1q-8 -19 -20 -43.5t-25 -50.5l-140 -260h236zM152 560l-63 9l55 173l80 -10z" />
    <glyph glyph-name="anoteleia" unicode="&#x387;" horiz-adv-x="279" 
d="M246 499q0 -26 -17.5 -43.5t-42.5 -17.5q-24 0 -39.5 17t-15.5 40q0 26 17.5 43.5t42.5 17.5q24 0 39.5 -17t15.5 -40z" />
    <glyph glyph-name="Epsilontonos" unicode="&#x388;" horiz-adv-x="582" 
d="M583 599h-284l-41 -214h261l-14 -74h-261l-44 -234h288l-14 -77h-288h-90l128 675h90h284zM125 560l-63 9l55 173l80 -10z" />
    <glyph glyph-name="Etatonos" unicode="&#x389;" horiz-adv-x="741" 
d="M613 0h-90l59 311h-337l-59 -311h-90l128 675h90l-55 -286h338l54 286h90zM126 560l-63 9l55 173l80 -10z" />
    <glyph glyph-name="Iotatonos" unicode="&#x38a;" horiz-adv-x="314" 
d="M186 0h-90l128 675h90zM126 560l-63 9l55 173l80 -10z" />
    <glyph glyph-name="Omicrontonos" unicode="&#x38c;" horiz-adv-x="725" 
d="M615 424q0 83 -41.5 131.5t-125.5 48.5q-58 0 -108 -28t-86.5 -77t-56 -113t-19.5 -135q0 -83 41.5 -131.5t125.5 -48.5q59 0 108.5 28t86 77t56 113t19.5 135zM712 439q0 -89 -27.5 -170.5t-78.5 -144.5t-122 -98.5t-156 -35.5q-122 0 -184 66.5t-62 179.5
q0 89 27 170.5t78 144.5t122 98.5t156 35.5q122 0 184.5 -66.5t62.5 -179.5zM126 560l-63 9l55 173l80 -10z" />
    <glyph glyph-name="Upsilontonos" unicode="&#x38e;" horiz-adv-x="635" 
d="M717 675q-74 -95 -129.5 -170.5t-94.5 -139t-62.5 -118t-33.5 -106.5l-27 -141h-90l27 142q10 52 7 106.5t-18 118t-41 139t-60 169.5h95q27 -72 45 -129t28.5 -102t14.5 -78.5t5 -57.5h1q9 26 25.5 60t43.5 78t66.5 100.5t95.5 128.5h102v0zM125 560l-63 9l55 173
l80 -10z" />
    <glyph glyph-name="Omegatonos" unicode="&#x38f;" horiz-adv-x="729" 
d="M404 0l14 75q102 70 147.5 160.5t45.5 195.5q0 82 -39 127.5t-121 45.5q-65 0 -114.5 -32t-84 -81.5t-52 -108.5t-17.5 -114q0 -60 21.5 -104t69.5 -89l-14 -75h-239l15 77h143q-42 34 -66.5 82.5t-24.5 113.5q0 45 11 93t33 93.5t54 86.5t74 72t94 49t113 18
q112 0 177 -60.5t65 -179.5q0 -116 -50.5 -211t-142.5 -157h141l-15 -77h-238zM126 560l-63 9l55 173l80 -10z" />
    <glyph glyph-name="iotadieresistonos" unicode="&#x390;" horiz-adv-x="287" 
d="M236 2q-19 -4 -41.5 -7t-38.5 -3q-48 0 -73 20.5t-25 67.5q0 15 2.5 33.5t7.5 48.5l64 335h88l-60 -319q-6 -28 -8.5 -46t-2.5 -30q0 -17 9 -26t30 -9q28 0 53 6zM387 657q0 -24 -14.5 -39t-35.5 -15q-20 0 -34 13.5t-14 32.5q0 23 15 38t36 15q20 0 33.5 -13t13.5 -32z
M137 657q0 -23 -15 -38.5t-35 -15.5t-34 13.5t-14 32.5q0 23 15 38t36 15q20 0 33.5 -13t13.5 -32zM217 560l-55 5l33 172l72 -5z" />
    <glyph glyph-name="Alpha" unicode="&#x391;" horiz-adv-x="603" 
d="M451 0l-24 161h-281l-86 -161h-94l364 675h110l108 -675h-97zM379 493q-4 31 -7 53t-4 42h-1q-8 -19 -20 -43.5t-25 -50.5l-140 -260h236z" />
    <glyph glyph-name="Beta" unicode="&#x392;" horiz-adv-x="559" 
d="M409 221q0 46 -35.5 69t-114.5 23h-28t-24 -0.5t-19 -0.5l-45 -236q27 -5 78 -5q46 0 81.5 12t59.5 33t35.5 48t11.5 57zM446 527q0 18 -6 32t-19.5 24.5t-36 16.5t-55.5 6q-18 0 -40.5 -1t-45.5 -2l-42 -220q9 0 19 -0.5t19 -0.5h23q50 0 85.5 12t57 33t31.5 46.5
t10 53.5zM542 543q0 -35 -11 -65.5t-31 -54.5t-45 -41.5t-54 -27.5v-1q50 -9 77.5 -42t27.5 -80q0 -46 -18.5 -88t-56 -75t-93.5 -52t-128 -19q-18 0 -49.5 0.5t-64.5 1.5t-57 1l128 675q16 0 53 1.5t65.5 2t55.5 0.5q105 0 153 -37t48 -99z" />
    <glyph glyph-name="Gamma" unicode="&#x393;" horiz-adv-x="418" 
d="M242 598l-113 -598h-90l128 675h90h237l-15 -77h-237z" />
    <glyph glyph-name="Delta" unicode="&#x394;" horiz-adv-x="596" 
d="M369 516q-3 24 -4 41t0 34h-2q-14 -35 -35 -77l-231 -433h341zM-17 0l12 67l331 608h109l100 -608l-12 -67h-540z" />
    <glyph glyph-name="Delta" unicode="&#x2206;" horiz-adv-x="596" 
d="M369 516q-3 24 -4 41t0 34h-2q-14 -35 -35 -77l-231 -433h341zM-17 0l12 67l331 608h109l100 -608l-12 -67h-540z" />
    <glyph glyph-name="Epsilon" unicode="&#x395;" horiz-adv-x="525" 
d="M526 599h-284l-41 -214h261l-14 -74h-261l-44 -234h288l-14 -77h-288h-90l128 675h90h284z" />
    <glyph glyph-name="Zeta" unicode="&#x396;" horiz-adv-x="528" 
d="M552 605l-377 -464q-12 -15 -24.5 -29.5t-25.5 -29.5q9 1 31 1.5t50.5 0.5h82.5h166l-15 -84h-440l13 68l359 446q16 21 33 40t37 41q-30 -1 -62 -1.5t-79 -0.5h-178l15 82h427z" />
    <glyph glyph-name="Eta" unicode="&#x397;" horiz-adv-x="684" 
d="M556 0h-90l59 311h-337l-59 -311h-90l128 675h90l-55 -286h338l54 286h90z" />
    <glyph glyph-name="Theta" unicode="&#x398;" horiz-adv-x="695" 
d="M585 424q0 83 -41.5 131.5t-125.5 48.5q-58 0 -108 -28t-86.5 -77t-56 -113t-19.5 -135q0 -83 41.5 -131.5t125.5 -48.5q59 0 108.5 28t86 77t56 113t19.5 135zM682 439q0 -89 -27.5 -170.5t-78.5 -144.5t-122 -98.5t-156 -35.5q-122 0 -184 66.5t-62 179.5
q0 89 27 170.5t78 144.5t122 98.5t156 35.5q122 0 184.5 -66.5t62.5 -179.5zM244 313l14 72h235l-14 -72h-235z" />
    <glyph glyph-name="Iota" unicode="&#x399;" horiz-adv-x="257" 
d="M129 0h-90l128 675h90z" />
    <glyph glyph-name="Kappa" unicode="&#x39a;" horiz-adv-x="573" 
d="M288 345l221 -345h-115l-201 336l-64 -336h-90l128 675h90l-60 -316l320 316h116z" />
    <glyph glyph-name="Lambda" unicode="&#x39b;" horiz-adv-x="604" 
d="M451 0l-64 439q-4 30 -8.5 70t-7.5 77h-1q-17 -37 -36.5 -76.5t-37.5 -74.5l-233 -435h-97l365 675h110l108 -675h-98z" />
    <glyph glyph-name="Mu" unicode="&#x39c;" horiz-adv-x="876" 
d="M785 0h-92l22 394q4 58 9 108t10 88h-2q-12 -29 -29 -64.5t-39 -79.5l-237 -446h-82l-65 423q-6 39 -11 85t-7 82h-1q-10 -44 -23.5 -95t-29.5 -105l-117 -390h-90l214 675h120l64 -426q5 -31 8 -61.5t3 -59.5h1q26 66 54 121l228 426h132z" />
    <glyph glyph-name="Nu" unicode="&#x39d;" horiz-adv-x="671" 
d="M458 0l-170 395q-23 53 -37 90.5t-25 75.5h-1q-4 -29 -11 -74t-16 -97.5t-18.5 -105t-17.5 -95.5l-35 -189h-88l128 675h51.5h51.5l160 -372q37 -88 59 -161h2q4 31 10.5 74t14.5 91.5t17 98.5t18 99l33 170h87l-128 -675h-42.5h-42.5z" />
    <glyph glyph-name="Xi" unicode="&#x39e;" horiz-adv-x="532" 
d="M443 0h-443l16 83h443zM438 310h-317l13 76h318zM548 593h-426l15 82h426z" />
    <glyph glyph-name="Omicron" unicode="&#x39f;" horiz-adv-x="695" 
d="M585 424q0 83 -41.5 131.5t-125.5 48.5q-58 0 -108 -28t-86.5 -77t-56 -113t-19.5 -135q0 -83 41.5 -131.5t125.5 -48.5q59 0 108.5 28t86 77t56 113t19.5 135zM682 439q0 -89 -27.5 -170.5t-78.5 -144.5t-122 -98.5t-156 -35.5q-122 0 -184 66.5t-62 179.5
q0 89 27 170.5t78 144.5t122 98.5t156 35.5q122 0 184.5 -66.5t62.5 -179.5z" />
    <glyph glyph-name="Pi" unicode="&#x3a0;" horiz-adv-x="648" 
d="M429 0l114 598h-301l-113 -598h-90l128 675h90h301h89l-128 -675h-90z" />
    <glyph glyph-name="Rho" unicode="&#x3a1;" horiz-adv-x="539" 
d="M39 0l128 675q45 2 89 3q37 0 47 0.5t31 0.5q56 0 97.5 -13t69 -36t40.5 -54.5t13 -68.5q0 -53 -20.5 -103t-59.5 -88.5t-96 -61.5t-131 -23q-14 0 -33 0.5t-41 2.5l-44 -234h-90zM188 312q11 -2 33 -4t40 -2q53 0 90.5 17.5t61.5 45t35.5 60.5t11.5 65q0 23 -7.5 43
t-24.5 34.5t-44 23.5t-65 9q-23 0 -37 -0.5t-40 -1.5z" />
    <glyph glyph-name="Sigma" unicode="&#x3a3;" horiz-adv-x="502" 
d="M0 0l15 76l283 270l-168 261l12 68h407l-15 -80h-296l166 -254l-275 -258h317l-16 -83h-430z" />
    <glyph glyph-name="Tau" unicode="&#x3a4;" horiz-adv-x="506" 
d="M557 598h-190l-114 -598h-90l114 598h-191l15 77h471z" />
    <glyph glyph-name="Upsilon" unicode="&#x3a5;" horiz-adv-x="526" 
d="M607 675q-74 -95 -129.5 -170.5t-94.5 -139t-62.5 -118t-33.5 -106.5l-27 -141h-90l27 142q10 52 7 106.5t-18 118t-41 139t-60 169.5h95q27 -72 45 -129t28.5 -102t14.5 -78.5t5 -57.5h1q9 26 25.5 60t43.5 78t66.5 100.5t95.5 128.5h102v0z" />
    <glyph glyph-name="Phi" unicode="&#x3a6;" horiz-adv-x="794" 
d="M781 417q0 -73 -25.5 -142t-75 -124.5t-121 -90t-160.5 -39.5l-14 -74h-87l14 74q-63 2 -112 19t-82 48t-49.5 74t-16.5 96q0 73 25.5 142t74.5 124.5t120.5 90t160.5 39.5l13 70h88l-14 -70q63 -2 112 -19t82 -48t50 -74t17 -96zM686 404q0 38 -11.5 69.5t-34.5 54
t-56.5 35.5t-77.5 15l-91 -480q65 5 116.5 32.5t85.5 70.5t51.5 95.5t17.5 107.5zM418 577q-65 -5 -116.5 -32t-85.5 -70t-51.5 -95.5t-17.5 -108.5q0 -38 11.5 -69t34.5 -53.5t56.5 -35.5t77.5 -15z" />
    <glyph glyph-name="Chi" unicode="&#x3a7;" horiz-adv-x="587" 
d="M367 348l156 -348h-107l-115 279l-221 -279h-109l286 349l-142 326h100l108 -257l203 257h106z" />
    <glyph glyph-name="Psi" unicode="&#x3a8;" horiz-adv-x="770" 
d="M731 410q-22 -117 -100.5 -186t-219.5 -78l-27 -146h-90l28 146q-82 5 -129.5 27t-70.5 56.5t-25 78.5t8 94l21 104q8 43 14 85t6 84h89q-1 -42 -6 -82t-13 -82l-21 -111q-7 -37 -5.5 -68t16.5 -54.5t46.5 -37t84.5 -16.5l85 451h90l-85 -451q90 6 144 52.5t74 150.5
l15 78q5 27 9.5 49t10 42t11.5 39t14 40h87q-16 -42 -25.5 -83.5t-17.5 -83.5l-18 -98v0z" />
    <glyph glyph-name="Omega" unicode="&#x3a9;" horiz-adv-x="705" 
d="M380 0l14 75q102 70 147.5 160.5t45.5 195.5q0 82 -39 127.5t-121 45.5q-65 0 -114.5 -32t-84 -81.5t-52 -108.5t-17.5 -114q0 -60 21.5 -104t69.5 -89l-14 -75h-239l15 77h143q-42 34 -66.5 82.5t-24.5 113.5q0 45 11 93t33 93.5t54 86.5t74 72t94 49t113 18
q112 0 177 -60.5t65 -179.5q0 -116 -50.5 -211t-142.5 -157h141l-15 -77h-238z" />
    <glyph glyph-name="Omega" unicode="&#x2126;" horiz-adv-x="705" 
d="M380 0l14 75q102 70 147.5 160.5t45.5 195.5q0 82 -39 127.5t-121 45.5q-65 0 -114.5 -32t-84 -81.5t-52 -108.5t-17.5 -114q0 -60 21.5 -104t69.5 -89l-14 -75h-239l15 77h143q-42 34 -66.5 82.5t-24.5 113.5q0 45 11 93t33 93.5t54 86.5t74 72t94 49t113 18
q112 0 177 -60.5t65 -179.5q0 -116 -50.5 -211t-142.5 -157h141l-15 -77h-238z" />
    <glyph glyph-name="Iotadieresis" unicode="&#x3aa;" horiz-adv-x="257" 
d="M129 0h-90l128 675h90zM381 783q0 -22 -16 -38.5t-39 -16.5q-22 0 -37 15t-15 38t16.5 39t38.5 16q23 0 37.5 -15.5t14.5 -37.5zM188 783q0 -22 -16 -38.5t-39 -16.5q-22 0 -37 15t-15 37q0 23 16.5 39.5t39.5 16.5q22 0 36.5 -15.5t14.5 -37.5z" />
    <glyph glyph-name="Upsilondieresis" unicode="&#x3ab;" horiz-adv-x="526" 
d="M607 675q-74 -95 -129.5 -170.5t-94.5 -139t-62.5 -118t-33.5 -106.5l-27 -141h-90l27 142q10 52 7 106.5t-18 118t-41 139t-60 169.5h95q27 -72 45 -129t28.5 -102t14.5 -78.5t5 -57.5h1q9 26 25.5 60t43.5 78t66.5 100.5t95.5 128.5h102v0zM523 783q0 -22 -16 -38.5
t-39 -16.5q-22 0 -37 15t-15 38t16.5 39t38.5 16q23 0 37.5 -15.5t14.5 -37.5zM313 783q0 -22 -16 -38.5t-39 -16.5q-22 0 -37 15t-15 37q0 23 16.5 39.5t39.5 16.5q22 0 36.5 -15.5t14.5 -37.5z" />
    <glyph glyph-name="alphatonos" unicode="&#x3ac;" horiz-adv-x="579" 
d="M370 272q0 89 -17 124t-59 35q-39 0 -70 -25t-52 -64t-32.5 -87t-11.5 -94q0 -51 15.5 -72.5t41.5 -21.5q40 0 87 38t98 118v49zM377 127q-30 -41 -59 -67.5t-56 -41.5t-52.5 -21t-49.5 -6q-60 0 -91.5 35.5t-31.5 116.5q0 69 18.5 134t53 116t84.5 82t114 31
q60 0 95 -36.5t39 -123.5q16 33 30.5 69.5t28.5 81.5h86q-32 -84 -65 -153t-65 -121v-41q0 -38 3 -61t9.5 -35.5t15.5 -16.5t21 -4q14 0 24 2l-13 -71q-6 -2 -16.5 -3t-19.5 -1q-50 0 -76 29t-27 106zM361 560l-63 9l55 173l80 -10z" />
    <glyph glyph-name="epsilontonos" unicode="&#x3ad;" horiz-adv-x="434" 
d="M352 14q-41 -12 -80.5 -17.5t-72.5 -5.5q-47 0 -81.5 8.5t-56.5 24t-32 36.5t-10 47q0 51 32.5 92.5t84.5 57.5l1 1q-27 12 -41 31.5t-14 48.5q0 31 13.5 61t40.5 54.5t69.5 38.5t98.5 14q30 0 62 -3.5t62 -10.5l-15 -73q-28 9 -58 14.5t-60 5.5q-34 0 -58 -8t-39 -22
t-22 -30t-7 -33q0 -26 21.5 -41.5t61.5 -15.5h99l-13 -64h-100q-30 0 -53.5 -8.5t-39.5 -23t-24 -32.5t-8 -36q0 -30 25.5 -48t78.5 -18q32 0 69 6.5t80 20.5zM338 560l-63 9l55 173l80 -10z" />
    <glyph glyph-name="etatonos" unicode="&#x3ae;" horiz-adv-x="571" 
d="M198 497q-2 -57 -7.5 -105t-19.5 -94h1q18 41 42 78.5t53 66.5t63.5 46.5t73.5 17.5q69 0 94 -45.5t10 -123.5l-66 -345q-15 -78 -20.5 -133.5t-4.5 -106.5h-86q-1 24 -0.5 48.5t2.5 52t6.5 59.5t12.5 72l64 333q11 58 0.5 85t-44.5 27q-35 0 -69.5 -32.5t-64.5 -80.5
t-52 -103.5t-31 -101.5l-21 -112h-88l47 243q11 60 15 128.5t2 125.5h88zM413 560l-63 9l55 173l80 -10z" />
    <glyph glyph-name="iotatonos" unicode="&#x3af;" horiz-adv-x="287" 
d="M236 2q-19 -4 -41.5 -7t-38.5 -3q-48 0 -73 20.5t-25 67.5q0 15 2.5 33.5t7.5 48.5l64 335h88l-60 -319q-6 -28 -8.5 -46t-2.5 -30q0 -17 9 -26t30 -9q28 0 53 6zM222 560l-63 9l55 173l80 -10z" />
    <glyph glyph-name="upsilondieresistonos" unicode="&#x3b0;" horiz-adv-x="564" 
d="M232 -9q-81 0 -116.5 35.5t-35.5 105.5q0 30 5 61t15 74.5t15 69.5t5 50q0 42 -36 42q-17 0 -26 -1l15 72q14 2 26 3t25 1q42 0 65 -22.5t23 -68.5q0 -33 -5.5 -65t-16 -76t-15.5 -71.5t-5 -55.5q0 -42 17.5 -61.5t58.5 -19.5q49 0 84.5 35t57 95.5t31.5 137.5t12 165h91
q-2 -114 -21.5 -206.5t-56 -160t-90 -103.5t-122.5 -36zM531 657q0 -24 -14.5 -39t-35.5 -15q-20 0 -34 13.5t-14 32.5q0 23 15 38t36 15q20 0 33.5 -13t13.5 -32zM281 657q0 -23 -15 -38.5t-35 -15.5t-34 13.5t-14 32.5q0 23 15 38t36 15q20 0 33.5 -13t13.5 -32zM361 560
l-55 5l33 172l72 -5z" />
    <glyph glyph-name="alpha" unicode="&#x3b1;" horiz-adv-x="579" 
d="M370 272q0 89 -17 124t-59 35q-39 0 -70 -25t-52 -64t-32.5 -87t-11.5 -94q0 -51 15.5 -72.5t41.5 -21.5q40 0 87 38t98 118v49zM377 127q-30 -41 -59 -67.5t-56 -41.5t-52.5 -21t-49.5 -6q-60 0 -91.5 35.5t-31.5 116.5q0 69 18.5 134t53 116t84.5 82t114 31
q60 0 95 -36.5t39 -123.5q16 33 30.5 69.5t28.5 81.5h86q-32 -84 -65 -153t-65 -121v-41q0 -38 3 -61t9.5 -35.5t15.5 -16.5t21 -4q14 0 24 2l-13 -71q-6 -2 -16.5 -3t-19.5 -1q-50 0 -76 29t-27 106z" />
    <glyph glyph-name="beta" unicode="&#x3b2;" horiz-adv-x="535" 
d="M410 295q0 47 -17 76.5t-51 44.5q-35 -16 -78 -31t-97 -31q-10 -49 -15.5 -94t-5.5 -71q0 -36 7 -60.5t19.5 -37.5t29.5 -18.5t40 -5.5q43 0 75 22t52.5 57.5t30.5 74.5t10 74zM440 612q0 23 -14.5 37.5t-42.5 14.5q-38 0 -69.5 -19t-55.5 -52t-41.5 -73.5t-31.5 -88.5
q71 21 119.5 41.5t78.5 42t43.5 45.5t13.5 52zM533 623q0 -52 -28.5 -92.5t-83.5 -73.5q41 -19 62.5 -57.5t21.5 -91.5t-18 -108.5t-53.5 -103t-89 -76.5t-121.5 -29q-39 0 -70 9.5t-53 31t-34 57.5t-12 87q0 42 7 98.5t23 119.5t42.5 124t65 110.5t90.5 79t117 29.5
q68 0 101 -30.5t33 -83.5z" />
    <glyph glyph-name="gamma" unicode="&#x3b3;" horiz-adv-x="472" 
d="M473 496q-6 -69 -25 -130t-47 -115.5t-62.5 -105t-72.5 -99.5q-33 -43 -47 -76t-20 -65l-29 -152h-88l22 116q8 42 12.5 90.5t4.5 92.5q0 91 -18 206.5t-50 238.5h98q12 -51 22 -103.5t17 -102t11 -94t4 -78.5q0 -19 -2 -37h2q14 27 42.5 64t57.5 87.5t51 117t24 153.5
l93 -8v0z" />
    <glyph glyph-name="delta" unicode="&#x3b4;" horiz-adv-x="518" 
d="M390 290q0 44 -19 78t-59 69q-40 -1 -74 -22t-59 -57t-38.5 -81.5t-13.5 -94.5q0 -56 25 -85.5t72 -29.5q39 0 70.5 19.5t52.5 52.5t32 72.5t11 78.5zM362 738q33 0 67 -6.5t62 -17.5l-14 -77q-29 14 -60.5 22.5t-58.5 8.5q-39 0 -56.5 -14t-17.5 -38q0 -10 4 -20
t13.5 -21.5t26 -27.5t45.5 -41q58 -50 83.5 -98.5t25.5 -106.5q0 -67 -21.5 -124t-59.5 -99t-87.5 -64.5t-103.5 -22.5q-84 0 -130 43.5t-46 132.5q0 60 16 114t45 98.5t70 74.5t89 42q-33 30 -48 55.5t-15 54.5q0 28 10.5 51.5t31.5 42t53.5 28.5t75.5 10z" />
    <glyph glyph-name="epsilon" unicode="&#x3b5;" horiz-adv-x="434" 
d="M352 14q-41 -12 -80.5 -17.5t-72.5 -5.5q-47 0 -81.5 8.5t-56.5 24t-32 36.5t-10 47q0 51 32.5 92.5t84.5 57.5l1 1q-27 12 -41 31.5t-14 48.5q0 31 13.5 61t40.5 54.5t69.5 38.5t98.5 14q30 0 62 -3.5t62 -10.5l-15 -73q-28 9 -58 14.5t-60 5.5q-34 0 -58 -8t-39 -22
t-22 -30t-7 -33q0 -26 21.5 -41.5t61.5 -15.5h99l-13 -64h-100q-30 0 -53.5 -8.5t-39.5 -23t-24 -32.5t-8 -36q0 -30 25.5 -48t78.5 -18q32 0 69 6.5t80 20.5z" />
    <glyph glyph-name="zeta" unicode="&#x3b6;" horiz-adv-x="397" 
d="M168 -178q42 44 62 78.5t20 58.5q0 21 -15.5 31.5t-57.5 14.5q-81 9 -116 40.5t-35 95.5q0 45 14.5 96.5t39.5 103.5t57.5 101t68.5 91.5t71 74.5t65 50h-211l14 72h322l-12 -66q-38 -22 -77.5 -57t-77 -79t-70.5 -92t-57.5 -97t-38.5 -94t-14 -81q0 -38 23 -56.5
t82 -25.5q63 -8 91 -31.5t28 -67.5q0 -21 -5.5 -42t-19 -45.5t-37 -53t-57.5 -61.5z" />
    <glyph glyph-name="eta" unicode="&#x3b7;" horiz-adv-x="571" 
d="M198 497q-2 -57 -7.5 -105t-19.5 -94h1q18 41 42 78.5t53 66.5t63.5 46.5t73.5 17.5q69 0 94 -45.5t10 -123.5l-66 -345q-15 -78 -20.5 -133.5t-4.5 -106.5h-86q-1 24 -0.5 48.5t2.5 52t6.5 59.5t12.5 72l64 333q11 58 0.5 85t-44.5 27q-35 0 -69.5 -32.5t-64.5 -80.5
t-52 -103.5t-31 -101.5l-21 -112h-88l47 243q11 60 15 128.5t2 125.5h88z" />
    <glyph glyph-name="theta" unicode="&#x3b8;" horiz-adv-x="560" 
d="M424 497q3 81 -16.5 126t-67.5 45q-38 0 -62.5 -27t-24.5 -69q0 -37 27.5 -56t94.5 -19h49v0zM164 401q-12 -50 -19 -101t-7 -96q0 -64 17 -100.5t62 -36.5q48 0 83 36t59 89.5t37.5 115.5t19.5 114h-52q-97 0 -147 34.5t-50 101.5q0 35 12 68t36 58t58.5 40t79.5 15
q82 0 121.5 -52.5t39.5 -155.5v-34h18q20 0 39.5 -1.5t34.5 -4.5l-15 -73q-19 3 -40.5 3.5t-44.5 0.5q-10 -87 -34.5 -165t-63 -137t-90 -94t-115.5 -35q-84 0 -120.5 52.5t-36.5 147.5q0 52 8.5 105.5t22.5 104.5h87z" />
    <glyph glyph-name="iota" unicode="&#x3b9;" horiz-adv-x="287" 
d="M236 2q-19 -4 -41.5 -7t-38.5 -3q-48 0 -73 20.5t-25 67.5q0 15 2.5 33.5t7.5 48.5l64 335h88l-60 -319q-6 -28 -8.5 -46t-2.5 -30q0 -17 9 -26t30 -9q28 0 53 6z" />
    <glyph glyph-name="kappa" unicode="&#x3ba;" horiz-adv-x="484" 
d="M308 0l-133 255l-49 -255h-88l95 497h88l-42 -220l239 243l65 -50l-217 -205l150 -265h-108z" />
    <glyph glyph-name="lambda" unicode="&#x3bb;" horiz-adv-x="469" 
d="M385 125q6 -36 13 -46.5t21 -10.5q12 0 20 2l-13 -74q-9 -2 -20 -3t-19 -1q-20 0 -34.5 4t-25.5 14t-18.5 27.5t-10.5 45.5l-41 300h-1q-15 -42 -35.5 -90t-46 -100t-55 -105.5t-60.5 -105.5l-83 35q78 121 142.5 242t118.5 245l-9 61q-5 31 -12.5 50.5t-17 30t-20.5 14
t-24 3.5q-7 0 -15.5 -0.5t-17.5 -1.5l14 71q11 2 23 3t22 1q28 0 49 -6.5t38 -22.5t28.5 -45t18.5 -74z" />
    <glyph glyph-name="mu" unicode="&#x3bc;" horiz-adv-x="574" 
d="M507 -2q-13 -3 -25.5 -4.5t-20.5 -1.5q-41 0 -62.5 17t-21.5 60q0 22 6 52.5t22 74.5h-1q-17 -41 -39.5 -78t-49.5 -65t-57 -45t-63 -17q-70 0 -79 65q-1 -17 -1.5 -37t-2.5 -34q-8 -51 -12 -106.5t-4 -125.5h-88q1 95 10.5 168.5t23 138.5t29 127t28.5 134l34 176h88
l-54 -283q-8 -41 -9 -69.5t4 -45.5t16.5 -24.5t28.5 -7.5q33 0 67.5 32.5t64.5 80.5t52 103.5t30 101.5l21 112h89l-57 -297q-7 -35 -9.5 -59.5t-2.5 -38.5q0 -19 7 -26.5t21 -7.5q5 0 9 0.5t12 2.5z" />
    <glyph glyph-name="nu" unicode="&#x3bd;" horiz-adv-x="478" 
d="M209 170q0 -34 -3 -69h1q34 40 65.5 89t58 103t48 109.5t37.5 109.5l91 -23q-24 -67 -52 -131t-64 -127t-80.5 -122t-97.5 -109h-91v343q0 27 -4.5 44.5t-13 26.5t-18.5 12.5t-22 3.5q-7 0 -15 -0.5t-12 -1.5l13 72q14 2 27.5 3t24.5 1q25 0 44.5 -6.5t33.5 -22
t21.5 -41.5t7.5 -63v-201z" />
    <glyph glyph-name="xi" unicode="&#x3be;" horiz-adv-x="401" 
d="M348 -17q0 -21 -5.5 -42t-19 -45.5t-36.5 -53t-58 -61.5l-56 41q42 44 62 78.5t20 58.5q0 21 -16 31.5t-64 15.5q-80 9 -117 41t-37 93q0 41 12 78.5t34.5 69t54.5 53.5t71 33q-37 9 -56 34.5t-19 64.5q0 29 10.5 58t29 55.5t44 45.5t54.5 28q-13 -1 -27 -1.5t-27 -0.5
h-76l14 72h318l-13 -72h-20q-56 0 -98 -16.5t-68.5 -43t-39 -56t-12.5 -54.5q0 -33 22.5 -53.5t69.5 -20.5h80l-14 -72h-44q-58 0 -98.5 -16t-64 -42.5t-34 -57t-10.5 -60.5q0 -38 24 -57t85 -26q68 -9 96.5 -32t28.5 -68z" />
    <glyph glyph-name="omicron" unicode="&#x3bf;" horiz-adv-x="534" 
d="M412 316q0 51 -26 83t-79 32q-45 0 -79 -22.5t-56.5 -59.5t-33.5 -81t-11 -87q0 -51 26 -82.5t79 -31.5q45 0 79 22.5t56.5 59t33.5 80.5t11 87zM505 328q0 -65 -19 -125.5t-56.5 -108.5t-91.5 -75.5t-121 -27.5q-91 0 -137 48.5t-46 129.5q0 65 19 125.5t56.5 108.5
t91.5 75.5t121 27.5q46 0 81 -13t57.5 -37t33.5 -56.5t11 -71.5z" />
    <glyph glyph-name="pi" unicode="&#x3c0;" horiz-adv-x="620" 
d="M501 423q-17 -94 -25.5 -161.5t-8.5 -110.5q0 -46 9.5 -64.5t29.5 -18.5q27 0 47 5l-14 -74q-14 -3 -29 -5t-29 -2q-57 0 -81 32t-24 108q0 46 9.5 117t27.5 174h-161q-19 -112 -55.5 -222.5t-92.5 -212.5l-87 24q59 106 95.5 206t54.5 205h-119l15 74h574l-15 -74h-121z
" />
    <glyph glyph-name="rho" unicode="&#x3c1;" horiz-adv-x="526" 
d="M403 330q0 48 -19 74.5t-64 26.5q-34 0 -60.5 -16.5t-46.5 -44t-35 -63t-25 -72.5t-17 -72.5t-11 -64.5q16 -14 38.5 -23.5t52.5 -9.5q52 0 88 25t58 64t31.5 86t9.5 90zM205 -8q-32 0 -52.5 6t-37.5 19q-6 -57 -11 -126t-7 -138h-88q3 67 7.5 149.5t14.5 166t30 162.5
t55 140t87.5 98t129.5 37t119.5 -40t42.5 -129q0 -61 -16.5 -122.5t-51.5 -111t-90 -80.5t-132 -31z" />
    <glyph glyph-name="sigma1" unicode="&#x3c2;" horiz-adv-x="428" 
d="M342 -17q0 -21 -5.5 -42t-19 -45.5t-37 -53t-57.5 -61.5l-57 41q42 44 62.5 78.5t20.5 58.5q0 21 -15.5 31.5t-57.5 14.5q-73 9 -107.5 48.5t-34.5 106.5q0 55 16.5 115t51 112.5t89.5 85t128 32.5q27 0 54.5 -4t49.5 -11l-15 -79q-21 9 -46 14t-50 5q-47 0 -82.5 -24.5
t-58 -64t-33 -83.5t-10.5 -82q0 -43 22 -65.5t73 -28.5q63 -8 91 -31.5t28 -67.5z" />
    <glyph glyph-name="sigma" unicode="&#x3c3;" horiz-adv-x="564" 
d="M412 318q0 67 -35 112q-15 1 -27 1.5t-24 0.5q-45 0 -82.5 -20t-63.5 -55t-40 -80t-14 -94q0 -57 25.5 -86.5t79.5 -29.5q46 0 80.5 23.5t57 61.5t33 81.5t10.5 84.5zM570 423q-31 0 -57 1t-42 3q13 -19 21 -47t8 -63q0 -61 -19 -119t-56 -105t-90 -74.5t-119 -27.5
q-92 0 -137 45t-45 132q0 76 23 138.5t64.5 107.5t97.5 68.5t121 23.5q32 0 113.5 -4.5t130.5 -4.5z" />
    <glyph glyph-name="tau" unicode="&#x3c4;" horiz-adv-x="355" 
d="M236 423l-48 -253q-6 -31 -7 -50.5t3 -30.5t12.5 -15.5t24.5 -4.5q7 0 18.5 1t20.5 3l-15 -76q-12 -2 -27.5 -3.5t-29.5 -1.5q-67 0 -87.5 36.5t-4.5 121.5l52 273h-106l15 74h321l-14 -74h-128z" />
    <glyph glyph-name="upsilon" unicode="&#x3c5;" horiz-adv-x="564" 
d="M232 -9q-81 0 -116.5 35.5t-35.5 105.5q0 30 5 61t15 74.5t15 69.5t5 50q0 42 -36 42q-17 0 -26 -1l15 72q14 2 26 3t25 1q42 0 65 -22.5t23 -68.5q0 -33 -5.5 -65t-16 -76t-15.5 -71.5t-5 -55.5q0 -42 17.5 -61.5t58.5 -19.5q49 0 84.5 35t57 95.5t31.5 137.5t12 165h91
q-2 -114 -21.5 -206.5t-56 -160t-90 -103.5t-122.5 -36z" />
    <glyph glyph-name="phi" unicode="&#x3c6;" horiz-adv-x="668" 
d="M544 314q0 52 -18.5 85t-48.5 33q-18 0 -31.5 -8t-24.5 -27.5t-21.5 -53.5t-20.5 -86l-35 -188q46 5 83.5 27.5t63.5 57t39.5 76t13.5 84.5zM284 -247h-87l46 239q-100 5 -151.5 58t-51.5 142q0 49 13.5 99t42.5 95.5t73.5 80.5t104.5 53l17 -70q-38 -12 -68 -36.5
t-50 -58t-30 -71.5t-10 -77q0 -126 124 -138l37 193q13 70 32 117t43 74.5t54 39.5t67 12q68 0 107.5 -49t39.5 -129q0 -63 -21.5 -120.5t-62 -103t-97.5 -74t-126 -35.5z" />
    <glyph glyph-name="chi" unicode="&#x3c7;" horiz-adv-x="467" 
d="M373 -249q-1 0 -15.5 -1.5t-22.5 -1.5q-28 0 -45.5 6t-30.5 23t-23 48.5t-19 84.5l-26 146l-193 -310l-87 25l254 375l-35 177q-7 35 -13 56.5t-13.5 32t-16 14.5t-21.5 4q-12 0 -20 -1l14 71q9 1 18.5 2t18.5 1q27 0 45.5 -6t32 -21t23 -43t17.5 -72l23 -133l180 286
l83 -29l-238 -348l39 -189q8 -43 15 -68t14 -37.5t15.5 -17t20.5 -4.5t20 1z" />
    <glyph glyph-name="psi" unicode="&#x3c8;" horiz-adv-x="762" 
d="M334 -247h-88l46 239q-62 3 -103.5 16.5t-65 35.5t-33 50.5t-9.5 64.5q0 24 5 51.5t15 68.5t14.5 64.5t4.5 43.5q0 42 -36 42q-17 0 -26 -1l15 72q14 2 26 3t25 1q42 0 64.5 -22.5t22.5 -68.5q0 -27 -5 -57t-15 -73t-14.5 -66t-4.5 -43q0 -25 6.5 -43.5t21.5 -32.5
t41 -22.5t65 -10.5l116 610h87l-116 -610q59 5 101.5 27t72.5 70t46.5 130t17.5 205h90q-2 -126 -22 -217t-61 -152.5t-104.5 -95t-153.5 -40.5z" />
    <glyph glyph-name="omega" unicode="&#x3c9;" horiz-adv-x="759" 
d="M469 -9q-57 0 -86.5 27.5t-30.5 73.5q-23 -46 -64 -73.5t-90 -27.5q-33 0 -61.5 10.5t-49.5 32t-33.5 55.5t-12.5 81q0 39 8 82t27 87.5t51 89.5t80 89l36 -21l32 -19q-41 -36 -68 -74t-43.5 -75.5t-23 -73.5t-6.5 -67q0 -53 22 -83t60 -30q37 0 69.5 30t46.5 102l31 166
h86l-32 -171q-2 -14 -3.5 -25.5t-1.5 -22.5q0 -42 18.5 -60.5t47.5 -18.5q37 0 66 23t49 59.5t30.5 80.5t10.5 86q0 45 -13.5 83t-39.5 74l36 16l46 21q26 -36 44 -80t18 -107q0 -76 -21.5 -138.5t-57.5 -107.5t-82 -69.5t-95 -24.5z" />
    <glyph glyph-name="iotadieresis" unicode="&#x3ca;" horiz-adv-x="287" 
d="M236 2q-19 -4 -41.5 -7t-38.5 -3q-48 0 -73 20.5t-25 67.5q0 15 2.5 33.5t7.5 48.5l64 335h88l-60 -319q-6 -28 -8.5 -46t-2.5 -30q0 -17 9 -26t30 -9q28 0 53 6zM177 657q0 -24 -16 -40.5t-39 -16.5q-22 0 -37 15.5t-15 36.5q0 24 16.5 40t39.5 16q22 0 36.5 -15
t14.5 -36zM348 657q0 -24 -16 -40.5t-39 -16.5q-22 0 -37 15.5t-15 37.5q0 23 16.5 39t38.5 16t37 -15t15 -36z" />
    <glyph glyph-name="upsilondieresis" unicode="&#x3cb;" horiz-adv-x="564" 
d="M232 -9q-81 0 -116.5 35.5t-35.5 105.5q0 30 5 61t15 74.5t15 69.5t5 50q0 42 -36 42q-17 0 -26 -1l15 72q14 2 26 3t25 1q42 0 65 -22.5t23 -68.5q0 -33 -5.5 -65t-16 -76t-15.5 -71.5t-5 -55.5q0 -42 17.5 -61.5t58.5 -19.5q49 0 84.5 35t57 95.5t31.5 137.5t12 165h91
q-2 -114 -21.5 -206.5t-56 -160t-90 -103.5t-122.5 -36zM310 657q0 -24 -16 -40.5t-39 -16.5q-22 0 -37 15.5t-15 36.5q0 24 16 40t39 16q22 0 37 -15t15 -36zM498 657q0 -24 -16 -40.5t-39 -16.5q-22 0 -37 15.5t-15 37.5q0 23 16 39t39 16q22 0 37 -15t15 -36z" />
    <glyph glyph-name="omicrontonos" unicode="&#x3cc;" horiz-adv-x="534" 
d="M412 316q0 51 -26 83t-79 32q-45 0 -79 -22.5t-56.5 -59.5t-33.5 -81t-11 -87q0 -51 26 -82.5t79 -31.5q45 0 79 22.5t56.5 59t33.5 80.5t11 87zM505 328q0 -65 -19 -125.5t-56.5 -108.5t-91.5 -75.5t-121 -27.5q-91 0 -137 48.5t-46 129.5q0 65 19 125.5t56.5 108.5
t91.5 75.5t121 27.5q46 0 81 -13t57.5 -37t33.5 -56.5t11 -71.5zM360 560l-63 9l55 173l80 -10z" />
    <glyph glyph-name="upsilontonos" unicode="&#x3cd;" horiz-adv-x="564" 
d="M232 -9q-81 0 -116.5 35.5t-35.5 105.5q0 30 5 61t15 74.5t15 69.5t5 50q0 42 -36 42q-17 0 -26 -1l15 72q14 2 26 3t25 1q42 0 65 -22.5t23 -68.5q0 -33 -5.5 -65t-16 -76t-15.5 -71.5t-5 -55.5q0 -42 17.5 -61.5t58.5 -19.5q49 0 84.5 35t57 95.5t31.5 137.5t12 165h91
q-2 -114 -21.5 -206.5t-56 -160t-90 -103.5t-122.5 -36zM370 560l-63 9l55 173l80 -10z" />
    <glyph glyph-name="omegatonos" unicode="&#x3ce;" horiz-adv-x="759" 
d="M469 -9q-57 0 -86.5 27.5t-30.5 73.5q-23 -46 -64 -73.5t-90 -27.5q-33 0 -61.5 10.5t-49.5 32t-33.5 55.5t-12.5 81q0 39 8 82t27 87.5t51 89.5t80 89l36 -21l32 -19q-41 -36 -68 -74t-43.5 -75.5t-23 -73.5t-6.5 -67q0 -53 22 -83t60 -30q37 0 69.5 30t46.5 102l31 166
h86l-32 -171q-2 -14 -3.5 -25.5t-1.5 -22.5q0 -42 18.5 -60.5t47.5 -18.5q37 0 66 23t49 59.5t30.5 80.5t10.5 86q0 45 -13.5 83t-39.5 74l36 16l46 21q26 -36 44 -80t18 -107q0 -76 -21.5 -138.5t-57.5 -107.5t-82 -69.5t-95 -24.5zM469 560l-63 9l55 173l80 -10z" />
    <glyph glyph-name="beta.alt" unicode="&#x3d0;" horiz-adv-x="535" 
d="M410 295q0 47 -17 76.5t-51 44.5q-35 -16 -78 -31t-97 -31q-10 -49 -15.5 -94t-5.5 -71q0 -36 7 -60.5t19.5 -37.5t29.5 -18.5t40 -5.5q43 0 75 22t52.5 57.5t30.5 74.5t10 74zM440 612q0 23 -14.5 37.5t-42.5 14.5q-38 0 -69.5 -19t-55.5 -52t-41.5 -73.5t-31.5 -88.5
q71 21 119.5 41.5t78.5 42t43.5 45.5t13.5 52zM533 623q0 -52 -28.5 -92.5t-83.5 -73.5q41 -19 62.5 -57.5t21.5 -91.5t-18 -108.5t-53.5 -103t-89 -76.5t-121.5 -29q-39 0 -70 9.5t-53 31t-34 57.5t-12 87q0 42 7 98.5t23 119.5t42.5 124t65 110.5t90.5 79t117 29.5
q68 0 101 -30.5t33 -83.5z" />
    <glyph glyph-name="theta1" unicode="&#x3d1;" horiz-adv-x="560" 
d="M424 497q3 81 -16.5 126t-67.5 45q-38 0 -62.5 -27t-24.5 -69q0 -37 27.5 -56t94.5 -19h49v0zM164 401q-12 -50 -19 -101t-7 -96q0 -64 17 -100.5t62 -36.5q48 0 83 36t59 89.5t37.5 115.5t19.5 114h-52q-97 0 -147 34.5t-50 101.5q0 35 12 68t36 58t58.5 40t79.5 15
q82 0 121.5 -52.5t39.5 -155.5v-34h18q20 0 39.5 -1.5t34.5 -4.5l-15 -73q-19 3 -40.5 3.5t-44.5 0.5q-10 -87 -34.5 -165t-63 -137t-90 -94t-115.5 -35q-84 0 -120.5 52.5t-36.5 147.5q0 52 8.5 105.5t22.5 104.5h87z" />
    <glyph glyph-name="phi1" unicode="&#x3d5;" horiz-adv-x="668" 
d="M544 314q0 52 -18.5 85t-48.5 33q-18 0 -31.5 -8t-24.5 -27.5t-21.5 -53.5t-20.5 -86l-35 -188q46 5 83.5 27.5t63.5 57t39.5 76t13.5 84.5zM284 -247h-87l46 239q-100 5 -151.5 58t-51.5 142q0 49 13.5 99t42.5 95.5t73.5 80.5t104.5 53l17 -70q-38 -12 -68 -36.5
t-50 -58t-30 -71.5t-10 -77q0 -126 124 -138l37 193q13 70 32 117t43 74.5t54 39.5t67 12q68 0 107.5 -49t39.5 -129q0 -63 -21.5 -120.5t-62 -103t-97.5 -74t-126 -35.5z" />
    <glyph glyph-name="uni0400" unicode="&#x400;" horiz-adv-x="525" 
d="M526 599h-284l-41 -214h261l-14 -74h-261l-44 -234h288l-14 -77h-288h-90l128 675h90h284zM397 725l-177 58l37 68l165 -75z" />
    <glyph glyph-name="uni0401" unicode="&#x401;" horiz-adv-x="525" 
d="M526 599h-284l-41 -214h261l-14 -74h-261l-44 -234h288l-14 -77h-288h-90l128 675h90h284zM530 783q0 -22 -16 -38.5t-39 -16.5q-22 0 -37 15t-15 38t16.5 39t38.5 16q23 0 37.5 -15.5t14.5 -37.5zM320 783q0 -22 -16 -38.5t-39 -16.5q-22 0 -37 15t-15 37
q0 23 16.5 39.5t39.5 16.5q22 0 36.5 -15.5t14.5 -37.5z" />
    <glyph glyph-name="uni0402" unicode="&#x402;" horiz-adv-x="684" 
d="M640 265q0 -59 -20 -111.5t-61.5 -94t-107.5 -66.5t-156 -28l14 74q66 3 112.5 22t74 49.5t39 66.5t11.5 74q0 28 -8 49t-24 35.5t-40.5 22t-56.5 7.5q-30 0 -63 -6t-63 -17l-65 -342h-90l114 598h-163l14 77h208h236l-14 -77h-191l-35 -181q29 9 65 14.5t73 5.5
q47 0 83.5 -11.5t62 -33.5t38.5 -54t13 -73z" />
    <glyph glyph-name="uni0403" unicode="&#x403;" horiz-adv-x="418" 
d="M479 598h-237l-113 -598h-90l128 675h90h237zM287 725l-9 53l191 73l13 -71z" />
    <glyph glyph-name="uni0404" unicode="&#x404;" horiz-adv-x="591" 
d="M580 574q-34 13 -72 20.5t-75 7.5q-50 0 -92 -16.5t-74.5 -46t-55.5 -69t-37 -86.5h301l-14 -75h-302q-6 -34 -6 -64q0 -84 46 -127.5t137 -43.5q35 0 81 10.5t84 27.5l-18 -89q-39 -14 -84 -22.5t-87 -8.5q-129 0 -193 63t-64 180q0 43 8.5 91.5t26.5 98.5t48.5 96
t74.5 82t104 57t134 21q37 0 75 -5t71 -15z" />
    <glyph glyph-name="uni0405" unicode="&#x405;" horiz-adv-x="493" 
d="M461 590q-31 9 -61.5 13.5t-58.5 4.5q-37 0 -64.5 -9t-46 -24.5t-27.5 -35t-9 -40.5q0 -29 16 -50t34 -32.5t63 -38t70.5 -48t42 -52.5t16.5 -74q0 -42 -17.5 -80t-51.5 -68t-84.5 -47.5t-115.5 -17.5q-42 0 -80 4.5t-71 13.5l17 89q34 -13 72 -20.5t79 -7.5
q74 0 115.5 35t41.5 88q0 30 -16 52t-36 35.5t-62.5 38.5t-67.5 45.5t-41.5 51t-16.5 71.5q0 39 16.5 75t49 63.5t80.5 43t108 15.5q32 0 63.5 -3t61.5 -9z" />
    <glyph glyph-name="uni0406" unicode="&#x406;" horiz-adv-x="257" 
d="M129 0h-90l128 675h90z" />
    <glyph glyph-name="uni0407" unicode="&#x407;" horiz-adv-x="257" 
d="M129 0h-90l128 675h90zM389 783q0 -22 -16 -38.5t-39 -16.5q-22 0 -37 15t-15 38t16.5 39t38.5 16q23 0 37.5 -15.5t14.5 -37.5zM179 783q0 -22 -16 -38.5t-39 -16.5q-22 0 -37 15t-15 37q0 23 16.5 39.5t39.5 16.5q22 0 36.5 -15.5t14.5 -37.5z" />
    <glyph glyph-name="uni0408" unicode="&#x408;" horiz-adv-x="257" 
d="M-73 -131q24 13 42 25t32.5 30t25 45t18.5 69l121 637h91l-122 -640q-9 -49 -23 -84t-35 -60.5t-50 -45t-68 -37.5z" />
    <glyph glyph-name="uni0409" unicode="&#x409;" horiz-adv-x="892" 
d="M857 251q0 -45 -17.5 -90t-54.5 -82t-95 -59.5t-136 -22.5q-46 0 -91.5 1t-66.5 2l114 598h-234q-25 -133 -47.5 -228t-44.5 -160.5t-45 -106.5t-49.5 -64t-57.5 -33t-73 -14l17 87q22 4 38.5 12.5t33 29t33 60t35.5 104t40.5 160.5t47.5 230h86h234h90l-50 -266
q9 1 31 1.5t48 0.5q55 0 96 -12t67 -33t38.5 -50.5t12.5 -64.5zM761 237q0 22 -7 40t-22.5 31.5t-41 20.5t-62.5 7q-25 0 -46.5 -0.5t-31.5 -0.5l-50 -261q9 0 28.5 -1t43.5 -1q48 0 84.5 14t59.5 37.5t34 52.5t11 61z" />
    <glyph glyph-name="uni040A" unicode="&#x40a;" horiz-adv-x="939" 
d="M903 251q0 -43 -17 -88t-53 -82t-93.5 -60.5t-138.5 -23.5q-28 0 -80.5 1t-77.5 2l58 311h-314l-58 -311h-90l128 675h90l-55 -286h315l54 286h90l-50 -266q28 1 41.5 1.5t37.5 0.5q57 0 97 -12t66 -33.5t38 -51t12 -63.5zM807 237q0 21 -6.5 39.5t-21.5 31.5t-40.5 20.5
t-63.5 7.5h-26t-53 -1l-49 -261q21 -1 39 -1.5t32 -0.5q51 0 86.5 14.5t58.5 37.5t33.5 53t10.5 60z" />
    <glyph glyph-name="uni040B" unicode="&#x40b;" horiz-adv-x="706" 
d="M631 282q0 -16 -2.5 -37t-6.5 -40l-39 -205h-90l40 208q6 32 6 59q0 22 -6 39.5t-19.5 30.5t-36 20t-55.5 7q-36 0 -70.5 -7t-61.5 -17l-65 -340h-90l115 599h-162l14 76h204.5h239.5l-14 -76h-192l-35 -184q29 10 64.5 16t72.5 6q52 0 88.5 -11t58.5 -32t32 -49t10 -63z
" />
    <glyph glyph-name="uni040C" unicode="&#x40c;" horiz-adv-x="573" 
d="M288 345l221 -345h-115l-201 336l-64 -336h-90l128 675h90l-60 -316l320 316h116zM358 725l-9 53l191 73l13 -71z" />
    <glyph glyph-name="uni040D" unicode="&#x40d;" horiz-adv-x="675" 
d="M547 0h-90l82 428q5 26 12.5 57t17.5 65h-1q-14 -22 -29 -43t-31 -42l-368 -465h-101l128 675h90l-84 -438q-6 -28 -12.5 -55t-13.5 -51h1q14 21 28.5 42.5t26.5 37.5l367 464h105zM454 725l-177 58l37 68l165 -75z" />
    <glyph glyph-name="uni040E" unicode="&#x40e;" horiz-adv-x="545" 
d="M311 149q-26 -44 -50 -74t-48.5 -48.5t-50.5 -27t-56 -8.5q-18 0 -36.5 2.5t-32.5 8.5l15 79q28 -11 59 -11q34 0 60.5 20t59.5 75l-126 510h97l68 -298q7 -34 12.5 -62t8.5 -53l2 -3q14 29 30.5 59.5t39.5 72.5l158 284h98zM547 849q-5 -28 -19 -51t-36.5 -40.5
t-54.5 -27t-72 -9.5q-76 0 -111 34t-23 94h80q-3 -18 -1.5 -31.5t9.5 -22.5t21.5 -14t33.5 -5q38 0 61.5 19t30.5 54h81z" />
    <glyph glyph-name="uni040F" unicode="&#x40f;" horiz-adv-x="646" 
d="M518 0h-90h-109l-30 -153h-79l29 153h-110h-90l128 675h90l-114 -598h299l114 598h90z" />
    <glyph glyph-name="uni0410" unicode="&#x410;" horiz-adv-x="603" 
d="M451 0l-24 161h-281l-86 -161h-94l364 675h110l108 -675h-97zM379 493q-4 31 -7 53t-4 42h-1q-8 -19 -20 -43.5t-25 -50.5l-140 -260h236z" />
    <glyph glyph-name="uni0411" unicode="&#x411;" horiz-adv-x="555" 
d="M408 231q0 44 -32 68.5t-100 24.5h-86l-47 -247q13 -2 36 -3.5t49 -1.5q46 0 80.5 14t56.5 37t32.5 51t10.5 57zM529 599h-287l-38 -203h85q106 0 160.5 -40t54.5 -114q0 -46 -18.5 -90t-55.5 -79.5t-92.5 -56t-125.5 -20.5q-26 0 -56.5 0.5t-61 2t-55.5 2.5l127 674h90
h287z" />
    <glyph glyph-name="uni0412" unicode="&#x412;" horiz-adv-x="559" 
d="M409 221q0 46 -35.5 69t-114.5 23h-28t-24 -0.5t-19 -0.5l-45 -236q27 -5 78 -5q46 0 81.5 12t59.5 33t35.5 48t11.5 57zM446 527q0 18 -6 32t-19.5 24.5t-36 16.5t-55.5 6q-18 0 -40.5 -1t-45.5 -2l-42 -220q9 0 19 -0.5t19 -0.5h23q50 0 85.5 12t57 33t31.5 46.5
t10 53.5zM542 543q0 -35 -11 -65.5t-31 -54.5t-45 -41.5t-54 -27.5v-1q50 -9 77.5 -42t27.5 -80q0 -46 -18.5 -88t-56 -75t-93.5 -52t-128 -19q-18 0 -49.5 0.5t-64.5 1.5t-57 1l128 675q16 0 53 1.5t65.5 2t55.5 0.5q105 0 153 -37t48 -99z" />
    <glyph glyph-name="uni0413" unicode="&#x413;" horiz-adv-x="418" 
d="M479 598h-237l-113 -598h-90l128 675h90h237z" />
    <glyph glyph-name="uni0414" unicode="&#x414;" horiz-adv-x="661" 
d="M561 -153h-80l29 153h-470l-30 -153h-79l44 230h54q16 17 30 37.5t27.5 49.5t27.5 71t29.5 103t33 143.5t38.5 193.5h89h247h90l-114 -598h78zM537 599h-247q-26 -131 -47 -220t-40.5 -148t-38.5 -94.5t-41 -59.5h314z" />
    <glyph glyph-name="uni0415" unicode="&#x415;" horiz-adv-x="525" 
d="M526 599h-284l-41 -214h261l-14 -74h-261l-44 -234h288l-14 -77h-288h-90l128 675h90h284z" />
    <glyph glyph-name="uni0416" unicode="&#x416;" horiz-adv-x="804" 
d="M402 0h-90l63 334l-300 -334h-118l328 351l-189 324h106l177 -318l61 318h90l-61 -318l295 318h109l-314 -331l197 -344h-114l-177 334z" />
    <glyph glyph-name="uni0417" unicode="&#x417;" horiz-adv-x="512" 
d="M498 550q0 -33 -11 -64t-31.5 -56.5t-48.5 -43.5t-62 -27v-1q53 -10 83 -43t30 -83q0 -46 -19.5 -89.5t-57 -77.5t-93.5 -53.5t-127 -19.5q-45 0 -85 4.5t-72 13.5l16 82q32 -11 70.5 -17.5t81.5 -6.5q44 0 79.5 11t60.5 31t38 48t13 61q0 49 -42.5 72t-125.5 23h-54
l14 71h34q57 0 98 11.5t66.5 31.5t37.5 46.5t12 56.5q0 18 -6.5 32.5t-20.5 24.5t-36 15.5t-53 5.5q-36 0 -75 -7t-76 -18l15 77q32 10 74.5 16t82.5 6q96 0 143 -36t47 -97z" />
    <glyph glyph-name="uni0418" unicode="&#x418;" horiz-adv-x="675" 
d="M547 0h-90l82 428q5 26 12.5 57t17.5 65h-1q-14 -22 -29 -43t-31 -42l-368 -465h-101l128 675h90l-84 -438q-6 -28 -12.5 -55t-13.5 -51h1q14 21 28.5 42.5t26.5 37.5l367 464h105z" />
    <glyph glyph-name="uni0419" unicode="&#x419;" horiz-adv-x="675" 
d="M547 0h-90l82 428q5 26 12.5 57t17.5 65h-1q-14 -22 -29 -43t-31 -42l-368 -465h-101l128 675h90l-84 -438q-6 -28 -12.5 -55t-13.5 -51h1q14 21 28.5 42.5t26.5 37.5l367 464h105zM612 849q-5 -28 -19 -51t-36.5 -40.5t-54.5 -27t-72 -9.5q-76 0 -111 34t-23 94h80
q-3 -18 -1.5 -31.5t9.5 -22.5t21.5 -14t33.5 -5q38 0 61.5 19t30.5 54h81z" />
    <glyph glyph-name="uni041A" unicode="&#x41a;" horiz-adv-x="573" 
d="M288 345l221 -345h-115l-201 336l-64 -336h-90l128 675h90l-60 -316l320 316h116z" />
    <glyph glyph-name="uni041B" unicode="&#x41b;" horiz-adv-x="615" 
d="M488 0h-90l114 598h-236q-25 -133 -47.5 -228t-44.5 -160.5t-45 -106.5t-49.5 -64t-57.5 -33t-73 -14l17 87q22 4 38.5 12.5t33 29t33 60t35.5 104t40.5 160.5t47.5 230h86h236h90z" />
    <glyph glyph-name="uni041C" unicode="&#x41c;" horiz-adv-x="876" 
d="M785 0h-92l22 394q4 58 9 108t10 88h-2q-12 -29 -29 -64.5t-39 -79.5l-237 -446h-82l-65 423q-6 39 -11 85t-7 82h-1q-10 -44 -23.5 -95t-29.5 -105l-117 -390h-90l214 675h120l64 -426q5 -31 8 -61.5t3 -59.5h1q26 66 54 121l228 426h132z" />
    <glyph glyph-name="uni041D" unicode="&#x41d;" horiz-adv-x="670" 
d="M452 0l59 311h-323l-59 -311h-90l128 675h90l-55 -286h323l55 286h90l-129 -675h-89z" />
    <glyph glyph-name="uni041E" unicode="&#x41e;" horiz-adv-x="695" 
d="M585 424q0 83 -41.5 131.5t-125.5 48.5q-58 0 -108 -28t-86.5 -77t-56 -113t-19.5 -135q0 -83 41.5 -131.5t125.5 -48.5q59 0 108.5 28t86 77t56 113t19.5 135zM682 439q0 -89 -27.5 -170.5t-78.5 -144.5t-122 -98.5t-156 -35.5q-122 0 -184 66.5t-62 179.5
q0 89 27 170.5t78 144.5t122 98.5t156 35.5q122 0 184.5 -66.5t62.5 -179.5z" />
    <glyph glyph-name="uni041F" unicode="&#x41f;" horiz-adv-x="648" 
d="M429 0l114 598h-301l-113 -598h-90l128 675h90h301h89l-128 -675h-90z" />
    <glyph glyph-name="uni0420" unicode="&#x420;" horiz-adv-x="539" 
d="M39 0l128 675q45 2 89 3q37 0 47 0.5t31 0.5q56 0 97.5 -13t69 -36t40.5 -54.5t13 -68.5q0 -53 -20.5 -103t-59.5 -88.5t-96 -61.5t-131 -23q-14 0 -33 0.5t-41 2.5l-44 -234h-90zM188 312q11 -2 33 -4t40 -2q53 0 90.5 17.5t61.5 45t35.5 60.5t11.5 65q0 23 -7.5 43
t-24.5 34.5t-44 23.5t-65 9q-23 0 -37 -0.5t-40 -1.5z" />
    <glyph glyph-name="uni0421" unicode="&#x421;" horiz-adv-x="571" 
d="M576 569q-72 33 -147 33q-68 0 -121 -31.5t-87.5 -84t-51.5 -116.5t-17 -129q0 -37 9.5 -67t30 -52.5t54 -35t79.5 -12.5q38 0 81.5 8.5t88.5 23.5l-17 -84q-41 -13 -87.5 -21.5t-90.5 -8.5q-71 0 -119.5 20t-76 54t-39 74t-11.5 84q0 83 23 164t70.5 148t121.5 107
t172 40q40 0 79 -7.5t73 -19.5z" />
    <glyph glyph-name="uni0422" unicode="&#x422;" horiz-adv-x="506" 
d="M557 598h-190l-114 -598h-90l114 598h-191l15 77h471z" />
    <glyph glyph-name="uni0423" unicode="&#x423;" horiz-adv-x="545" 
d="M311 149q-26 -44 -50 -74t-48.5 -48.5t-50.5 -27t-56 -8.5q-18 0 -36.5 2.5t-32.5 8.5l15 79q28 -11 59 -11q34 0 60.5 20t59.5 75l-126 510h97l68 -298q7 -34 12.5 -62t8.5 -53l2 -3q14 29 30.5 59.5t39.5 72.5l158 284h98z" />
    <glyph glyph-name="uni0424" unicode="&#x424;" horiz-adv-x="810" 
d="M798 415q0 -76 -26 -145t-76.5 -123t-123.5 -87t-165 -39l-14 -74h-87l14 74q-69 4 -120 22t-84 48.5t-49.5 72.5t-16.5 94q0 76 25.5 145t75.5 123.5t123.5 88t166.5 39.5l14 70h87l-14 -70q69 -4 120 -21.5t84 -48.5t49.5 -73.5t16.5 -95.5zM704 402q0 38 -10.5 68.5
t-33.5 53t-59 36.5t-87 17l-92 -478q66 4 119 30t89 67.5t55 94.5t19 111zM427 577q-66 -4 -119 -30t-89.5 -68t-55 -95t-18.5 -111q0 -38 10.5 -68.5t33.5 -53t59.5 -36t86.5 -16.5z" />
    <glyph glyph-name="uni0425" unicode="&#x425;" horiz-adv-x="587" 
d="M367 348l156 -348h-107l-115 279l-221 -279h-109l286 349l-142 326h100l108 -257l203 257h106z" />
    <glyph glyph-name="uni0426" unicode="&#x426;" horiz-adv-x="676" 
d="M533 77h88l-44 -231h-80l30 154h-98h-300h-90l128 675h90l-114 -598h301l113 598h90z" />
    <glyph glyph-name="uni0427" unicode="&#x427;" horiz-adv-x="608" 
d="M480 0h-90l54 286q-32 -13 -74 -21.5t-86 -8.5q-53 0 -90 11t-60 32t-33 49.5t-10 65.5q0 17 2 35.5t7 42.5l35 183h89l-35 -187q-6 -34 -6 -58q0 -48 27.5 -73t92.5 -25q44 0 83.5 8.5t72.5 24.5l59 310h90z" />
    <glyph glyph-name="uni0428" unicode="&#x428;" horiz-adv-x="922" 
d="M794 0h-90h-242h-88h-245h-90l128 675h89l-114 -598h244l114 598h89l-114 -598h244l115 598h89z" />
    <glyph glyph-name="uni0429" unicode="&#x429;" horiz-adv-x="952" 
d="M808 77h88l-44 -230h-80l30 153h-94h-244h-88h-251h-86l128 675h89l-114 -598h244l114 598h89l-114 -598h244l114 598h90z" />
    <glyph glyph-name="uni042A" unicode="&#x42a;" horiz-adv-x="634" 
d="M599 251q0 -45 -17.5 -90t-54.5 -82.5t-95.5 -60t-135.5 -22.5q-48 0 -96.5 1.5t-63.5 3.5l114 599h-164l14 75h164h90l-50 -266q10 1 32.5 1.5t48.5 0.5q55 0 95.5 -12t67 -33t39 -50.5t12.5 -64.5zM503 237q0 22 -7 40t-22.5 31.5t-41.5 20.5t-62 7q-25 0 -47.5 -0.5
t-32.5 -0.5l-50 -261q9 0 29.5 -1t43.5 -1q48 0 84.5 14t60 37.5t34.5 52.5t11 61z" />
    <glyph glyph-name="uni042B" unicode="&#x42b;" horiz-adv-x="791" 
d="M408 237q0 46 -31.5 72.5t-102.5 26.5q-26 0 -49 -0.5t-33 -0.5l-50 -261q9 0 29.5 -1t45.5 -1q48 0 84.5 13.5t60 36.5t35 53t11.5 62zM504 251q0 -45 -18 -90t-55 -82.5t-95.5 -60t-135.5 -22.5q-47 0 -97 1.5t-64 3.5l128 674h90l-51 -266q10 1 33 1.5t49 0.5
q109 0 162.5 -43.5t53.5 -116.5zM663 0h-90l128 675h90z" />
    <glyph glyph-name="uni042C" unicode="&#x42c;" horiz-adv-x="539" 
d="M408 237q0 46 -31.5 72.5t-102.5 26.5q-26 0 -49 -0.5t-33 -0.5l-50 -261q9 0 29.5 -1t45.5 -1q48 0 84.5 13.5t60 36.5t35 53t11.5 62zM504 251q0 -45 -18 -90t-55 -82.5t-95.5 -60t-135.5 -22.5q-47 0 -97 1.5t-64 3.5l128 674h90l-51 -266q10 1 33 1.5t49 0.5
q109 0 162.5 -43.5t53.5 -116.5z" />
    <glyph glyph-name="uni042D" unicode="&#x42d;" horiz-adv-x="569" 
d="M557 436q0 -95 -28 -176t-80 -141.5t-125 -93.5t-161 -33q-39 0 -80.5 7t-74.5 19l17 88q31 -14 71.5 -23.5t79.5 -9.5q51 0 95 17t78.5 48.5t58.5 75t35 95.5h-308l14 75h308q1 11 1.5 20.5t0.5 24.5q0 85 -46 129.5t-132 44.5q-37 0 -78.5 -8t-80.5 -22l16 83
q40 12 79.5 19t85.5 7q123 0 188.5 -62.5t65.5 -183.5z" />
    <glyph glyph-name="uni042E" unicode="&#x42e;" horiz-adv-x="918" 
d="M809 442q0 76 -37.5 119t-109.5 43q-55 0 -102.5 -27.5t-83.5 -77.5t-55.5 -118t-19.5 -146t38 -121t110 -43q55 0 102.5 27.5t83 78t55 118.5t19.5 147zM905 452q0 -99 -27.5 -184t-78 -147.5t-118 -96.5t-144.5 -34q-115 0 -173.5 61.5t-58.5 170.5q0 46 7 88h-125
l-58 -310h-90l128 675h90l-56 -290h126q20 66 52.5 121t76.5 95t99 62t117 22q116 0 174.5 -61.5t58.5 -171.5z" />
    <glyph glyph-name="uni042F" unicode="&#x42f;" horiz-adv-x="570" 
d="M441 0h-90l55 289h-82l-224 -289h-109l245 306q-52 11 -82.5 48.5t-30.5 91.5q0 41 15.5 81.5t49.5 75t90.5 55.5t133.5 21q36 0 74 -2t82 -5zM465 602q-15 1 -34.5 2t-39.5 1q-46 0 -80 -13t-54.5 -34.5t-30 -48t-9.5 -53.5q0 -44 31 -69.5t91 -25.5h81z" />
    <glyph glyph-name="uni0430" unicode="&#x430;" horiz-adv-x="538" 
d="M403 425q-17 4 -34 6.5t-37 2.5q-53 0 -92.5 -24.5t-64.5 -65.5t-37 -89.5t-12 -96.5q0 -47 13.5 -69t37.5 -22q33 0 68.5 31t66 81t52.5 105t31 101zM503 490q-19 -100 -34 -179.5t-25 -130t-17.5 -93.5t-15.5 -87h-89q13 63 58 202l-2 1q-17 -37 -37.5 -71.5t-49.5 -67
t-65.5 -53.5t-79.5 -21q-55 0 -83 37t-28 114q0 71 18.5 136t57.5 116.5t98.5 81.5t137.5 30q41 0 80.5 -4t75.5 -11z" />
    <glyph glyph-name="uni0431" unicode="&#x431;" horiz-adv-x="542" 
d="M422 322q0 52 -23.5 79t-72.5 27q-30 0 -57.5 -13t-50.5 -37q-37 -37 -54.5 -85t-17.5 -105q0 -121 98 -121q47 0 81.5 26t55.5 66.5t31 84t10 78.5zM539 661q-24 -11 -64 -15t-78 -7t-72 -14.5t-61 -38.5q-29 -29 -53 -75.5t-45 -117.5h1q28 49 76 79t108 30
q36 0 66 -9.5t51.5 -30t33.5 -53t12 -77.5q0 -61 -19 -121.5t-55.5 -110.5t-90 -79.5t-119.5 -29.5q-82 0 -127.5 48.5t-45.5 149.5q0 41 9.5 101.5t29 126t48.5 124.5t65 95q28 28 59.5 45t63.5 25.5t59 11.5t65.5 5.5t60 6t37.5 11.5z" />
    <glyph glyph-name="uni0432" unicode="&#x432;" horiz-adv-x="539" 
d="M523 620q0 -49 -32 -89.5t-101 -72.5q57 -10 83 -50.5t26 -104.5q0 -50 -15.5 -104t-49 -101.5t-85.5 -77t-122 -29.5q-39 0 -69 9.5t-52 31t-34 58.5t-12 90q0 50 9 114.5t28.5 134t50.5 132t74 105.5q31 32 72.5 51t90.5 19q67 0 102.5 -31.5t35.5 -84.5zM430 607
q0 25 -14 40t-44 15t-56 -15t-48 -42.5t-40 -65t-33 -85.5q66 14 112 32t73 38t38.5 40.5t11.5 42.5zM405 290q0 59 -23.5 86.5t-67.5 27.5q-29 0 -62.5 -6t-74.5 -18q-13 -53 -18.5 -104t-5.5 -87t6 -60t17.5 -37.5t28 -19t38.5 -5.5q42 0 73 23t50.5 58.5t29 73.5t9.5 68z
" />
    <glyph glyph-name="uni0433" unicode="&#x433;" horiz-adv-x="406" 
d="M381 399q0 -34 -14 -61t-37.5 -47t-47 -34t-62.5 -34.5t-61 -34.5t-36 -32t-14 -41q0 -27 18 -39.5t57 -12.5q32 0 66 7.5t70 21.5l-14 -78q-36 -11 -71.5 -17t-70.5 -6q-74 0 -111.5 30.5t-37.5 83.5q0 34 14 61t37.5 47.5t47 34t62.5 34t61 34.5t36 32.5t14 40.5
t-16 35t-48 13q-25 0 -56.5 -7.5t-66.5 -21.5l14 75q33 11 67 17t64 6q68 0 102 -29t34 -78z" />
    <glyph glyph-name="uni0434" unicode="&#x434;" horiz-adv-x="538" 
d="M403 425q-17 4 -34 6.5t-37 2.5q-53 0 -92.5 -24.5t-64.5 -65.5t-37 -89.5t-12 -96.5q0 -47 13.5 -69t37.5 -22q33 0 68.5 31t66 81t52.5 105t31 101zM401 -45q-9 -47 -28.5 -84.5t-52.5 -65.5t-81.5 -43.5t-113.5 -15.5q-38 0 -72.5 4t-64.5 11l17 83q30 -9 66.5 -15
t70.5 -6q74 0 117 35.5t59 117.5q5 28 11 54t13 52t16 54t20 62h-2q-16 -35 -36.5 -68.5t-49 -65.5t-65 -53t-79.5 -21q-55 0 -83 37t-28 114q0 71 19 136t57.5 116.5t98 81.5t137.5 30q41 0 78.5 -4t77.5 -11z" />
    <glyph glyph-name="uni0435" unicode="&#x435;" horiz-adv-x="473" 
d="M363 382q0 26 -18 40.5t-49 14.5q-29 0 -53.5 -11.5t-44 -32.5t-33.5 -48.5t-23 -59.5q115 4 168 28t53 69zM453 393q0 -162 -323 -174q-2 -10 -3.5 -27t-1.5 -31q0 -29 5.5 -47.5t17.5 -29.5t31 -15.5t47 -4.5q33 0 72.5 7.5t79.5 20.5l-15 -78q-41 -12 -79.5 -17.5
t-81.5 -5.5q-87 0 -127.5 38.5t-40.5 122.5q0 72 19.5 136.5t55.5 113.5t87 76.5t111 27.5q38 0 66 -9t45.5 -25t26 -36t8.5 -43z" />
    <glyph glyph-name="uni0436" unicode="&#x436;" horiz-adv-x="819" 
d="M823 429q-4 2 -14 2q-38 0 -62.5 -29.5t-44.5 -89.5q-14 -41 -20.5 -81t-6.5 -78q0 -49 11 -68t35 -19q17 0 37 6l-13 -72q-27 -8 -55 -8q-54 0 -77.5 35t-23.5 109q0 58 14 113t37 97h-1q-42 -41 -79 -82.5t-65.5 -81.5t-47.5 -77t-25 -68l-7 -37h-88l28 147
q7 34 16.5 68t24.5 80h-2q-21 -35 -51 -72t-65.5 -73t-75 -69t-78.5 -58q-29 -17 -52 -24t-49 -7q-9 0 -16 0.5t-12 0.5l14 75q8 -2 17 -2q37 0 62 28t45 87q29 84 29 163q0 49 -11 68t-35 19q-18 0 -36 -6l12 72q27 8 55 8q54 0 77.5 -35t23.5 -109q0 -58 -14 -113t-37 -97
h1q42 40 78.5 82t65 81.5t47.5 76.5t25 69l8 37h88l-28 -147q-7 -34 -16.5 -68t-24.5 -80h2q21 35 51 72t65.5 73t74.5 68.5t79 58.5q28 17 51 24t49 7q8 0 15 -0.5t9 -0.5z" />
    <glyph glyph-name="uni0437" unicode="&#x437;" horiz-adv-x="432" 
d="M398 398q0 -47 -30 -84t-79 -48v-1q86 -21 86 -95q0 -34 -15.5 -66.5t-45.5 -57.5t-75 -40t-103 -15q-38 0 -72 4t-64 12l15 74q29 -11 63.5 -17t65.5 -6q33 0 59 8t43.5 22.5t26.5 33t9 39.5q0 32 -29.5 48.5t-84.5 16.5h-63l13 64h55q36 0 62 7.5t42 21t23.5 29.5
t7.5 34q0 26 -22.5 42t-70.5 16q-26 0 -61.5 -6t-64.5 -16l13 70q32 8 66 13t67 5q44 0 75.5 -8.5t50.5 -23.5t28 -34.5t9 -41.5z" />
    <glyph glyph-name="uni0438" unicode="&#x438;" horiz-adv-x="563" 
d="M480 238q-2 -13 -7 -39.5t-8.5 -44.5t-7 -37t-7.5 -39t-7.5 -39.5t-6.5 -38.5h-88q5 29 18 76t37 120h-2q-19 -42 -42.5 -78.5t-52.5 -65.5t-63 -45.5t-72 -16.5q-67 0 -92.5 44.5t-10.5 124.5l64 338h88l-60 -318q-11 -58 -0.5 -85t43.5 -27t68 31t65.5 80t53 104.5
t30.5 102.5l21 112h89z" />
    <glyph glyph-name="uni0439" unicode="&#x439;" horiz-adv-x="563" 
d="M480 238q-2 -13 -7 -39.5t-8.5 -44.5t-7 -37t-7.5 -39t-7.5 -39.5t-6.5 -38.5h-88q5 29 18 76t37 120h-2q-19 -42 -42.5 -78.5t-52.5 -65.5t-63 -45.5t-72 -16.5q-67 0 -92.5 44.5t-10.5 124.5l64 338h88l-60 -318q-11 -58 -0.5 -85t43.5 -27t68 31t65.5 80t53 104.5
t30.5 102.5l21 112h89zM517 715q-11 -59 -55.5 -95t-123.5 -36q-77 0 -113 35t-24 96h79q-7 -38 9 -57t56 -19q38 0 62 20t31 56h79z" />
    <glyph glyph-name="uni043A" unicode="&#x43a;" horiz-adv-x="475" 
d="M266 269l149 -269h-108l-132 259l-49 -259h-88l94 497h89l-42 -216l239 241l66 -51z" />
    <glyph glyph-name="uni043B" unicode="&#x43b;" horiz-adv-x="530" 
d="M402 0h-89l82 429h-14q-41 0 -73 -10.5t-56.5 -33t-42 -58.5t-27.5 -88q-15 -71 -33.5 -117.5t-43.5 -75t-58.5 -41t-80.5 -12.5l14 78q23 1 39.5 8t30 24.5t24.5 49t21 82.5q15 76 43 128t67.5 83.5t91 45.5t117.5 14q19 0 41 -1.5t42 -3.5z" />
    <glyph glyph-name="uni043C" unicode="&#x43c;" horiz-adv-x="723" 
d="M547 0l9 286q1 34 2.5 61.5t3.5 55.5h-1q-9 -26 -19 -48t-20 -41l-162 -314h-92l-42 294q-2 26 -5 54.5t-3 54.5h-1q-8 -29 -17.5 -58t-20.5 -64l-99 -296l-83 20l178 492h107l43 -306q3 -20 5 -43.5t2 -48.5h1q10 24 20.5 48t24.5 50l157 300h113l-11 -497h-90z" />
    <glyph glyph-name="uni043D" unicode="&#x43d;" horiz-adv-x="565" 
d="M349 0l42 219h-222l-42 -219h-88l94 497h88l-39 -204h223l38 204h88l-94 -497h-88z" />
    <glyph glyph-name="uni043E" unicode="&#x43e;" horiz-adv-x="534" 
d="M412 316q0 51 -26 83t-79 32q-45 0 -79 -22.5t-56.5 -59.5t-33.5 -81t-11 -87q0 -51 26 -82.5t79 -31.5q45 0 79 22.5t56.5 59t33.5 80.5t11 87zM505 328q0 -65 -19 -125.5t-56.5 -108.5t-91.5 -75.5t-121 -27.5q-91 0 -137 48.5t-46 129.5q0 65 19 125.5t56.5 108.5
t91.5 75.5t121 27.5q46 0 81 -13t57.5 -37t33.5 -56.5t11 -71.5z" />
    <glyph glyph-name="uni043F" unicode="&#x43f;" horiz-adv-x="563" 
d="M435 0h-88l61 318q11 58 0.5 85t-44.5 27q-33 0 -67.5 -31t-65.5 -80t-53 -104.5t-31 -102.5l-21 -112h-88l50 259q3 18 7 37.5t6 32.5t7.5 43t9 49l7 38t7.5 38h88q-7 -32 -19.5 -78.5t-36.5 -117.5h2q19 42 42.5 78.5t52.5 65.5t63 45.5t72 16.5q68 0 93.5 -44.5
t10.5 -124.5z" />
    <glyph glyph-name="uni0440" unicode="&#x440;" horiz-adv-x="537" 
d="M417 339q0 49 -14 70t-37 21t-47 -15.5t-46 -40.5t-42.5 -58t-37 -68t-28 -70t-17.5 -64l-8 -38q16 -5 36 -8.5t36 -3.5q55 0 93.5 25.5t63.5 65.5t36.5 89t11.5 95zM508 356q0 -69 -18.5 -134t-56.5 -116t-97 -82t-141 -31q-36 0 -70 6l-46 -246h-88l97 506q1 6 4.5 24
t8 42.5t9.5 52.5t9.5 52.5t8 42.5t4.5 24h88q-3 -16 -7.5 -34t-11 -41.5t-15.5 -53.5t-22 -70l2 -1q19 44 43 82t53 66.5t63 45t72 16.5q54 0 82.5 -36t28.5 -115z" />
    <glyph glyph-name="uni0441" unicode="&#x441;" horiz-adv-x="412" 
d="M406 408q-22 10 -47 15.5t-48 5.5q-45 0 -80 -22.5t-58 -60t-34 -82t-11 -88.5q0 -22 4.5 -40t16 -33t32.5 -24t52 -9q28 0 56.5 5.5t60.5 17.5l-15 -79q-31 -10 -63 -16t-63 -6q-47 0 -81 12t-54.5 34t-30 51.5t-9.5 66.5q0 71 19.5 134.5t56.5 112t90 75.5t118 27
q24 0 51 -4.5t52 -11.5z" />
    <glyph glyph-name="uni0442" unicode="&#x442;" horiz-adv-x="860" 
d="M732 0h-88l60 318q11 58 1 85.5t-41 27.5q-29 0 -62 -27.5t-64 -74t-54.5 -103.5t-34.5 -114l-20 -112h-88l61 318q11 58 1 85.5t-42 27.5q-29 0 -62 -27.5t-64 -74t-54.5 -103.5t-33.5 -114l-21 -112h-88l50 259q3 18 7 37.5t6 32.5t7.5 43t9 49l7 38t7.5 38h87
q-5 -30 -18 -77t-37 -119h2q18 42 41.5 78.5t52 65.5t62 45.5t70.5 16.5q48 0 73.5 -25t25.5 -72q0 -22 -5.5 -45.5t-18.5 -64.5l2 -1q18 42 41.5 79t52 66t62 46t70.5 17q66 0 91 -44.5t10 -124.5z" />
    <glyph glyph-name="uni0443" unicode="&#x443;" horiz-adv-x="470" 
d="M98 -257l-87 28l135 222l-87 504h95l43 -267q5 -33 9 -64.5t6 -62.5h1l215 415l84 -29z" />
    <glyph glyph-name="uni0444" unicode="&#x444;" horiz-adv-x="791" 
d="M389 425q-15 4 -32.5 6.5t-38.5 2.5q-50 0 -86 -26t-59.5 -66t-35 -89t-11.5 -95q0 -49 14 -70t37 -21q35 0 67 26t57.5 66.5t44 89t27.5 93.5l16 83v0zM672 339q0 49 -13.5 70t-36.5 21q-36 0 -67.5 -26t-57.5 -66.5t-44 -89t-27 -93.5l-16 -82q15 -5 33.5 -7t38.5 -2
q49 0 85 25.5t59 65.5t34.5 89t11.5 95zM764 356q0 -69 -18 -134t-55 -116t-93.5 -82t-132.5 -31q-36 0 -70 6l-46 -246h-88l35 188q4 23 9.5 46.5t13 49.5t17 56t21.5 66l-2 1q-14 -31 -34.5 -61.5t-47 -54.5t-58.5 -39t-69 -15q-54 0 -82.5 36t-28.5 115q0 69 18 134.5
t55 116.5t93 82t132 31q18 0 34.5 -1.5t34.5 -4.5l44 231h89l-33 -174l-10 -46t-12.5 -49.5t-17 -56.5t-21.5 -67l2 -1q14 31 35 62t47 55t58 39t69 15q54 0 83 -36t29 -115z" />
    <glyph glyph-name="uni0445" unicode="&#x445;" horiz-adv-x="508" 
d="M315 251l128 -251h-110l-88 192l-193 -218l-71 49l222 229l-124 245h104l87 -187l189 212l66 -47z" />
    <glyph glyph-name="uni0446" unicode="&#x446;" horiz-adv-x="582" 
d="M489 -144h-78l28 143q-27 1 -42 16t-17 42t4 62t19 77h-2q-18 -39 -41 -76.5t-52 -66t-63.5 -46t-73.5 -17.5q-68 0 -93 45.5t-10 123.5l64 338h88l-60 -318q-11 -59 -0.5 -85.5t43.5 -26.5q34 0 70 32.5t65.5 80.5t51.5 103.5t30 101.5l21 112h89l-64 -331
q-4 -27 -5.5 -47t6 -32.5t24.5 -14.5t40 -1z" />
    <glyph glyph-name="uni0447" unicode="&#x447;" horiz-adv-x="517" 
d="M389 0h-88l29 150q7 35 16 67t22 69h-1q-28 -52 -72.5 -82t-102.5 -30q-35 0 -59.5 9t-40 25t-23 38.5t-7.5 49.5q0 14 1.5 30t5.5 34l26 137h89l-26 -132q-7 -32 -7 -53q0 -31 15 -47t50 -16q32 0 60 14.5t50 42.5t38.5 68t25.5 89l6 34h88z" />
    <glyph glyph-name="uni0448" unicode="&#x448;" horiz-adv-x="860" 
d="M777 238q-11 -60 -22 -119t-21 -119h-88q3 15 7.5 34.5t10 40t15 51t22.5 70.5h-2q-17 -39 -40 -76.5t-51.5 -66t-62 -46t-72.5 -17.5q-48 0 -73.5 25t-25.5 72q0 23 5.5 48t17.5 62l-2 1q-16 -40 -39.5 -78t-51.5 -66.5t-62 -46t-72 -17.5q-34 0 -57 12t-35.5 33.5
t-15 53t5.5 70.5l65 338h88l-61 -318q-12 -59 -1 -86t42 -27q30 0 63.5 28.5t63 73.5t53 102.5t34.5 114.5l21 112h88l-61 -318q-11 -59 -1 -86t42 -27q30 0 63 28.5t63 73.5t54 102.5t34 114.5l21 112h88z" />
    <glyph glyph-name="uni0449" unicode="&#x449;" horiz-adv-x="879" 
d="M786 -144h-78l28 143q-27 3 -40.5 14t-17.5 34.5t1 60t21 88.5h-2q-17 -39 -40 -76.5t-51 -66t-61.5 -46t-72.5 -17.5q-48 0 -73.5 25t-25.5 72q0 23 5.5 48t18.5 62l-2 1q-17 -40 -40.5 -78t-51.5 -66.5t-62 -46t-72 -17.5q-34 0 -57 12t-35 33.5t-15 53t5 70.5l64 338
h88l-60 -318q-12 -59 -1 -86t42 -27q30 0 63.5 28.5t63 73.5t53 102.5t34.5 114.5l21 112h87l-60 -318q-11 -59 -1 -86t42 -27q30 0 63 28.5t63 73.5t53.5 102.5t33.5 114.5l21 112h88l-63 -331q-4 -21 -5.5 -44t5.5 -35t24 -14.5t41 -1.5z" />
    <glyph glyph-name="uni044A" unicode="&#x44a;" horiz-adv-x="495" 
d="M465 202q0 -43 -16.5 -81t-47 -67t-72 -45.5t-90.5 -16.5q-37 0 -66 7.5t-49 24t-30.5 43t-10.5 64.5q0 60 25.5 133.5t76.5 161.5h-140l15 71h235l-12 -61q-21 -31 -37 -59t-27 -54q19 3 41 4.5t49 1.5q78 0 117 -33t39 -94zM373 191q0 32 -21 50.5t-71 18.5
q-22 0 -47 -2.5t-40 -5.5q-12 -30 -17.5 -56.5t-5.5 -48.5q0 -45 21 -64.5t60 -19.5q29 0 52 11t38.5 29.5t23 41.5t7.5 46z" />
    <glyph glyph-name="uni044B" unicode="&#x44b;" horiz-adv-x="711" 
d="M444 204q0 -41 -15 -78.5t-44 -67.5t-71 -48t-96 -18q-72 0 -113.5 29.5t-41.5 93.5q0 11 1.5 22.5t4.5 25.5l64 334h88l-32 -167q20 2 44 3t49 1q84 0 123 -36t39 -94zM353 193q0 29 -20.5 49.5t-72.5 20.5q-22 0 -46.5 -2t-38.5 -5l-18 -91q-4 -21 -4 -34
q0 -36 21 -51.5t57 -15.5q31 0 53.5 11.5t37.5 30t23 41.5t8 46zM583 0h-88l94 497h88z" />
    <glyph glyph-name="uni044C" unicode="&#x44c;" horiz-adv-x="475" 
d="M444 204q0 -41 -15 -78.5t-44 -67.5t-71 -48t-96 -18q-72 0 -113.5 29.5t-41.5 93.5q0 11 1.5 22.5t4.5 25.5l64 334h88l-32 -167q20 2 44 3t49 1q84 0 123 -36t39 -94zM353 193q0 29 -20.5 49.5t-72.5 20.5q-22 0 -46.5 -2t-38.5 -5l-18 -91q-4 -21 -4 -34
q0 -36 21 -51.5t57 -15.5q31 0 53.5 11.5t37.5 30t23 41.5t8 46z" />
    <glyph glyph-name="uni044D" unicode="&#x44d;" horiz-adv-x="445" 
d="M414 320q0 -71 -21 -131.5t-60.5 -104.5t-94.5 -68t-121 -24q-30 0 -61.5 5t-52.5 13l15 77q26 -11 54 -17.5t55 -6.5q36 0 66.5 11.5t54 32.5t39.5 50.5t24 64.5h-213l13 65h212l1.5 18t0.5 11q0 59 -31.5 89t-91.5 30q-27 0 -57 -5.5t-57 -15.5l13 73q27 9 56 13.5
t62 4.5q94 0 144.5 -47t50.5 -138z" />
    <glyph glyph-name="uni044E" unicode="&#x44e;" horiz-adv-x="738" 
d="M709 327q0 -75 -22.5 -137.5t-61.5 -107t-89.5 -68t-105.5 -23.5q-43 0 -76 12.5t-54.5 36t-32.5 56t-11 73.5q0 13 0.5 25.5t2.5 26.5h-91l-42 -221h-88l95 497h88l-40 -207h92q14 47 39.5 86.5t59.5 68.5t74.5 45t85.5 16t79 -13t55.5 -36.5t32 -56.5t10.5 -73z
M615 317q0 55 -25 84.5t-73 29.5q-34 0 -65.5 -19t-55.5 -53t-37.5 -80t-13.5 -99q0 -54 25 -83.5t74 -29.5q34 0 65 18.5t55 52.5t37.5 80t13.5 99z" />
    <glyph glyph-name="uni044F" unicode="&#x44f;" horiz-adv-x="499" 
d="M371 0h-88l38 203h-65l-187 -220l-83 32l183 206q-43 9 -67.5 36.5t-24.5 75.5q0 34 14 65t43 55t74 38t104 14q34 0 73.5 -2.5t78.5 -6.5zM365 435q-18 2 -34 3.5t-33 1.5q-36 0 -61.5 -9.5t-40 -25t-21 -33.5t-6.5 -36q0 -30 22.5 -48.5t72.5 -18.5h70z" />
    <glyph glyph-name="uni0450" unicode="&#x450;" horiz-adv-x="473" 
d="M363 382q0 26 -18 40.5t-49 14.5q-29 0 -53.5 -11.5t-44 -32.5t-33.5 -48.5t-23 -59.5q115 4 168 28t53 69zM453 393q0 -162 -323 -174q-2 -10 -3.5 -27t-1.5 -31q0 -29 5.5 -47.5t17.5 -29.5t31 -15.5t47 -4.5q33 0 72.5 7.5t79.5 20.5l-15 -78q-41 -12 -79.5 -17.5
t-81.5 -5.5q-87 0 -127.5 38.5t-40.5 122.5q0 72 19.5 136.5t55.5 113.5t87 76.5t111 27.5q38 0 66 -9t45.5 -25t26 -36t8.5 -43zM313 569l-115 130l62 52l103 -140z" />
    <glyph glyph-name="uni0451" unicode="&#x451;" horiz-adv-x="473" 
d="M363 382q0 26 -18 40.5t-49 14.5q-29 0 -53.5 -11.5t-44 -32.5t-33.5 -48.5t-23 -59.5q115 4 168 28t53 69zM453 393q0 -162 -323 -174q-2 -10 -3.5 -27t-1.5 -31q0 -29 5.5 -47.5t17.5 -29.5t31 -15.5t47 -4.5q33 0 72.5 7.5t79.5 20.5l-15 -78q-41 -12 -79.5 -17.5
t-81.5 -5.5q-87 0 -127.5 38.5t-40.5 122.5q0 72 19.5 136.5t55.5 113.5t87 76.5t111 27.5q38 0 66 -9t45.5 -25t26 -36t8.5 -43zM286 657q0 -24 -16 -40.5t-39 -16.5q-22 0 -37 15.5t-15 36.5q0 24 16 40t39 16q22 0 37 -15t15 -36zM474 657q0 -24 -16 -40.5t-39 -16.5
q-22 0 -37 15.5t-15 37.5q0 23 16 39t39 16q22 0 37 -15t15 -36z" />
    <glyph glyph-name="uni0452" unicode="&#x452;" horiz-adv-x="564" 
d="M500 356q0 -30 -5 -70.5t-17 -103.5q-15 -81 -28.5 -134.5t-27 -88t-27.5 -56t-31 -37.5q-25 -26 -58.5 -42t-84.5 -29l-15 70q61 14 91 44q12 12 23 27.5t21.5 43.5t22 74.5t25.5 121.5q13 65 18 104.5t5 65.5q0 48 -15 66t-42 18q-32 0 -64 -30t-59.5 -75t-48 -97.5
t-29.5 -98.5l-25 -129h-88l111 581h-86l13 70h86l15 79h88l-15 -79h133l-14 -70h-132l-17 -89q-3 -13 -6.5 -28t-9.5 -35.5t-14.5 -47t-20.5 -62.5h1q43 96 95.5 141t112.5 45q59 0 89 -33.5t30 -115.5z" />
    <glyph glyph-name="uni0453" unicode="&#x453;" horiz-adv-x="406" 
d="M381 399q0 -34 -14 -61t-37.5 -47t-47 -34t-62.5 -34.5t-61 -34.5t-36 -32t-14 -41q0 -27 18 -39.5t57 -12.5q32 0 66 7.5t70 21.5l-14 -78q-36 -11 -71.5 -17t-70.5 -6q-74 0 -111.5 30.5t-37.5 83.5q0 34 14 61t37.5 47.5t47 34t62.5 34t61 34.5t36 32.5t14 40.5
t-16 35t-48 13q-25 0 -56.5 -7.5t-66.5 -21.5l14 75q33 11 67 17t64 6q68 0 102 -29t34 -78zM291 569l-36 45l150 137l46 -56z" />
    <glyph glyph-name="uni0454" unicode="&#x454;" horiz-adv-x="433" 
d="M426 412q-26 11 -54.5 17.5t-57.5 6.5q-32 0 -60 -11t-50 -31t-38 -47.5t-25 -59.5h211l-11 -65h-212q-2 -13 -3.5 -24t-1.5 -21q0 -27 7 -47.5t21.5 -35.5t38.5 -23t57 -8q28 0 60 6.5t62 19.5l-13 -75q-32 -11 -64 -16.5t-59 -5.5q-43 0 -79 9t-63.5 30t-42.5 55.5
t-15 84.5q0 56 16.5 114t52 108.5t92 81t132.5 30.5q31 0 59 -5t54 -14z" />
    <glyph glyph-name="uni0455" unicode="&#x455;" horiz-adv-x="392" 
d="M345 425q-46 12 -81 12q-48 0 -73 -19.5t-25 -51.5q0 -19 10.5 -34.5t22.5 -24.5t41.5 -31t46.5 -38.5t28 -39t11 -50.5q0 -31 -13 -59.5t-39.5 -50.5t-66.5 -34.5t-93 -12.5q-56 0 -103 11l15 78q48 -17 100 -17q51 0 79 20t28 57q0 19 -10.5 34.5t-22.5 25.5
t-41.5 31.5t-46 38t-27.5 38.5t-11 50q0 30 13 56.5t38.5 47.5t62.5 32.5t84 11.5q19 0 41 -2t47 -5z" />
    <glyph glyph-name="uni0456" unicode="&#x456;" horiz-adv-x="254" 
d="M126 0h-88l94 497h88zM266 658q0 -26 -18.5 -44t-43.5 -18q-24 0 -40 16t-16 39q0 26 18.5 44t43.5 18q24 0 40 -16.5t16 -38.5z" />
    <glyph glyph-name="uni0457" unicode="&#x457;" horiz-adv-x="254" 
d="M126 0h-88l94 497h88zM174 657q0 -24 -16 -40.5t-39 -16.5q-22 0 -37 15.5t-15 36.5q0 24 16.5 40t39.5 16q22 0 36.5 -15t14.5 -36zM345 657q0 -24 -16 -40.5t-39 -16.5q-22 0 -37 15.5t-15 37.5q0 23 16.5 39t38.5 16t37 -15t15 -36z" />
    <glyph glyph-name="uni0458" unicode="&#x458;" horiz-adv-x="254" 
d="M119 -34q-8 -44 -21.5 -77t-34.5 -59t-50 -46.5t-68 -39.5l-31 63q26 15 45 29t33 31.5t23.5 41t15.5 57.5l101 531h88zM265 658q0 -27 -18 -44.5t-43 -17.5t-40.5 16t-15.5 39q0 27 18.5 44.5t42.5 17.5q25 0 40.5 -16.5t15.5 -38.5z" />
    <glyph glyph-name="uni0459" unicode="&#x459;" horiz-adv-x="738" 
d="M616 192q0 32 -19.5 51t-62.5 19q-25 0 -50 -6t-49 -14l-14 -78q-5 -20 -5 -33q0 -34 20.5 -51t58.5 -17q29 0 52 11t38.5 30t23 42t7.5 46zM708 203q0 -41 -15 -78.5t-44.5 -67.5t-72 -47.5t-94.5 -17.5q-75 0 -115 30t-40 92q0 10 1.5 22.5t3.5 26.5l51 266h-11
q-37 0 -67 -10.5t-54 -33t-41.5 -59t-27.5 -87.5q-15 -71 -33.5 -117.5t-43.5 -75t-58.5 -41t-80.5 -12.5l14 78q23 1 39.5 8t30 24.5t24.5 49t21 82.5q15 75 43 127.5t67.5 84t88.5 45.5t108 14q17 0 40 -1.5t43 -3.5l-35 -185q26 8 50.5 12.5t49.5 4.5q78 0 118 -35
t40 -95z" />
    <glyph glyph-name="uni045A" unicode="&#x45a;" horiz-adv-x="778" 
d="M748 203q0 -40 -15 -78t-44 -67.5t-71 -47.5t-96 -18q-73 0 -114.5 29t-41.5 93q0 20 5 42l12 63h-214l-42 -219h-88l94 497h88l-39 -204h215l39 204h88l-35 -181q25 8 50 12.5t51 4.5q77 0 117.5 -34.5t40.5 -95.5zM656 192q0 32 -20.5 51t-61.5 19q-28 0 -54 -6.5
t-45 -13.5l-15 -78q-2 -9 -3 -17.5t-1 -15.5q0 -35 21 -51.5t58 -16.5q30 0 53 11.5t38 30t22.5 41.5t7.5 46z" />
    <glyph glyph-name="uni045B" unicode="&#x45b;" horiz-adv-x="567" 
d="M439 0h-89l61 318q11 58 0.5 84.5t-44.5 26.5t-69 -32t-65 -80t-52 -103.5t-31 -101.5l-20 -112h-89l110 581h-85l13 70h85l15 79h89l-16 -79h134l-14 -70h-133l-18 -92q-2 -14 -5.5 -29t-9.5 -37t-15.5 -52t-22.5 -70h2q18 39 41.5 76t52 65.5t62.5 45.5t72 17
q71 0 95.5 -45t9.5 -123z" />
    <glyph glyph-name="uni045C" unicode="&#x45c;" horiz-adv-x="475" 
d="M266 269l149 -269h-108l-132 259l-49 -259h-88l94 497h89l-42 -216l239 241l66 -51zM317 569l-36 45l150 137l46 -56z" />
    <glyph glyph-name="uni045D" unicode="&#x45d;" horiz-adv-x="563" 
d="M480 238q-2 -13 -7 -39.5t-8.5 -44.5t-7 -37t-7.5 -39t-7.5 -39.5t-6.5 -38.5h-88q5 29 18 76t37 120h-2q-19 -42 -42.5 -78.5t-52.5 -65.5t-63 -45.5t-72 -16.5q-67 0 -92.5 44.5t-10.5 124.5l64 338h88l-60 -318q-11 -58 -0.5 -85t43.5 -27t68 31t65.5 80t53 104.5
t30.5 102.5l21 112h89zM349 569l-115 130l62 52l103 -140z" />
    <glyph glyph-name="uni045E" unicode="&#x45e;" horiz-adv-x="470" 
d="M98 -257l-87 28l135 222l-87 504h95l43 -267q5 -33 9 -64.5t6 -62.5h1l215 415l84 -29zM475 715q-11 -59 -55.5 -95t-123.5 -36q-77 0 -113 35t-24 96h79q-7 -38 9 -57t56 -19q38 0 62 20t31 56h79z" />
    <glyph glyph-name="uni045F" unicode="&#x45f;" horiz-adv-x="563" 
d="M480 238q-2 -13 -7 -39.5t-8.5 -44.5t-7 -37t-7.5 -39t-7.5 -39.5t-6.5 -38.5h-88q5 29 18 76t37 120h-2q-19 -42 -42.5 -78.5t-52.5 -65.5t-63 -45.5t-72 -16.5q-67 0 -92.5 44.5t-10.5 124.5l64 338h88l-60 -318q-11 -58 -0.5 -85t43.5 -27t68 31t65.5 80t53 104.5
t30.5 102.5l21 112h89zM176 -67h66l-25 -175h-82z" />
    <glyph glyph-name="uni0462" unicode="&#x462;" horiz-adv-x="648" 
d="M86 598h156l20 108h90l-20 -108h205l-13 -75h-206l-24 -122h88q55 0 95.5 -11.5t66.5 -32.5t38.5 -49.5t12.5 -62.5q0 -55 -22 -101t-63 -79t-96.5 -51t-120.5 -18q-25 0 -57 0.5t-63 2t-45 2.5l100 522h-156zM499 230q0 20 -6.5 37t-21.5 30.5t-41 21.5t-64 8h-86
l-48 -254q8 0 30 -1t45 -1q49 0 86 13t60.5 36t34.5 51t11 59z" />
    <glyph glyph-name="uni0463" unicode="&#x463;" horiz-adv-x="493" 
d="M462 193q0 -40 -15 -76t-44.5 -64.5t-71.5 -44.5t-93 -16q-48 0 -80.5 11.5t-50 34t-22 53.5t3.5 71l51 265h-101l13 70h101l31 161l93 25l-36 -186h135l-13 -70h-135l-22 -115q20 2 43 3.5t45 1.5q44 0 76 -9.5t52.5 -26t30 -39t9.5 -49.5zM370 178q0 33 -21 52.5
t-70 19.5q-25 0 -48.5 -2t-38.5 -4l-16 -83q-19 -102 71 -102q28 0 50.5 9t39 25t25 38t8.5 47z" />
    <glyph glyph-name="uni0472" unicode="&#x472;" horiz-adv-x="695" 
d="M682 439q0 -89 -27.5 -170.5t-78.5 -144.5t-122 -98.5t-156 -35.5q-62 0 -108.5 18t-77 50.5t-45.5 77.5t-15 100q0 89 27 170.5t78 144.5t122 98.5t156 35.5q122 0 184.5 -66.5t62.5 -179.5zM587 425q0 83 -42 132t-127 49q-44 0 -83.5 -16t-72.5 -45t-57.5 -70
t-38.5 -91h419q1 12 1.5 21t0.5 20zM151 311q-2 -16 -3 -30t-1 -29q0 -84 42 -133t127 -49q44 0 84.5 16t74.5 47.5t59.5 76.5t37.5 101h-421z" />
    <glyph glyph-name="uni0473" unicode="&#x473;" horiz-adv-x="534" 
d="M506 327q0 -77 -24.5 -139t-65 -106t-93 -67.5t-108.5 -23.5q-94 0 -137.5 45.5t-43.5 131.5q0 74 22 136t61 107t91.5 70t113.5 25q49 0 84 -13t57 -37t32.5 -57t10.5 -72zM416 322q0 56 -26 85.5t-80 29.5q-30 0 -57 -11.5t-49 -31.5t-38.5 -47.5t-25.5 -60.5h273
q3 16 3 36zM126 222q-3 -21 -3 -43q0 -59 25 -88.5t82 -29.5q56 0 104 43t68 118h-276z" />
    <glyph glyph-name="uni0474" unicode="&#x474;" horiz-adv-x="601" 
d="M698 597q-12 1 -21.5 1.5t-16.5 0.5q-17 0 -30 -5.5t-27 -22t-31 -47t-41 -79.5l-222 -445h-104l-111 675h97l65 -436q5 -29 9.5 -66t7.5 -71h1q12 29 29 65.5t34 73.5l111 232q27 58 50 97.5t47.5 63.5t54.5 34t71 10q9 0 19.5 -0.5t22.5 -1.5z" />
    <glyph glyph-name="uni0475" unicode="&#x475;" horiz-adv-x="491" 
d="M538 424q-7 1 -15.5 2t-18.5 1q-12 0 -21.5 -4t-19.5 -14.5t-21 -29.5t-26 -48l-167 -331h-113l-77 497h95l40 -283q4 -29 7 -64t5 -67h2q13 31 25.5 60t26.5 58l75 152q18 39 35 67.5t36.5 47t44.5 27.5t60 9q22 0 42 -3z" />
    <glyph glyph-name="uni0490" unicode="&#x490;" horiz-adv-x="418" 
d="M479 598h-237l-113 -598h-90l128 675h247l23 125h80z" />
    <glyph glyph-name="uni0491" unicode="&#x491;" horiz-adv-x="367" 
d="M378 422q-14 0 -28 1q-12 0 -25.5 0.5t-25.5 0.5q-27 0 -46.5 -6.5t-33.5 -22.5t-24 -42t-17 -66l-55 -287h-88l58 308q10 51 26.5 87.5t42.5 59.5t63.5 33t88.5 9l23 121h78z" />
    <glyph glyph-name="uni0492" unicode="&#x492;" horiz-adv-x="453" 
d="M197 306l-57 -306h-90l57 306h-78l14 75h78l57 294h334l-15 -77h-244l-42 -217h186l-15 -75h-185z" />
    <glyph glyph-name="uni0493" unicode="&#x493;" horiz-adv-x="437" 
d="M397 399q0 -43 -24.5 -75t-61.5 -55l77 -15l-13 -66l-155 29q-39 -20 -67 -45t-28 -57q0 -26 17.5 -39t57.5 -13q63 0 136 29l-14 -78q-35 -11 -70.5 -17t-71.5 -6q-77 0 -113 31.5t-36 82.5q0 42 25 75t63 57l-76 14l13 66l153 -29q41 21 67.5 45.5t26.5 55.5
q0 21 -15.5 34.5t-48.5 13.5q-51 0 -123 -29l14 75q33 11 67.5 17t63.5 6q66 0 101 -28t35 -79z" />
    <glyph glyph-name="uni0496" unicode="&#x496;" horiz-adv-x="840" 
d="M402 0h-90l63 334l-300 -334h-118l328 351l-189 324h106l177 -318l61 318h90l-61 -318l295 318h109l-314 -331l161 -267h78l-44 -230h-80l30 153h-62l-177 334z" />
    <glyph glyph-name="uni0497" unicode="&#x497;" horiz-adv-x="821" 
d="M682 -6q-54 2 -73.5 39t-19.5 103q0 58 14 113t37 97h-1q-42 -41 -79 -82.5t-65.5 -81.5t-47.5 -77t-25 -68l-7 -37h-88l28 147q7 34 16.5 68t24.5 80h-2q-21 -35 -51 -72t-65.5 -73t-75 -69t-78.5 -58q-29 -17 -52 -24t-49 -7q-9 0 -16 0.5t-12 0.5l14 75q8 -2 17 -2
q37 0 62 28t45 87q14 42 21.5 84t7.5 79q0 48 -11 67.5t-35 19.5q-18 0 -36 -6l12 72q27 8 55 8q54 0 77.5 -35t23.5 -109q0 -58 -14 -113t-37 -97h1q42 40 78.5 82t65 81.5t47.5 76.5t25 69l8 37h88l-28 -147q-7 -34 -16.5 -68t-24.5 -80h2q21 35 51 72t65.5 73t74.5 68.5
t79 58.5q28 17 51 24t49 7q8 0 15 -0.5t9 -0.5l-14 -75q-4 2 -14 2q-38 0 -62.5 -29.5t-44.5 -89.5q-14 -41 -20.5 -81t-6.5 -78q0 -49 11.5 -68t37.5 -19q11 0 24.5 2t26.5 5l-42 -217h-78z" />
    <glyph glyph-name="uni0498" unicode="&#x498;" horiz-adv-x="512" 
d="M498 550q0 -34 -11 -64.5t-31.5 -55.5t-48.5 -43.5t-62 -27.5v-1q54 -10 83.5 -42.5t29.5 -83.5q0 -38 -14 -76.5t-43.5 -71t-74.5 -56.5t-107 -32l-29 -149h-80l28 146q-33 1 -69 5t-65 12l16 82q29 -10 67.5 -17t84.5 -7q89 0 140 42t51 109q0 50 -43 72.5t-125 22.5
h-54l14 71h34q58 0 99 12t66.5 32t37 46.5t11.5 55.5q0 35 -26.5 56.5t-89.5 21.5q-38 0 -77 -7t-74 -18l15 77q32 10 73.5 16t83.5 6q100 0 145 -37t45 -96z" />
    <glyph glyph-name="uni0499" unicode="&#x499;" horiz-adv-x="432" 
d="M398 398q0 -47 -30 -84t-79 -48v-1q86 -19 86 -95q0 -31 -12 -60t-36 -52.5t-58.5 -40t-78.5 -23.5l-27 -138h-78l27 135q-63 3 -112 16l15 74q29 -11 63.5 -17t65.5 -6q33 0 59 8t43.5 22.5t26.5 33.5t9 39q0 32 -29.5 48.5t-84.5 16.5h-63l13 64h55q36 0 62 7.5t42 21
t23.5 29.5t7.5 34q0 26 -22.5 42t-70.5 16q-26 0 -61.5 -6t-64.5 -16l13 70q32 8 66 13t67 5q44 0 75.5 -8.5t50.5 -23.5t28 -34.5t9 -41.5z" />
    <glyph glyph-name="uni049A" unicode="&#x49a;" horiz-adv-x="593" 
d="M428 -153l29 153h-64l-200 336l-64 -336h-90l128 675h90l-60 -317l318 317h118l-345 -330l180 -268h84l-45 -230h-79z" />
    <glyph glyph-name="uni049B" unicode="&#x49b;" horiz-adv-x="493" 
d="M132 497h89l-42 -216l239 241l66 -51l-218 -202l114 -198h72l-42 -215h-78l29 144h-54l-132 259l-49 -259h-88q49 260 94 497z" />
    <glyph glyph-name="uni049C" unicode="&#x49c;" horiz-adv-x="686" 
d="M745 675l-317 -324l195 -351h-110l-165 315h-27l-25 -133h-70l25 133h-63l-59 -315h-90l128 675h90l-55 -286h63l24 129h70l-24 -129h24l274 286h112z" />
    <glyph glyph-name="uni049D" unicode="&#x49d;" horiz-adv-x="608" 
d="M318 223h-37l-20 -106h-68l20 106h-44l-43 -223h-88l94 497h88l-38 -202h44l20 101h68l-20 -101h32l205 227l74 -45l-210 -214l144 -263h-107z" />
    <glyph glyph-name="uni04A0" unicode="&#x4a0;" horiz-adv-x="670" 
d="M491 0l-202 336l-64 -336h-89l113 599h-163l14 76h253l-59 -316l320 316h115l-344 -330l221 -345h-115z" />
    <glyph glyph-name="uni04A1" unicode="&#x4a1;" horiz-adv-x="542" 
d="M52 497h227l-41 -216l239 241l65 -51l-217 -202l149 -269h-108l-132 259l-50 -259h-87l81 426h-139z" />
    <glyph glyph-name="uni04A2" unicode="&#x4a2;" horiz-adv-x="699" 
d="M519 -153l30 153h-97l58 311h-323l-58 -311h-90l128 675h90l-55 -286h323l55 286h90l-114 -598h88l-44 -230h-81z" />
    <glyph glyph-name="uni04A3" unicode="&#x4a3;" horiz-adv-x="579" 
d="M450 71h73l-42 -215h-78l28 144h-82l42 219h-223l-41 -219h-88l94 497h88l-39 -203h223l39 203h87z" />
    <glyph glyph-name="uni04AA" unicode="&#x4aa;" horiz-adv-x="571" 
d="M576 569q-72 33 -147 33q-68 0 -121 -31.5t-87.5 -84t-51.5 -116.5t-17 -129q0 -37 9.5 -67t30 -52.5t54 -35t79.5 -12.5q38 0 81.5 8.5t88.5 23.5l-17 -84q-36 -12 -76.5 -20t-80.5 -9l-28 -146h-79l29 150q-50 7 -86 27t-59 50.5t-33.5 68.5t-10.5 81q0 83 23 164
t70.5 148t121.5 107t172 40q75 0 152 -27z" />
    <glyph glyph-name="uni04AB" unicode="&#x4ab;" horiz-adv-x="412" 
d="M406 408q-22 10 -47 15.5t-48 5.5q-45 0 -80 -22.5t-58 -60t-34 -82t-11 -88.5q0 -22 4.5 -40t16 -33t32.5 -24t52 -9q28 0 56.5 5.5t60.5 17.5l-15 -79q-22 -8 -45.5 -13t-50.5 -7l-27 -138h-78l27 142q-34 5 -58 18.5t-39.5 34t-22.5 47t-7 58.5q0 71 19.5 134.5
t56.5 112t90 75.5t118 27q24 0 51 -4.5t52 -11.5z" />
    <glyph glyph-name="uni04AE" unicode="&#x4ae;" horiz-adv-x="526" 
d="M311 259l-49 -259h-90l49 259l-135 416h96l71 -220q8 -29 14.5 -54t14.5 -57h1q15 25 30.5 48.5t43.5 66.5l152 216h98z" />
    <glyph glyph-name="uni04AF" unicode="&#x4af;" horiz-adv-x="475" 
d="M233 0l-47 -247h-88l47 247l-86 497h94l45 -285q4 -24 7 -51.5t4 -54.5h1q14 31 27 58t23 46l165 308l84 -29z" />
    <glyph glyph-name="uni04B0" unicode="&#x4b0;" horiz-adv-x="534" 
d="M312 248h161l-14 -74h-161l-33 -174h-90l33 174h-160l14 74h160l-123 427h94l62 -223q8 -31 15 -60.5t12 -57.5h1q16 28 35.5 59t45.5 71l139 211h99z" />
    <glyph glyph-name="uni04B1" unicode="&#x4b1;" horiz-adv-x="477" 
d="M257 71h133l-12 -71h-143l-47 -247h-88l47 247h-143l14 71h134l-92 426h95l51 -252q5 -26 8.5 -52t4.5 -52h1q16 34 28.5 60.5t23.5 44.5l156 272l84 -29z" />
    <glyph glyph-name="uni04B2" unicode="&#x4b2;" horiz-adv-x="612" 
d="M525 -153h-79l29 153h-59l-115 279l-221 -279h-109l286 349l-142 326h100l108 -257l203 257h106l-265 -327l123 -271h79z" />
    <glyph glyph-name="uni04B3" unicode="&#x4b3;" horiz-adv-x="530" 
d="M315 251l96 -180h73l-42 -215h-78l29 144h-60l-88 192l-193 -218l-71 49l222 229l-124 245h104l87 -187l189 212l66 -47z" />
    <glyph glyph-name="uni04B6" unicode="&#x4b6;" horiz-adv-x="636" 
d="M493 77h88l-44 -230h-81l31 153h-98l54 286q-29 -12 -71 -21t-89 -9q-54 0 -90.5 11.5t-59.5 32.5t-33 50t-10 64q0 16 2 34t7 44l35 183h90l-35 -187q-7 -32 -7 -58q0 -45 26.5 -71.5t94.5 -26.5q46 0 84.5 9t70.5 24l59 310h90z" />
    <glyph glyph-name="uni04B7" unicode="&#x4b7;" horiz-adv-x="531" 
d="M403 71h72l-42 -215h-78l28 144h-82l29 150q7 35 15.5 66.5t22.5 69.5h-1q-28 -52 -72.5 -82t-102.5 -30q-70 0 -100 33.5t-30 88.5q0 30 7 64l26 137h89l-26 -132q-7 -31 -7 -53q0 -31 15 -47t50 -16q65 0 110.5 57t63.5 157l6 34h88z" />
    <glyph glyph-name="uni04B8" unicode="&#x4b8;" horiz-adv-x="624" 
d="M495 0h-89l54 286q-22 -10 -56 -17.5t-69 -8.5l-24 -125h-69l23 123q-46 2 -80 13.5t-55 32t-31 48t-10 62.5q0 15 2 33t7 43l36 185h89l-34 -186q-7 -35 -7 -61q0 -42 23.5 -65.5t74.5 -27.5l27 136h69l-26 -136q35 2 67.5 10t57.5 20l59 310h90z" />
    <glyph glyph-name="uni04B9" unicode="&#x4b9;" 
d="M422 0h-87l28 150q7 35 16 65t23 68h-1q-49 -87 -133 -101l-19 -98h-65l18 90q-70 4 -105.5 36.5t-35.5 87.5q0 28 8 65l26 134h88l-26 -131q-3 -17 -5 -30t-2 -23q0 -26 15 -43.5t51 -22.5l20 108h65l-19 -101q51 10 86 56.5t51 135.5l10 51h87z" />
    <glyph glyph-name="uni04BA" unicode="&#x4ba;" horiz-adv-x="634" 
d="M557 283q0 -38 -9 -83l-37 -200h-90l39 203q6 31 6 61q0 22 -6 39.5t-20 30t-37 19.5t-58 7q-42 0 -80 -7t-73 -20l-63 -333h-90l128 675h90l-51 -265q35 11 75.5 18.5t82.5 7.5q55 0 92 -11.5t59.5 -31.5t32 -48.5t9.5 -61.5z" />
    <glyph glyph-name="uni04BB" unicode="&#x4bb;" horiz-adv-x="564" 
d="M436 0h-88l60 318q11 58 0.5 85t-43.5 27t-68 -31t-65.5 -80t-53 -104.5t-30.5 -102.5l-21 -112h-89l138 730h89l-45 -233q-3 -17 -7 -34t-10 -39.5t-15.5 -53t-22.5 -69.5h2q19 42 42.5 78.5t52.5 65.5t63 45.5t72 16.5q67 0 92.5 -45t10.5 -124z" />
    <glyph glyph-name="uni04C1" unicode="&#x4c1;" horiz-adv-x="804" 
d="M402 0h-90l63 334l-300 -334h-118l328 351l-189 324h106l177 -318l61 318h90l-61 -318l295 318h109l-314 -331l197 -344h-114l-177 334zM672 849q-5 -28 -19 -51t-36.5 -40.5t-54.5 -27t-72 -9.5q-76 0 -111 34t-23 94h80q-3 -18 -1.5 -31.5t9.5 -22.5t21.5 -14t33.5 -5
q38 0 61.5 19t30.5 54h81z" />
    <glyph glyph-name="uni04C2" unicode="&#x4c2;" horiz-adv-x="819" 
d="M823 429q-4 2 -14 2q-38 0 -62.5 -29.5t-44.5 -89.5q-14 -41 -20.5 -81t-6.5 -78q0 -49 11 -68t35 -19q17 0 37 6l-13 -72q-27 -8 -55 -8q-54 0 -77.5 35t-23.5 109q0 58 14 113t37 97h-1q-42 -41 -79 -82.5t-65.5 -81.5t-47.5 -77t-25 -68l-7 -37h-88l28 147
q7 34 16.5 68t24.5 80h-2q-21 -35 -51 -72t-65.5 -73t-75 -69t-78.5 -58q-29 -17 -52 -24t-49 -7q-9 0 -16 0.5t-12 0.5l14 75q8 -2 17 -2q37 0 62 28t45 87q29 84 29 163q0 49 -11 68t-35 19q-18 0 -36 -6l12 72q27 8 55 8q54 0 77.5 -35t23.5 -109q0 -58 -14 -113t-37 -97
h1q42 40 78.5 82t65 81.5t47.5 76.5t25 69l8 37h88l-28 -147q-7 -34 -16.5 -68t-24.5 -80h2q21 35 51 72t65.5 73t74.5 68.5t79 58.5q28 17 51 24t49 7q8 0 15 -0.5t9 -0.5zM662 715q-11 -59 -55.5 -95t-123.5 -36q-77 0 -113 35t-24 96h79q-7 -38 9 -57t56 -19q38 0 62 20
t31 56h79z" />
    <glyph glyph-name="uni04D8" unicode="&#x4d8;" horiz-adv-x="591" 
d="M579 437q0 -80 -21.5 -158.5t-64.5 -144t-109.5 -104.5t-151.5 -39q-100 0 -149 54.5t-49 154.5q0 41 8 85.5t25 95.5h412q2 19 3 29.5t1 20.5q0 86 -42.5 129t-127.5 43q-45 0 -93 -11t-87 -27l16 85q47 15 91.5 24t90.5 9q120 0 184 -61t64 -185zM143 306
q-4 -17 -8 -47t-4 -55q0 -68 30.5 -100t88.5 -32q41 0 76 17t62.5 48t47 74t29.5 95h-322z" />
    <glyph glyph-name="uni04D9" unicode="&#x4d9;" horiz-adv-x="473" 
d="M440 344q0 -72 -19.5 -136t-56 -113t-87 -76.5t-111.5 -27.5q-38 0 -65.5 9t-45 25.5t-26 38t-8.5 45.5q0 42 20.5 73.5t61.5 54t101.5 35t140.5 15.5q2 12 3 25.5t1 25.5q0 53 -23.5 75t-78.5 22q-36 0 -74 -8t-72 -22l15 77q35 11 73.5 17.5t77.5 6.5q44 0 76.5 -10
t54 -30.5t32 -50.5t10.5 -71zM334 222q-115 -5 -169 -29.5t-54 -72.5q0 -29 18 -44t49 -15q29 0 54 12t44.5 34t34 51t23.5 64z" />
    <glyph glyph-name="uni04E2" unicode="&#x4e2;" horiz-adv-x="675" 
d="M547 0h-90l82 428q5 26 12.5 57t17.5 65h-1q-14 -22 -29 -43t-31 -42l-368 -465h-101l128 675h90l-84 -438q-6 -28 -12.5 -55t-13.5 -51h1q14 21 28.5 42.5t26.5 37.5l367 464h105zM568 748h-271l13 62h270z" />
    <glyph glyph-name="uni04E3" unicode="&#x4e3;" horiz-adv-x="563" 
d="M480 238q-2 -13 -7 -39.5t-8.5 -44.5t-7 -37t-7.5 -39t-7.5 -39.5t-6.5 -38.5h-88q5 29 18 76t37 120h-2q-19 -42 -42.5 -78.5t-52.5 -65.5t-63 -45.5t-72 -16.5q-67 0 -92.5 44.5t-10.5 124.5l64 338h88l-60 -318q-11 -58 -0.5 -85t43.5 -27t68 31t65.5 80t53 104.5
t30.5 102.5l21 112h89zM474 616h-247l12 68h248z" />
    <glyph glyph-name="uni04E8" unicode="&#x4e8;" horiz-adv-x="695" 
d="M682 439q0 -89 -27.5 -170.5t-78.5 -144.5t-122 -98.5t-156 -35.5q-62 0 -108.5 18t-77 50.5t-45.5 77.5t-15 100q0 89 27 170.5t78 144.5t122 98.5t156 35.5q122 0 184.5 -66.5t62.5 -179.5zM587 425q0 83 -42 132t-127 49q-44 0 -83.5 -16t-72.5 -45t-57.5 -70
t-38.5 -91h419q1 12 1.5 21t0.5 20zM151 311q-2 -16 -3 -30t-1 -29q0 -84 42 -133t127 -49q44 0 84.5 16t74.5 47.5t59.5 76.5t37.5 101h-421z" />
    <glyph glyph-name="uni04E9" unicode="&#x4e9;" horiz-adv-x="534" 
d="M506 327q0 -77 -24.5 -139t-65 -106t-93 -67.5t-108.5 -23.5q-94 0 -137.5 45.5t-43.5 131.5q0 74 22 136t61 107t91.5 70t113.5 25q49 0 84 -13t57 -37t32.5 -57t10.5 -72zM416 322q0 56 -26 85.5t-80 29.5q-30 0 -57 -11.5t-49 -31.5t-38.5 -47.5t-25.5 -60.5h273
q3 16 3 36zM126 222q-3 -21 -3 -43q0 -59 25 -88.5t82 -29.5q56 0 104 43t68 118h-276z" />
    <glyph glyph-name="uni04EE" unicode="&#x4ee;" horiz-adv-x="545" 
d="M311 149q-26 -44 -50 -74t-48.5 -48.5t-50.5 -27t-56 -8.5q-18 0 -36.5 2.5t-32.5 8.5l15 79q28 -11 59 -11q34 0 60.5 20t59.5 75l-126 510h97l68 -298q7 -34 12.5 -62t8.5 -53l2 -3q14 29 30.5 59.5t39.5 72.5l158 284h98zM513 748h-271l13 62h270z" />
    <glyph glyph-name="uni04EF" unicode="&#x4ef;" horiz-adv-x="470" 
d="M98 -257l-87 28l135 222l-87 504h95l43 -267q5 -33 9 -64.5t6 -62.5h1l215 415l84 -29zM429 616h-247l12 68h248z" />
    <glyph glyph-name="uni1E02" unicode="&#x1e02;" horiz-adv-x="559" 
d="M409 221q0 46 -35.5 69t-114.5 23h-28t-24 -0.5t-19 -0.5l-45 -236q27 -5 78 -5q46 0 81.5 12t59.5 33t35.5 48t11.5 57zM446 527q0 18 -6 32t-19.5 24.5t-36 16.5t-55.5 6q-18 0 -40.5 -1t-45.5 -2l-42 -220q9 0 19 -0.5t19 -0.5h23q50 0 85.5 12t57 33t31.5 46.5
t10 53.5zM542 543q0 -35 -11 -65.5t-31 -54.5t-45 -41.5t-54 -27.5v-1q50 -9 77.5 -42t27.5 -80q0 -46 -18.5 -88t-56 -75t-93.5 -52t-128 -19q-18 0 -49.5 0.5t-64.5 1.5t-57 1l128 675q16 0 53 1.5t65.5 2t55.5 0.5q105 0 153 -37t48 -99zM425 788q0 -26 -17.5 -43.5
t-41.5 -17.5q-23 0 -38.5 16.5t-15.5 38.5q0 26 17.5 43.5t41.5 17.5q23 0 38.5 -16t15.5 -39z" />
    <glyph glyph-name="uni1E03" unicode="&#x1e03;" horiz-adv-x="538" 
d="M416 339q0 47 -13 69t-37 22q-23 0 -46.5 -14.5t-46 -40t-42.5 -58.5t-37 -68.5t-28.5 -70.5t-17.5 -64l-9 -42q40 -9 72 -9q53 0 92 24.5t64 65t37 89t12 97.5zM508 356q0 -71 -19 -136t-57.5 -116.5t-98 -81.5t-138.5 -30q-42 0 -80.5 4.5t-75.5 12.5l137 721h89
l-46 -240q-3 -15 -7 -31t-10 -38t-15.5 -52t-22.5 -72l2 -1q20 46 44 84t53 66.5t62.5 44.5t70.5 16q55 0 83.5 -37t28.5 -114zM301 857q0 -26 -17.5 -43.5t-41.5 -17.5q-23 0 -38.5 16.5t-15.5 38.5q0 26 17.5 43.5t41.5 17.5q23 0 38.5 -16t15.5 -39z" />
    <glyph glyph-name="uni1E0A" unicode="&#x1e0a;" horiz-adv-x="664" 
d="M553 424q0 41 -10.5 73t-34 56t-63.5 37t-98 13q-25 0 -58 -1t-46 -2l-100 -520q18 -3 41 -4.5t40 -1.5q85 0 148.5 30.5t103.5 81.5t58.5 112.5t18.5 125.5zM649 433q0 -85 -27 -163.5t-81.5 -140.5t-138 -97.5t-191.5 -35.5q-32 0 -57.5 0.5t-60.5 2t-54 1.5l128 674
q91 2 122.5 3t71.5 1q76 0 131 -17.5t89.5 -49.5t51 -77t16.5 -101zM455 788q0 -26 -17.5 -43.5t-41.5 -17.5q-23 0 -38.5 16.5t-15.5 38.5q0 26 17.5 43.5t41.5 17.5q23 0 38.5 -16t15.5 -39z" />
    <glyph glyph-name="uni1E0B" unicode="&#x1e0b;" horiz-adv-x="538" 
d="M403 425q-17 4 -34 6.5t-37 2.5q-53 0 -92.5 -24.5t-64.5 -65.5t-37 -89.5t-12 -96.5q0 -47 13.5 -69t37.5 -22q33 0 68.5 31t66 81t52.5 105t31 101zM444 180q-3 -18 -9.5 -54t-9 -48.5t-6.5 -34.5t-8 -43h-88q6 32 20 81t37 121l-2 1q-17 -37 -37.5 -71.5t-49.5 -67
t-65.5 -53.5t-79.5 -21q-55 0 -83 37t-28 114q0 71 18.5 136t57.5 116.5t98.5 81.5t137.5 30q18 0 34 -1.5t36 -4.5l43 231h89zM583 857q0 -26 -17.5 -43.5t-41.5 -17.5q-23 0 -38.5 16.5t-15.5 38.5q0 26 17.5 43.5t41.5 17.5q23 0 38.5 -16t15.5 -39z" />
    <glyph glyph-name="uni1E1E" unicode="&#x1e1e;" horiz-adv-x="490" 
d="M523 599h-281l-42 -220h265l-14 -74h-265l-57 -305h-90l128 675h90h282zM434 788q0 -26 -17.5 -43.5t-41.5 -17.5q-23 0 -38.5 16.5t-15.5 38.5q0 26 17.5 43.5t41.5 17.5q23 0 38.5 -16t15.5 -39z" />
    </font>
</defs>
</svg>
