<?xml version="1.0" standalone="no"?>
<!DOCTYPE svg PUBLIC "-//W3C//DTD SVG 1.1//EN" "http://www.w3.org/Graphics/SVG/1.1/DTD/svg11.dtd" >
<svg xmlns="http://www.w3.org/2000/svg" xmlns:xlink="http://www.w3.org/1999/xlink" version="1.1">
<metadata>
Created by FontForge 20170731 at Sun Nov 15 17:46:50 2015
 By Aleksey,,,
VWAG TheSans was created exclusively for Volkswagen AG in cooperation with MetaDesign AG. Copyright 1994-2015 Luc(as) de Groot. All rights reserved.
</metadata>
<defs>
<font id="VWAGTheSans-Light" horiz-adv-x="550" >
  <font-face 
    font-family="VWAG TheSans Light"
    font-weight="300"
    font-stretch="normal"
    units-per-em="1000"
    panose-1="2 11 3 2 5 3 2 2 2 3"
    ascent="740"
    descent="-260"
    x-height="497"
    cap-height="675"
    bbox="-354 -320 1305 980"
    underline-thickness="41"
    underline-position="-271"
    unicode-range="U+000D-FB04"
  />
<missing-glyph 
d="M450 100v350h-350v-350h350zM250 350v50h150v-250h-50v100h-100v50h100v50h-100zM50 50v450h450v-450h-450zM150 150v250h50v-200h100v-50h-150z" />
    <glyph glyph-name="ellipsis" unicode="&#x2e;&#x2e;&#x2e;" horiz-adv-x="623" 
d="M151 40q0 -20 -14 -34t-34 -14q-19 0 -33 14t-14 34t13.5 34t33.5 14t34 -14t14 -34zM353 40q0 -20 -14 -34t-34 -14q-19 0 -33 14t-14 34t13.5 34t33.5 14t34 -14t14 -34zM555 40q0 -20 -14 -34t-34 -14q-19 0 -33.5 14.5t-14.5 33.5q0 20 14 34t34 14t34 -14t14 -34z
" />
    <glyph glyph-name="f_f" unicode="ff" horiz-adv-x="649" 
d="M639 497v-50h-153v-447h-63v447h-240v-447h-63v447h-114v50h114v41q0 106 45.5 151.5t130.5 45.5q15 0 31.5 -1.5t21.5 -2.5v-53q-12 2 -25.5 3.5t-32.5 1.5q-61 0 -84.5 -33t-23.5 -110v-43h240v41q0 106 45.5 151.5t130.5 45.5q21 0 42.5 -2.5t36.5 -5.5v-54
q-13 3 -36.5 6.5t-47.5 3.5q-61 0 -84.5 -33t-23.5 -110v-43h153z" />
    <glyph glyph-name="f_i" unicode="fi" horiz-adv-x="586" 
d="M505 658q0 -18 -13 -31.5t-32 -13.5t-32 13t-13 32t13 32t32 13t32 -12.5t13 -32.5zM428 0v447h-245v-447h-63v447h-114v50h114v41q0 106 45.5 151.5t130.5 45.5q21 0 33.5 -1.5t19.5 -2.5v-53q-8 1 -25 3t-33 2q-61 0 -84.5 -33t-23.5 -110v-43h307v-497h-62z" />
    <glyph glyph-name="f_dotlessi" unicode="f&#x131;" horiz-adv-x="586" 
d="M428 0v447h-245v-447h-63v447h-114v50h114v42q0 94 45.5 145t130.5 51q31 0 56 -4v-54q-31 6 -62 6q-54 0 -80.5 -35t-26.5 -106v-45h307v-497h-62z" />
    <glyph glyph-name="f_f_i" unicode="ffi" horiz-adv-x="889" 
d="M808 658q0 -18 -13.5 -31.5t-31.5 -13.5q-19 0 -32 13t-13 32t13 32t32 13q18 0 31.5 -12.5t13.5 -32.5zM793 497v-497h-63v447h-244v-447h-63v447h-240v-447h-63v447h-114v50h114v41q0 106 45.5 151.5t130.5 45.5q11 0 28.5 -1.5t24.5 -2.5v-53q-7 1 -27 3t-31 2
q-61 0 -84.5 -33t-23.5 -110v-43h240v41q0 106 45.5 151.5t130.5 45.5q11 0 28.5 -1.5t24.5 -2.5v-53q-7 1 -27 3t-31 2q-61 0 -84.5 -33t-23.5 -110v-43h307z" />
    <glyph glyph-name="f_l" unicode="fl" horiz-adv-x="586" 
d="M428 0v676q-13 2 -43 5t-63 3q-72 0 -105.5 -33.5t-33.5 -112.5v-41h143v-50h-143v-447h-63v447h-114v50h114v37q0 102 52.5 151.5t160.5 49.5q46 0 91 -5t66 -8v-722h-62z" />
    <glyph glyph-name="f_f_l" unicode="ffl" horiz-adv-x="889" 
d="M629 447h-143v-447h-63v447h-240v-447h-63v447h-114v50h114v41q0 106 45.5 151.5t130.5 45.5q11 0 28.5 -1.5t24.5 -2.5v-53q-13 2 -29 3.5t-29 1.5q-61 0 -84.5 -33t-23.5 -110v-43h240v37q0 103 52 152t160 49q28 0 74.5 -4t83.5 -9v-722h-63v676q-30 4 -57.5 6
t-47.5 2q-71 0 -105 -33t-34 -113v-41h143v-50z" />
    <glyph glyph-name=".notdef" 
d="M450 100v350h-350v-350h350zM250 350v50h150v-250h-50v100h-100v50h100v50h-100zM50 50v450h450v-450h-450zM150 150v250h50v-200h100v-50h-150z" />
    <glyph glyph-name=".null" horiz-adv-x="0" 
 />
    <glyph glyph-name=".null" horiz-adv-x="0" 
 />
    <glyph glyph-name="nonmarkingreturn" unicode="&#xd;" horiz-adv-x="500" 
 />
    <glyph glyph-name="space" unicode=" " horiz-adv-x="218" 
 />
    <glyph glyph-name="exclam" unicode="!" horiz-adv-x="318" 
d="M217 40q0 -20 -14 -34t-34 -14t-34 14t-14 34t14 33.5t34 13.5t34 -13.5t14 -33.5zM195 154h-51l-13 545h76z" />
    <glyph glyph-name="quotedbl" unicode="&#x22;" horiz-adv-x="338" 
d="M116 484h-46l-12 213h71zM268 484h-46l-12 213h70z" />
    <glyph glyph-name="numbersign" unicode="#" horiz-adv-x="573" 
d="M434 441l-22 -200h100v-43h-105l-20 -198h-52l21 198h-169l-20 -198h-52l21 198h-100v43h104l22 200h-101v43h105l21 191h51l-20 -191h168l21 191h52l-21 -191h98v-43h-102zM214 441l-22 -200h168l22 200h-168z" />
    <glyph glyph-name="dollar" unicode="$" horiz-adv-x="486" 
d="M425 203q0 -70 -45 -118t-124 -60v-136h-49v133q-38 1 -67.5 4t-56.5 11v63q12 -5 28.5 -9.5t35.5 -7.5t37 -4.5t33 -1.5q31 0 57.5 6.5t46 20.5t30 36t10.5 52q0 34 -17.5 56t-42.5 36t-81 37t-86.5 42.5t-49 50.5t-18.5 75q0 32 11.5 59.5t33 49t52 35t66.5 17.5v109
h50v-106q28 -1 54.5 -4t50.5 -8v-59q-28 8 -58.5 13t-57.5 5q-37 0 -64 -8t-44 -22.5t-24.5 -32.5t-7.5 -39q0 -33 18 -55t43 -35.5t81 -37t86.5 -43.5t49.5 -50.5t19 -73.5z" />
    <glyph glyph-name="percent" unicode="%" horiz-adv-x="743" 
d="M271 528q0 55 -20 82t-64 27q-37 0 -59 -29t-22 -76q0 -55 20 -83t65 -28q36 0 58 30t22 77zM637 145q0 55 -20 82t-64 27q-37 0 -59 -29t-22 -76q0 -56 20 -83.5t65 -27.5q35 0 57.5 30t22.5 77zM328 535q0 -35 -9.5 -64t-28.5 -50.5t-46 -33.5t-61 -12
q-70 0 -102.5 38.5t-32.5 112.5q0 33 10 62t28.5 50.5t46 33.5t60.5 12q70 0 102.5 -38t32.5 -111zM145 -19l-43 29l494 683l43 -30zM694 151q0 -71 -38.5 -115t-106.5 -44q-70 0 -102.5 38t-32.5 112q0 33 10 62t28.5 50.5t46 33.5t60.5 12q70 0 102.5 -38t32.5 -111z" />
    <glyph glyph-name="ampersand" unicode="&#x26;" horiz-adv-x="794" 
d="M689 -16q-40 30 -77 58.5t-67 52.5q-52 -48 -119.5 -75.5t-146.5 -27.5q-103 0 -160 51.5t-57 138.5q0 35 11 65.5t30 56.5t44 49.5t58 49.5q-50 58 -71.5 103t-21.5 86q0 29 10.5 54.5t32 46t52 31.5t67.5 11q35 0 62.5 -9.5t46.5 -27.5t28.5 -41t9.5 -50
q0 -54 -31 -100.5t-105 -103.5q24 -24 54.5 -52.5t64.5 -58.5t70 -59.5t70 -56.5q37 49 56 116.5t15 147.5h64q3 -87 -21 -163t-70 -135q34 -28 70.5 -55.5t69.5 -52.5zM358 598q0 39 -23.5 62.5t-67.5 23.5q-41 0 -67 -24.5t-26 -64.5q0 -33 17.5 -69.5t60.5 -86.5
q55 43 80.5 80.5t25.5 78.5zM291 45q64 0 118 23t94 61q-37 29 -73.5 59.5t-71.5 61.5t-65.5 60.5t-54.5 55.5q-57 -45 -84.5 -87t-27.5 -89q0 -66 44 -105.5t121 -39.5z" />
    <glyph glyph-name="quotesingle" unicode="'" horiz-adv-x="187" 
d="M116 484h-46l-12 213h71z" />
    <glyph glyph-name="parenleft" unicode="(" horiz-adv-x="301" 
d="M228 -205q-44 70 -73 136t-44.5 126t-21.5 114.5t-6 111.5q0 55 7 112.5t23.5 119.5t45 128.5t70.5 133.5l43 -23q-63 -106 -95.5 -225t-32.5 -240q0 -130 32 -246t98 -223z" />
    <glyph glyph-name="parenright" unicode=")" horiz-adv-x="301" 
d="M225 290q0 -55 -7 -112.5t-23.5 -120t-45 -129t-70.5 -133.5l-43 24q63 106 95.5 224.5t32.5 240.5q0 130 -31.5 246t-97.5 223l46 24q44 -70 72.5 -136t44 -125.5t21.5 -114t6 -111.5z" />
    <glyph glyph-name="asterisk" unicode="*" horiz-adv-x="366" 
d="M290 494l-94 64l8 -114h-50l8 114l-95 -64l-24 43l104 50l-104 49l25 44l95 -64l-8 114h50l-8 -114l94 64l24 -43l-103 -49l103 -50z" />
    <glyph glyph-name="plus" unicode="+" 
d="M305 271v-211h-60v211h-201v53h201v210h60v-210h201v-53h-201z" />
    <glyph glyph-name="comma" unicode="," horiz-adv-x="208" 
d="M101 88q23 0 36.5 -18t11 -50.5t-25.5 -74t-70 -86.5l-29 25q43 45 51.5 81t-6.5 56q-8 10 -9 22t4.5 22.5t15 16.5t21.5 6z" />
    <glyph glyph-name="hyphen" unicode="-" horiz-adv-x="327" 
d="M49 268v52h229v-52h-229z" />
    <glyph glyph-name="hyphen" unicode="&#xad;" horiz-adv-x="327" 
d="M49 268v52h229v-52h-229z" />
    <glyph glyph-name="period" unicode="." horiz-adv-x="208" 
d="M152 41q0 -20 -14 -34.5t-34 -14.5t-34 14.5t-14 34.5t14 34t34 14t34 -14t14 -34z" />
    <glyph glyph-name="slash" unicode="/" horiz-adv-x="420" 
d="M133 0h-60l258 675h59z" />
    <glyph glyph-name="zero" unicode="0" 
d="M494 345q0 -91 -18 -159t-49.5 -111t-72.5 -63.5t-86 -20.5q-54 0 -94 20t-66 62t-39 108.5t-13 159.5q0 84 16 149t46.5 108t71.5 64t91 21q49 0 87 -17.5t66.5 -57t44 -105t15.5 -158.5zM426 338q0 78 -9 133.5t-27.5 90.5t-47 52t-68.5 17q-33 0 -60.5 -16.5
t-47.5 -51.5t-31 -89.5t-11 -126.5q0 -77 8 -133t25.5 -93.5t46.5 -57t70 -19.5q72 0 112 77.5t40 216.5z" />
    <glyph glyph-name="one" unicode="1" 
d="M87 607l187 68h54v-618h162v-57h-410v57h183v554l-176 -63v59z" />
    <glyph glyph-name="two" unicode="2" 
d="M63 0v50l176 183q46 47 74.5 82t45 64t23 55t6.5 55t-10 55t-28.5 45.5t-46 30t-60.5 10.5q-22 0 -44.5 -5t-42.5 -12.5t-38.5 -17.5t-38.5 -22v60q36 21 79.5 35.5t91.5 14.5t86 -13.5t64.5 -39t40 -59.5t13.5 -75q0 -33 -7.5 -63.5t-25 -63.5t-48.5 -71.5t-78 -85.5
l-153 -153l-2 -2q47 1 130.5 2t207.5 1v-60h-415z" />
    <glyph glyph-name="three" unicode="3" 
d="M466 201q0 -46 -17 -84.5t-50 -66.5t-79.5 -42.5t-102.5 -14.5q-34 0 -67.5 3.5t-60.5 11.5v62q30 -10 67 -16t70 -6q81 0 126.5 38t45.5 104q0 65 -47 102.5t-131 37.5q-27 0 -48 -1t-46 -3v53h18q117 0 178 35.5t61 104.5q0 52 -36.5 82t-96.5 30q-38 0 -75 -10.5
t-74 -30.5v61q36 15 75.5 23.5t81.5 8.5q46 0 82.5 -11.5t60.5 -32.5t36.5 -49.5t12.5 -62.5q0 -61 -34 -102.5t-97 -59.5l-1 -1q31 -4 58 -16.5t47.5 -35t31.5 -51t11 -60.5z" />
    <glyph glyph-name="four" unicode="4" 
d="M408 165v-165h-63v165h-314l-4 49l295 461h86v-452h119v-58h-119zM345 612h-1l-252 -392q20 1 47 1.5t56.5 1t57.5 0.5h49h43v389z" />
    <glyph glyph-name="five" unicode="5" 
d="M466 211q0 -48 -17 -89t-51 -70.5t-79 -44.5t-98 -15q-31 0 -65 3.5t-65 11.5v59q28 -9 65 -14.5t71 -5.5q41 0 74 11t55 32t32.5 49t10.5 63q0 72 -49 110.5t-131 38.5q-34 0 -64 -2t-48 -6v333h336v-61h-278v-214q15 1 33 2t32 0q56 1 99.5 -12.5t74 -39.5t46.5 -61.5
t16 -77.5z" />
    <glyph glyph-name="six" unicode="6" 
d="M495 227q0 -52 -15.5 -95t-45 -74.5t-70 -48.5t-88.5 -17q-51 0 -91.5 19.5t-69 55.5t-43 87.5t-14.5 114.5q0 110 24 189.5t68 129t102.5 72.5t130.5 23q12 0 26 -0.5t21 -1.5v-57q-16 2 -28 3t-28 1q-108 0 -168.5 -64.5t-79.5 -187.5q-2 -9 -4.5 -23.5t-4.5 -35.5h1
q25 50 71 77.5t102 27.5q47 0 85 -15t64.5 -41.5t40.5 -62t14 -76.5zM431 215q0 68 -39.5 110.5t-111.5 42.5q-33 0 -61 -13.5t-48 -35.5t-30.5 -48t-10.5 -50q0 -36 10 -68t30 -56.5t49 -38.5t65 -14q68 0 107.5 47t39.5 124z" />
    <glyph glyph-name="seven" unicode="7" 
d="M492 620q-83 -151 -154 -310.5t-122 -309.5h-74q60 162 129.5 316.5t148.5 298.5q-17 -1 -125.5 -1.5t-234.5 -0.5v62h432v-55z" />
    <glyph glyph-name="eight" unicode="8" 
d="M486 166q0 -39 -16 -71.5t-45.5 -55.5t-70 -35.5t-88.5 -12.5q-50 0 -88.5 12.5t-63.5 34.5t-37.5 51.5t-12.5 64.5q0 23 6 44.5t22 45t45.5 48.5t74.5 52q-72 39 -102 80.5t-30 94.5q0 35 14 65.5t40 53.5t63 35.5t81 12.5q87 0 137.5 -41.5t50.5 -109.5q0 -24 -7 -45.5
t-23.5 -43t-44 -44.5t-67.5 -48q46 -23 77.5 -45.5t50 -45.5t26.5 -47t8 -50zM399 531q0 49 -35 76t-92 27q-28 0 -52 -8.5t-41.5 -24t-26.5 -35t-9 -41.5q0 -40 29 -73.5t100 -71.5q37 23 61.5 42.5t39 37.5t20.5 35t6 36zM419 155q0 49 -35 85.5t-119 76.5
q-70 -41 -102 -78t-32 -79q0 -52 37.5 -83.5t106.5 -31.5q30 0 56.5 7.5t46 21.5t30.5 34.5t11 46.5z" />
    <glyph glyph-name="nine" unicode="9" 
d="M484 408q0 -113 -24.5 -193t-68.5 -129t-103.5 -71.5t-132.5 -22.5q-36 0 -72 6v59q21 -4 42.5 -6.5t42.5 -2.5q105 0 164.5 59t75.5 177q2 17 4 29.5t4 26.5h-1q-24 -42 -67.5 -65.5t-99.5 -23.5q-46 0 -82.5 14.5t-61.5 42t-38 65t-13 82.5q0 51 16 93.5t45.5 73
t69.5 46.5t86 16q49 0 88 -16t67.5 -49.5t43.5 -86t15 -124.5zM411 457q0 38 -10 70t-28.5 55.5t-46 36.5t-62.5 13q-33 0 -60 -12.5t-46 -35t-29.5 -53t-10.5 -64.5q0 -72 37.5 -116t103.5 -44q36 0 64.5 12t48 33t29.5 48t10 57z" />
    <glyph glyph-name="colon" unicode=":" horiz-adv-x="278" 
d="M204 41q0 -20 -14 -34.5t-34 -14.5t-34 14.5t-14 34.5t14 34t34 14t34 -14t14 -34zM204 397q0 -20 -14 -34t-34 -14t-34 14t-14 34t14 34t34 14t34 -14t14 -34z" />
    <glyph glyph-name="semicolon" unicode=";" horiz-adv-x="278" 
d="M155 88q22 0 35.5 -18.5t11.5 -50.5t-25 -73.5t-70 -86.5l-29 25q22 24 34.5 45t17 38.5t2.5 31t-9 22.5q-8 10 -9 22t4 22.5t15 16.5t22 6zM204 397q0 -20 -14 -34t-34 -14t-34 14t-14 34t14 34t34 14t34 -14t14 -34z" />
    <glyph glyph-name="less" unicode="&#x3c;" 
d="M392 29l-314 275l314 275l40 -39l-273 -235l273 -233z" />
    <glyph glyph-name="equal" unicode="=" 
d="M57 192v54h436v-54h-436zM57 349v53h436v-53h-436z" />
    <glyph glyph-name="greater" unicode="&#x3e;" 
d="M158 29l-40 39l273 235l-273 233l40 43l314 -275z" />
    <glyph glyph-name="question" unicode="?" horiz-adv-x="441" 
d="M238 40q0 -20 -14 -34t-34 -14t-33.5 14t-13.5 34t14 33.5t33 13.5q20 0 34 -13.5t14 -33.5zM372 521q0 -36 -13.5 -66t-41 -59.5t-48.5 -51t-36.5 -46.5t-20.5 -60.5t9 -83.5h-62q-15 48 -11.5 85.5t18.5 65.5t39.5 54t47.5 50.5t36 50.5t13 56q0 24 -9 47.5t-34.5 42.5
t-64.5 29.5t-110 11.5v58q82 -1 134.5 -15.5t88.5 -42t50.5 -60t14.5 -66.5z" />
    <glyph glyph-name="at" unicode="@" horiz-adv-x="1024" 
d="M612 444q-29 7 -72 7q-41 0 -71.5 -20.5t-50 -53.5t-29 -71.5t-9.5 -74.5q0 -104 64 -104q23 0 46 16.5t44 49.5t38.5 80.5t28.5 107.5zM931 367q0 -67 -17.5 -121.5t-48.5 -93t-72 -58.5t-88 -20q-34 0 -58 11t-38 30t-19 42t-2 48h-2q-8 -24 -22.5 -47t-34.5 -42
t-45.5 -30.5t-54.5 -11.5q-53 0 -83.5 38.5t-30.5 105.5q0 58 15 109.5t45 91.5t75 62.5t102 22.5q44 0 81.5 -4.5t53.5 -7.5l-43 -227q-13 -67 5.5 -102.5t64.5 -35.5q34 0 63 16.5t50.5 47t33 74.5t11.5 97q0 59 -18.5 112.5t-58 97t-102 68.5t-147.5 25q-82 0 -154.5 -31
t-127 -88t-85 -134t-30.5 -166q0 -79 23 -143.5t67.5 -110t109.5 -70t148 -24.5q43 0 87.5 6.5t88.5 18.5l8 -50q-44 -12 -95 -19t-96 -7q-92 0 -167 27.5t-127.5 79t-80 123.5t-27.5 160q0 103 36.5 191t101 152.5t148.5 99.5t176 35q94 0 166 -28t120 -77t71.5 -111.5
t23.5 -131.5z" />
    <glyph glyph-name="A" unicode="A" horiz-adv-x="608" 
d="M332 517q-11 32 -17.5 52t-12.5 39h-1q-7 -22 -14.5 -44.5t-15.5 -44.5l-107 -295h275zM518 0l-61 173h-311l-62 -173h-68l253 675h72l251 -675h-74z" />
    <glyph glyph-name="B" unicode="B" horiz-adv-x="563" 
d="M439 189q0 34 -11.5 59t-36.5 42t-64 25.5t-94 8.5h-42t-31 -1v-268q15 -2 44.5 -4t52.5 -2q47 0 81.5 10.5t57 30t33 44.5t10.5 55zM415 505q0 27 -7.5 48.5t-25.5 38t-49.5 26t-77.5 9.5q-17 0 -40.5 -1t-54.5 -2v-250q15 -1 30 -1h47q87 0 132.5 34t45.5 98zM506 195
q0 -33 -12.5 -67t-42 -64t-80 -48.5t-122.5 -18.5q-30 0 -91.5 1.5l-61.5 1.5v675q21 1 68.5 2t99.5 1q111 0 164.5 -43.5t53.5 -118.5q0 -56 -32.5 -99t-89.5 -61v-1q33 -5 60 -18t46 -33.5t29.5 -47.5t10.5 -61z" />
    <glyph glyph-name="C" unicode="C" horiz-adv-x="595" 
d="M541 22q-44 -14 -92.5 -21.5t-98.5 -7.5q-73 0 -129 22.5t-93.5 65t-56.5 104t-19 139.5q0 77 19 142t58 113.5t99 75.5t141 27q41 0 83.5 -7t80.5 -20v-64q-89 37 -178 37q-60 0 -104.5 -23t-73.5 -63.5t-43 -93.5t-14 -114q0 -137 61 -211.5t180 -74.5q39 0 87.5 8.5
t92.5 22.5v-57z" />
    <glyph glyph-name="D" unicode="D" horiz-adv-x="686" 
d="M567 339q0 143 -73.5 215t-216.5 72q-48 0 -117 -3v-566q53 -7 103 -7q69 0 124.5 17.5t96 53t62 90.5t21.5 128zM634 343q0 -85 -27.5 -150.5t-78.5 -109t-120.5 -65t-153.5 -21.5q-33 0 -84.5 2t-73.5 1v675q24 0 89 1.5t100 1.5q84 0 148.5 -20.5t109.5 -62t68 -104.5
t23 -148z" />
    <glyph glyph-name="E" unicode="E" horiz-adv-x="536" 
d="M96 0v675h363v-52h-299v-249h274v-51h-274v-270h304v-53h-368z" />
    <glyph glyph-name="F" unicode="F" horiz-adv-x="500" 
d="M160 623v-251h283v-51h-283v-321h-64v675h365v-52h-301z" />
    <glyph glyph-name="G" unicode="G" horiz-adv-x="687" 
d="M597 29q-49 -18 -106 -27.5t-111 -9.5q-77 0 -138.5 22.5t-104.5 65.5t-66 105.5t-23 140.5q0 77 22.5 142.5t67.5 114t112 74.5t152 26q42 0 86.5 -6.5t87.5 -18.5v-64q-43 17 -90.5 26.5t-92.5 9.5q-70 0 -123 -23t-87 -64t-50.5 -94t-16.5 -113q0 -69 19 -123
t55 -91.5t86.5 -56.5t113.5 -19q39 0 73.5 5.5t69.5 16.5v269h64v-308z" />
    <glyph glyph-name="H" unicode="H" horiz-adv-x="706" 
d="M546 0v324h-386v-324h-64v675h64v-298h386v298h64v-675h-64z" />
    <glyph glyph-name="I" unicode="I" horiz-adv-x="256" 
d="M96 0v675h64v-675h-64z" />
    <glyph glyph-name="J" unicode="J" horiz-adv-x="256" 
d="M4 -139q28 15 45.5 30t28 33.5t14.5 42t4 56.5v652h64v-648q0 -41 -6 -71.5t-20.5 -54.5t-39 -44t-62.5 -39z" />
    <glyph glyph-name="K" unicode="K" horiz-adv-x="576" 
d="M474 0l-314 342v-342h-64v675h64v-327l302 327h80l-307 -324l326 -351h-87z" />
    <glyph glyph-name="L" unicode="L" horiz-adv-x="454" 
d="M96 0v675h64v-622h288v-53h-352z" />
    <glyph glyph-name="M" unicode="M" horiz-adv-x="892" 
d="M767 0l-62 439q-9 62 -14.5 106t-6.5 72h-2q-5 -18 -12.5 -42t-23.5 -70l-179 -505h-58l-169 476q-24 67 -32 90.5t-15 50.5h-1q-2 -37 -6 -79t-11 -105l-51 -433h-66l91 675h88l171 -481q10 -25 18.5 -53t14.5 -55h1q6 28 14 56t17 52l172 481h93l96 -675h-67z" />
    <glyph glyph-name="N" unicode="N" horiz-adv-x="686" 
d="M525 0l-276 434q-43 68 -61 99t-35 63h-1q1 -29 2.5 -76t2.5 -108t2 -118t1 -102v-192h-64v675h51h23l263 -410q38 -60 62 -101t38 -68h1q-2 44 -3.5 98.5t-2.5 105t-1.5 102.5t-0.5 99v174h64v-675h-58h-7z" />
    <glyph glyph-name="O" unicode="O" horiz-adv-x="707" 
d="M592 332q0 135 -61.5 216t-177.5 81q-50 0 -93 -18.5t-76 -55t-51 -90t-18 -121.5q0 -66 15 -121t45 -94.5t75 -61t103 -21.5q50 0 93.5 18.5t76 55.5t51 90.5t18.5 121.5zM659 345q0 -84 -24.5 -150t-67.5 -111.5t-100 -68.5t-122 -23q-71 0 -126.5 24t-93.5 68.5
t-57.5 107t-19.5 138.5q0 84 24.5 150t67.5 111.5t100 68.5t122 23q71 0 126.5 -24t93.5 -68.5t57.5 -107t19.5 -138.5z" />
    <glyph glyph-name="P" unicode="P" horiz-adv-x="548" 
d="M443 462q0 75 -48.5 119.5t-146.5 44.5q-42 0 -88 -2v-324q47 -6 91 -6q93 0 142.5 47.5t49.5 120.5zM509 473q0 -50 -18.5 -92.5t-53.5 -74t-84.5 -48.5t-108.5 -17q-40 0 -84 4v-245h-64v675q95 3 165 3q63 0 110.5 -16.5t78 -45t45 -65.5t14.5 -78z" />
    <glyph glyph-name="Q" unicode="Q" horiz-adv-x="707" 
d="M707 -67q-39 -4 -70 -2t-54.5 8t-57 18.5t-50 18.5t-44.5 11t-62 5h-24q-71 0 -126.5 24t-93.5 68.5t-57.5 107t-19.5 138.5q0 84 24.5 150t67.5 111.5t100 68.5t122 23q71 0 126.5 -24t93.5 -68.5t57.5 -107t19.5 -138.5q0 -32 -4 -63t-11.5 -59t-19 -53t-26 -47
t-32.5 -40.5t-39 -32.5t-45 -24q22 0 48 -8t51 -16.5t55.5 -12t70.5 0.5v-57zM592 332q0 135 -61.5 216t-177.5 81q-50 0 -93 -18.5t-76 -55t-51 -90t-18 -121.5q0 -66 15 -121t45 -94.5t75 -61t103 -21.5q50 0 93.5 18.5t76 55.5t51 90.5t18.5 121.5z" />
    <glyph glyph-name="R" unicode="R" horiz-adv-x="562" 
d="M417 493q0 66 -43.5 100t-125.5 34q-43 0 -88 -3v-268q11 0 35.5 -0.5t48.5 -0.5q84 0 128.5 36.5t44.5 101.5zM448 0l-229 306h-59v-306h-64v674q21 1 67 2.5t93 1.5q50 0 91.5 -10.5t72 -32t47 -55t16.5 -78.5q0 -44 -15 -78.5t-42 -58.5t-62 -37.5t-75 -17.5
q8 -8 24.5 -27.5t33.5 -43.5l182 -239h-81z" />
    <glyph glyph-name="S" unicode="S" horiz-adv-x="504" 
d="M446 181q0 -41 -15.5 -76t-45.5 -60.5t-74 -39t-97 -13.5q-41 0 -80 5t-69 14v64q35 -13 75.5 -20.5t78.5 -7.5q34 0 63.5 7t52 23t34.5 41.5t12 58.5q0 36 -18 62t-47.5 43.5t-90.5 42.5t-94 47t-53 55.5t-20 81.5q0 36 15 68.5t44 56t70.5 36.5t93.5 13q30 0 61.5 -3.5
t55.5 -8.5v-59q-29 8 -61.5 13t-59.5 5q-75 0 -115 -31t-40 -87q0 -34 16.5 -57t43 -39.5t95 -44.5t101.5 -53t50.5 -58t17.5 -79z" />
    <glyph glyph-name="T" unicode="T" horiz-adv-x="520" 
d="M292 622v-622h-64v622h-209v53h482v-53h-209z" />
    <glyph glyph-name="U" unicode="U" horiz-adv-x="701" 
d="M605 255q0 -129 -66 -196t-197 -67q-75 0 -124 19t-75.5 51.5t-36.5 72.5t-10 87v453h64v-446q0 -41 8.5 -73.5t29 -57.5t57.5 -39.5t93 -14.5q49 0 85.5 11t60.5 35t36 63.5t12 95.5v426h63v-420z" />
    <glyph glyph-name="V" unicode="V" horiz-adv-x="610" 
d="M339 0h-72l-251 675h74l167 -463q10 -27 22.5 -65t25.5 -81h1q11 37 24 75t27 76l167 458h68z" />
    <glyph glyph-name="W" unicode="W" horiz-adv-x="954" 
d="M725 0h-81l-146 497q-7 22 -12.5 45.5t-9.5 44.5h-2q-5 -27 -9.5 -48.5t-10.5 -41.5l-142 -497h-83l-188 675h69l135 -487q9 -38 16 -68.5t13 -60.5h1q7 35 14 65.5t15 58.5l141 492h65l148 -501q8 -27 15.5 -57t12.5 -58h1q8 38 12 58t10 42l140 516h63z" />
    <glyph glyph-name="X" unicode="X" horiz-adv-x="578" 
d="M476 0l-191 301l-189 -301h-74l226 349l-212 326h75l175 -275l173 275h73l-209 -320l233 -355h-80z" />
    <glyph glyph-name="Y" unicode="Y" horiz-adv-x="519" 
d="M291 267v-267h-64v267l-222 408h72l130 -242q16 -29 28 -55t26 -57h1q16 35 29.5 62.5t26.5 50.5l128 241h68z" />
    <glyph glyph-name="Z" unicode="Z" horiz-adv-x="540" 
d="M47 0v45l311 481q17 26 32 48t32 46q-34 -1 -75.5 -1.5t-90.5 -0.5h-198v57h434v-46l-328 -505q-11 -17 -22 -33.5l-23 -34.5q11 1 36 1.5t57.5 0.5h90.5h193v-58h-449z" />
    <glyph glyph-name="bracketleft" unicode="[" horiz-adv-x="318" 
d="M96 -195v962h182v-47h-123v-866h123v-49h-182z" />
    <glyph glyph-name="backslash" unicode="\" horiz-adv-x="415" 
d="M304 0l-258 675h58l258 -675h-58z" />
    <glyph glyph-name="bracketright" unicode="]" horiz-adv-x="318" 
d="M39 -195v49h124v866h-124v47h182v-962h-182z" />
    <glyph glyph-name="asciicircum" unicode="^" 
d="M416 347l-154 278l-146 -278l-45 25l166 303h54l174 -302z" />
    <glyph glyph-name="underscore" unicode="_" 
d="M0 -251v49h550v-49h-550z" />
    <glyph glyph-name="grave" unicode="`" horiz-adv-x="350" 
d="M220 576l-125 128l44 39l116 -136z" />
    <glyph glyph-name="a" unicode="a" horiz-adv-x="519" 
d="M359 230h-68q-49 0 -82.5 -7t-53.5 -19.5t-29 -30t-9 -40.5q0 -39 24 -64t63 -25q34 0 62.5 15t49.5 40.5t32 57.5t11 65v8zM358 0q0 29 2 56t6 49l-2 1q-19 -50 -65 -82t-107 -32q-62 0 -100.5 35.5t-38.5 96.5q0 37 14.5 65t44.5 48t75.5 30t107.5 10h64v40
q0 70 -27 103.5t-95 33.5q-35 0 -75.5 -8.5t-76.5 -23.5v54q36 13 77.5 21t80.5 8q50 0 84.5 -12.5t55 -36.5t30 -57t9.5 -75v-108v-108v-108h-64z" />
    <glyph glyph-name="b" unicode="b" horiz-adv-x="558" 
d="M444 265q0 91 -31.5 140t-96.5 49q-38 0 -68 -20t-49.5 -52t-29.5 -69.5t-10 -72.5v-181q12 -4 40 -9.5t64 -5.5q85 0 133 54t48 167zM510 271q0 -66 -18 -118t-51.5 -87.5t-80 -53.5t-103.5 -18q-54 0 -98 7t-63 11v718h63v-261q0 -22 -2.5 -47t-6.5 -43l2 -1
q21 60 67.5 93.5t106.5 33.5q89 0 136.5 -59.5t47.5 -174.5z" />
    <glyph glyph-name="c" unicode="c" horiz-adv-x="434" 
d="M398 14q-39 -11 -70 -15.5t-66 -4.5q-48 0 -86.5 12.5t-67.5 40t-45.5 74.5t-16.5 114q0 62 15 111.5t44.5 84.5t73 53.5t98.5 18.5q57 0 117 -19v-58q-34 13 -62.5 19.5t-58.5 6.5q-38 0 -68.5 -14.5t-51 -42t-30.5 -66.5t-10 -85q0 -44 7.5 -79.5t25.5 -62t48.5 -41
t75.5 -14.5q33 0 62 5t66 15v-53z" />
    <glyph glyph-name="d" unicode="d" horiz-adv-x="558" 
d="M399 440q-52 13 -104 13q-88 0 -134 -56t-46 -165q0 -92 32 -140.5t95 -48.5q34 0 63.5 17.5t50.5 49t32 72t11 82.5v176zM398 0q0 13 0.5 28.5t2 31t3 29.5t3.5 25l-2 1q-21 -57 -67.5 -90t-105.5 -33q-90 0 -137 60.5t-47 173.5q0 65 17.5 117t51 88t80.5 54t104 18
q44 0 98 -6v233h63v-730h-64z" />
    <glyph glyph-name="e" unicode="e" horiz-adv-x="503" 
d="M431 18q-36 -12 -77 -19t-82 -7q-112 0 -169 63.5t-57 195.5q0 54 14.5 100.5t42 81t68 53.5t90.5 19q49 0 85 -16t59.5 -44t34.5 -65t11 -81q0 -23 -3 -52h-337q0 -102 42 -152.5t126 -50.5q37 0 75.5 7t76.5 20v-53zM386 295q4 77 -31.5 118.5t-97.5 41.5
q-58 0 -98.5 -41.5t-45.5 -118.5h273z" />
    <glyph glyph-name="f" unicode="f" horiz-adv-x="346" 
d="M375 673q-14 3 -37 6.5t-47 3.5q-60 0 -84 -34.5t-24 -108.5v-43h153v-50h-153v-447h-63v447h-114v50h114v41q0 101 43.5 149t132.5 48q42 0 79 -8v-54z" />
    <glyph glyph-name="g" unicode="g" horiz-adv-x="529" 
d="M261 505q32 0 63 -8h168v-50h-88q19 -20 30 -48t11 -63q0 -38 -12.5 -71.5t-37.5 -58t-61.5 -39t-84.5 -14.5q-35 0 -62 7q-37 -23 -37 -48q0 -19 18.5 -30.5t63.5 -12.5l86 -3q94 -3 137.5 -41.5t43.5 -103.5q0 -40 -17.5 -73t-50 -56.5t-79.5 -37t-103 -13.5
q-96 0 -151.5 39t-55.5 109q0 23 7 43.5t20 39.5t28 33t33 26q-16 8 -30 25.5t-14 44.5q0 23 13 43.5t40 37.5q-17 10 -30 24q-22 24 -33 54t-11 62q0 38 13 71.5t37.5 58t61 39t84.5 14.5zM127 -40q-19 -29 -19 -61q0 -53 41 -80t110 -27q87 0 131 34t44 87q0 43 -30 68.5
t-103 27.5l-87 3q-16 1 -29 3q-39 -26 -58 -55zM382 329q0 55 -33.5 91t-93.5 36t-93.5 -36t-33.5 -91t33.5 -91t93.5 -36t93.5 36t33.5 91z" />
    <glyph glyph-name="h" unicode="h" horiz-adv-x="579" 
d="M420 0v322q0 66 -22.5 99t-78.5 33q-35 0 -64.5 -16t-51 -45.5t-33 -69t-11.5 -86.5v-237h-63v730h63v-251q0 -29 -2 -55.5t-6 -43.5l2 -1q22 59 69 92.5t111 33.5q42 0 71 -12t46.5 -33.5t25 -50t7.5 -63.5v-346h-63z" />
    <glyph glyph-name="i" unicode="i" horiz-adv-x="255" 
d="M96 0v497h63v-497h-63zM173 658q0 -18 -13 -31.5t-32 -13.5t-32 13t-13 32t13 32t32 13t32 -13t13 -32z" />
    <glyph glyph-name="j" unicode="j" horiz-adv-x="255" 
d="M173 658q0 -18 -13 -31.5t-32 -13.5t-32.5 13t-13.5 32t13.5 32t32.5 13t32 -12.5t13 -32.5zM159 -44q0 -42 -8 -73t-24 -56t-39.5 -45t-54.5 -40l-30 43q25 17 42.5 33t29 35.5t16.5 44t5 58.5v541h63v-541z" />
    <glyph glyph-name="k" unicode="k" horiz-adv-x="473" 
d="M364 0l-205 264v-264h-63v730h63v-459l196 226h74l-202 -225l221 -272h-84z" />
    <glyph glyph-name="l" unicode="l" horiz-adv-x="255" 
d="M96 0v730h63v-730h-63z" />
    <glyph glyph-name="m" unicode="m" horiz-adv-x="888" 
d="M729 0v322q0 32 -4.5 56t-15 41t-29.5 26t-47 9q-31 0 -59.5 -15t-50.5 -43.5t-35 -69.5t-13 -91v-235h-63v323q0 30 -4 52.5t-14 40.5t-29 28t-49 10q-32 0 -61 -16t-50.5 -45.5t-33.5 -70t-12 -87.5v-235h-63v497h64q0 -28 -2.5 -60.5t-6.5 -55.5l2 -1q21 58 68.5 91.5
t109.5 33.5q41 0 69 -13t43 -33t20.5 -40t5.5 -37q7 20 21.5 41t36 39.5t51.5 30.5t67 12q72 0 109.5 -39t37.5 -121v-345h-63z" />
    <glyph glyph-name="n" unicode="n" horiz-adv-x="579" 
d="M420 0v322q0 66 -22.5 99t-78.5 33q-35 0 -64.5 -16t-51 -45.5t-33 -69t-11.5 -86.5v-237h-63v497h64q0 -28 -2.5 -61t-6.5 -55l2 -1q21 58 68 91.5t112 33.5q42 0 71 -12t46.5 -33.5t25 -50t7.5 -63.5v-346h-63z" />
    <glyph glyph-name="o" unicode="o" horiz-adv-x="540" 
d="M430 249q0 97 -42 151t-117 54q-37 0 -66.5 -13t-50.5 -39t-32.5 -65t-11.5 -89q0 -97 42 -150.5t117 -53.5q35 0 64 12t51 37.5t34 64.5t12 91zM495 253q0 -55 -15 -102.5t-44.5 -83t-73.5 -55.5t-100 -20q-101 0 -159 63.5t-58 188.5q0 55 15 102.5t44.5 83t73.5 55.5
t100 20q50 0 89.5 -15.5t68.5 -47t44 -79t15 -110.5z" />
    <glyph glyph-name="p" unicode="p" horiz-adv-x="558" 
d="M444 265q0 91 -31.5 140t-96.5 49q-38 0 -68 -20t-49.5 -52t-29.5 -69.5t-10 -72.5v-181q23 -8 48 -11.5t56 -3.5q85 0 133 54t48 167zM510 271q0 -66 -17.5 -118t-51 -87t-80 -53t-103.5 -18q-30 0 -51.5 1t-47.5 5v-252h-63v748h64q0 -13 -0.5 -28t-1.5 -30.5t-3 -30
t-4 -25.5l2 -1q21 57 67 90t106 33q89 0 136.5 -59.5t47.5 -174.5z" />
    <glyph glyph-name="q" unicode="q" horiz-adv-x="558" 
d="M399 441q-51 13 -104 13q-85 0 -132.5 -54.5t-47.5 -167.5q0 -91 31.5 -140t95.5 -49q38 0 67.5 20t49.5 52t30 69.5t10 72.5v184zM399 -251v282q0 19 1.5 41.5t5.5 41.5l-2 1q-20 -56 -66.5 -89.5t-105.5 -33.5q-88 0 -136 59.5t-48 174.5q0 67 18 118.5t51.5 87
t80.5 53.5t106 18q38 0 79 -3.5t79 -9.5v-741h-63z" />
    <glyph glyph-name="r" unicode="r" horiz-adv-x="354" 
d="M328 443q-84 13 -126.5 -50t-42.5 -195v-198h-63v497h64q0 -28 -3.5 -63.5t-9.5 -66.5l2 -1q8 30 22 56.5t35.5 46.5t52.5 30t69 5v-61z" />
    <glyph glyph-name="s" unicode="s" horiz-adv-x="431" 
d="M375 135q0 -29 -12 -55.5t-37 -46.5t-61 -30.5t-80 -10.5q-32 0 -62 3.5t-60 9.5v61q31 -9 64 -15t65 -6q57 0 87.5 22t30.5 63q0 28 -15 45.5t-35.5 27.5t-69 26t-74.5 32t-42.5 42t-16.5 66q0 61 48.5 98.5t134.5 37.5q23 0 47.5 -2t52.5 -6v-57q-25 6 -53.5 10
t-52.5 4q-55 0 -84 -21t-29 -59q0 -26 13.5 -42.5t33.5 -26.5t71.5 -27.5t78 -34t42 -42.5t15.5 -66z" />
    <glyph glyph-name="t" unicode="t" horiz-adv-x="369" 
d="M331 2q-22 -4 -44 -6.5t-42 -2.5q-37 0 -61.5 8.5t-39 25.5t-21 44.5t-6.5 66.5v309h-111v50h111v168l63 17v-185h151v-50h-151v-289q0 -33 3.5 -54t12 -33t23.5 -17.5t38 -5.5q41 0 74 9v-55z" />
    <glyph glyph-name="u" unicode="u" horiz-adv-x="579" 
d="M419 0q0 28 2.5 61t6.5 55l-2 1q-21 -58 -68 -91.5t-112 -33.5q-42 0 -71 12t-46.5 33.5t-25 50t-7.5 63.5v346h63v-322q0 -66 22.5 -99t78.5 -33q35 0 64.5 16t51 45.5t33 69t11.5 86.5v237h63v-497h-64z" />
    <glyph glyph-name="v" unicode="v" horiz-adv-x="471" 
d="M268 0h-69l-187 497h72l124 -349q9 -27 15 -46t12 -39h1q6 20 12.5 40t14.5 42l127 352h69z" />
    <glyph glyph-name="w" unicode="w" horiz-adv-x="791" 
d="M607 0h-76l-117 345q-14 41 -27 91h-1q-7 -27 -14 -50.5t-23 -74.5l-97 -311h-77l-155 497h72l92 -322q7 -24 18.5 -63.5t14.5 -51.5h1q7 26 15.5 56t17.5 60l102 321h77l105 -321q5 -17 12 -39t10.5 -34.5t6.5 -23t6 -20.5h1q5 21 18.5 66t15.5 50l97 322h68z" />
    <glyph glyph-name="x" unicode="x" horiz-adv-x="512" 
d="M399 0l-146 208l-146 -208h-80l191 248l-181 249h80l141 -203l145 203h73l-183 -245l191 -252h-85z" />
    <glyph glyph-name="y" unicode="y" horiz-adv-x="464" 
d="M254 -30q-25 -66 -49.5 -119.5t-49.5 -101.5h-71q31 54 58 108.5t48 108.5l14 34l-192 497h74l112 -307q13 -35 21.5 -61.5t16.5 -53.5h1q7 22 20.5 63t29.5 87l96 272h69z" />
    <glyph glyph-name="z" unicode="z" horiz-adv-x="445" 
d="M49 0v44l266 399q-44 -1 -74.5 -1.5t-74.5 -0.5h-112v56h332v-43l-264 -398q52 1 92.5 1.5t59.5 0.5h117v-58h-342z" />
    <glyph glyph-name="braceleft" unicode="{" horiz-adv-x="326" 
d="M271 -195q-74 0 -105.5 44t-31.5 132v203q0 29 -5.5 48.5t-18 32.5t-33.5 19.5t-53 8.5v52q33 2 54 8t33.5 18.5t17.5 32t5 49.5v139q0 37 6.5 68t22.5 55.5t42.5 38t65.5 13.5h16v-47q-54 0 -74.5 -27.5t-20.5 -96.5v-138q0 -58 -23 -93t-71 -45v-1q47 -7 70.5 -43.5
t23.5 -95.5v-203q0 -69 20.5 -96t74.5 -27v-49h-16z" />
    <glyph glyph-name="bar" unicode="|" horiz-adv-x="283" 
d="M116 -251v1000h50v-1000h-50z" />
    <glyph glyph-name="braceright" unicode="}" horiz-adv-x="326" 
d="M302 293q-32 -2 -53 -8.5t-33 -19.5t-17.5 -32.5t-5.5 -48.5v-203q0 -88 -32 -132t-106 -44h-16v49q54 0 75 27t21 96v203q0 59 23.5 95.5t69.5 43.5v1q-47 7 -70 42t-23 91v143q0 69 -21 96.5t-75 27.5v47h16q39 0 66 -13.5t43 -38t22.5 -55.5t6.5 -68v-134
q0 -32 5 -52.5t17 -33t33 -19t54 -8.5v-52z" />
    <glyph glyph-name="asciitilde" unicode="~" 
d="M489 563q0 -61 -33 -99t-88 -38q-37 0 -60 15t-47 44t-39.5 42t-41.5 13q-34 0 -51.5 -26t-18.5 -68h-47v4q0 61 33 99t88 38q37 0 60 -15t47 -44t39.5 -42t41.5 -13q34 0 51.5 26t18.5 69h47v-5z" />
    <glyph glyph-name="uni00A0" unicode="&#xa0;" horiz-adv-x="218" 
 />
    <glyph glyph-name="exclamdown" unicode="&#xa1;" horiz-adv-x="318" 
d="M112 -202l12 545h51l12 -545h-75zM197 457q0 -19 -13.5 -33t-33.5 -14t-34 13.5t-14 33.5t14 34t34 14t33.5 -14t13.5 -34z" />
    <glyph glyph-name="cent" unicode="&#xa2;" horiz-adv-x="457" 
d="M410 134q-25 -9 -54.5 -15.5t-58.5 -8.5v-136h-51v136q-95 8 -145 68t-50 168q0 48 13 89.5t38.5 73t61.5 51t82 25.5v114h51v-112q28 -1 57 -5.5t54 -12.5v-57q-72 23 -124 23q-80 0 -124 -49.5t-44 -137.5q0 -40 8.5 -73.5t28 -58.5t52 -39t78.5 -14q31 0 61.5 7
t65.5 19v-55z" />
    <glyph glyph-name="sterling" unicode="&#xa3;" horiz-adv-x="467" 
d="M43 0v45q32 25 52.5 48t32.5 46.5t17.5 49.5t5.5 59q0 15 -1.5 35.5t-5.5 52.5h-114v49h107q-8 55 -10.5 80t-2.5 45q0 83 47 128t133 45q23 0 47.5 -3t46.5 -8v-58q-23 8 -50 12.5t-51 4.5q-52 0 -81 -29t-29 -82q0 -20 3.5 -56.5t10.5 -78.5h162v-49h-156q6 -48 6 -81
q0 -37 -4.5 -63.5t-15 -49.5t-28.5 -44.5t-47 -46.5q20 2 46.5 3.5t51.5 1.5h219v-56h-392z" />
    <glyph glyph-name="currency" unicode="&#xa4;" 
d="M386 334q0 27 -6 49.5t-20 39.5t-36 26.5t-53 9.5q-46 0 -76.5 -35t-30.5 -92q0 -28 6 -52t19.5 -42t35.5 -28t53 -10q21 0 40.5 9.5t35 27t24 42.5t8.5 55zM448 69l-83 111q-43 -29 -97 -29q-44 0 -78 16l-73 -98l-45 33l76 93q-21 23 -32 57t-11 78q0 80 48 128l-80 99
l43 33l76 -104q19 11 41.5 16.5t47.5 5.5q24 0 47.5 -5t42.5 -17l79 104l42 -34l-83 -102q17 -20 26.5 -49.5t9.5 -70.5q0 -75 -42 -122l89 -109z" />
    <glyph glyph-name="yen" unicode="&#xa5;" horiz-adv-x="585" 
d="M323 89v-89h-64v89h-171v46h171v97h-171v46h171v27l-214 370h75l119 -214q13 -24 28 -54.5t25 -53.5h1q14 29 28.5 57t32.5 59l113 206h70l-214 -370v-27h172v-46h-172v-97h172v-46h-172z" />
    <glyph glyph-name="brokenbar" unicode="&#xa6;" horiz-adv-x="283" 
d="M116 -251v378h50v-378h-50zM116 381v368h50v-368h-50z" />
    <glyph glyph-name="section" unicode="&#xa7;" horiz-adv-x="513" 
d="M354 218q0 30 -14 58.5t-35.5 54.5t-59 64.5t-50.5 53.5q-26 -18 -38.5 -42.5t-12.5 -49.5q0 -29 14 -57.5t35.5 -55t60 -66t50.5 -52.5q26 18 38 42t12 50zM416 226q0 -79 -79 -139q19 -25 29 -50.5t10 -53.5q0 -29 -10.5 -55.5t-31.5 -47t-51.5 -32t-69.5 -11.5
q-17 0 -37 2.5t-39 8.5l6 54q25 -7 41 -10t34 -3q43 0 68 24.5t25 63.5q0 27 -15.5 54t-34.5 48t-59.5 62.5t-64.5 71t-39.5 64t-15.5 71.5q0 79 79 140q-19 26 -29 51.5t-10 52.5q0 30 10 56t30 45.5t49.5 30.5t68.5 11q17 0 36 -2.5t34 -6.5l-6 -54q-20 6 -35 8.5t-33 2.5
q-43 0 -66 -22.5t-23 -61.5q0 -27 15.5 -54t34.5 -48t59.5 -63t64.5 -71.5t39.5 -64.5t15.5 -72z" />
    <glyph glyph-name="dieresis" unicode="&#xa8;" horiz-adv-x="461" 
d="M181 658q0 -18 -12 -30.5t-31 -12.5q-18 0 -30.5 12.5t-12.5 30.5q0 19 12.5 31t30.5 12q19 0 31 -12t12 -31zM366 658q0 -18 -12.5 -30.5t-30.5 -12.5t-30.5 12.5t-12.5 30.5q0 19 12.5 31t30.5 12t30.5 -12t12.5 -31z" />
    <glyph glyph-name="copyright" unicode="&#xa9;" horiz-adv-x="752" 
d="M469 174q-23 -7 -47.5 -11t-49.5 -4q-40 0 -70.5 12t-49 35t-26.5 54.5t-8 69.5t9.5 71t29.5 58.5t51.5 40t74.5 14.5q22 0 42.5 -3t40.5 -8v-50q-43 16 -86 16q-28 0 -48 -10t-32 -28.5t-18 -42.5t-6 -54q0 -65 25 -96.5t79 -31.5q42 0 89 15v-47zM652 335
q0 56 -21.5 107.5t-60 90.5t-89.5 61t-107 22t-107 -21.5t-90 -60t-60 -89.5t-21 -108t21.5 -108.5t60 -91t89.5 -61t107 -21.5t107 21.5t90 60.5t60 90t21 108zM705 337q0 -67 -25.5 -127.5t-71.5 -106.5t-106.5 -71.5t-127.5 -25.5q-69 0 -130 25t-106.5 70.5t-70.5 106
t-25 127.5t25.5 127t71.5 106.5t107 71.5t128 25t128 -25t107 -70.5t71 -105.5t25 -127z" />
    <glyph glyph-name="ordfeminine" unicode="&#xaa;" horiz-adv-x="378" 
d="M249 504h-29q-58 0 -83 -14t-25 -48q0 -20 13 -32.5t34 -12.5q20 0 36.5 8.5t28.5 24t18.5 34t6.5 32.5v8zM53 237v49h272v-49h-272zM247 356q0 13 1.5 28.5t4.5 27.5h-1q-7 -15 -18.5 -27t-25 -19.5t-28.5 -11t-31 -3.5q-43 0 -68.5 23t-25.5 63q0 53 42.5 81t124.5 28
h27v19q0 16 -3.5 28.5t-11.5 22t-22.5 15t-34.5 5.5q-25 0 -51 -6.5t-50 -18.5v51q25 9 52 14.5t57 5.5q33 0 56 -8.5t37.5 -23.5t20.5 -34.5t6 -42.5v-128v-89h-58z" />
    <glyph glyph-name="guillemotleft" unicode="&#xab;" horiz-adv-x="492" 
d="M179 125l-116 169l118 172l45 -28l-97 -143l97 -141zM362 126l-125 168l126 171l45 -28l-105 -142l106 -141z" />
    <glyph glyph-name="logicalnot" unicode="&#xac;" 
d="M423 109v162h-379v53h433v-215h-54z" />
    <glyph glyph-name="registered" unicode="&#xae;" horiz-adv-x="561" 
d="M317 581q0 17 -9 24.5t-30 7.5h-26v-71h16q26 0 37.5 11.5t11.5 27.5zM319 413l-64 102h-3v-102h-40v232h70q40 0 58.5 -15.5t18.5 -43.5q0 -29 -16.5 -46.5t-44.5 -20.5q3 -4 8.5 -11.5t14.5 -20.5l48 -74h-50zM443 526q0 33 -12.5 63.5t-35 54t-52.5 36.5t-63 13
t-63 -12.5t-52.5 -35.5t-35 -52.5t-12.5 -63.5q0 -33 12.5 -63.5t35 -54t52.5 -36.5t63 -13q34 0 63.5 12.5t52 35.5t35 52.5t12.5 63.5zM491 527q0 -42 -16.5 -80t-46 -67.5t-68 -46t-80.5 -16.5q-44 0 -82.5 16t-67 45t-44.5 67.5t-16 81.5t16 81.5t45.5 67.5t67.5 45.5
t81 16.5q44 0 82.5 -16t67.5 -45t45 -67.5t16 -82.5z" />
    <glyph glyph-name="macron" unicode="&#xaf;" horiz-adv-x="430" 
d="M95 629v48h240v-48h-240z" />
    <glyph glyph-name="macron" unicode="&#x2c9;" horiz-adv-x="430" 
d="M95 629v48h240v-48h-240z" />
    <glyph glyph-name="degree" unicode="&#xb0;" horiz-adv-x="367" 
d="M251 616q0 17 -5 31t-14 24t-21.5 15t-27.5 5q-30 0 -49.5 -21t-19.5 -54q0 -35 19 -55t49 -20t49.5 21t19.5 54zM304 618q0 -28 -10 -50.5t-27.5 -38t-40 -23.5t-46.5 -8q-55 0 -87 31.5t-32 84.5q0 27 10 49.5t27.5 38.5t40 24t46.5 8q27 0 49.5 -8t38 -23.5t23.5 -37
t8 -47.5z" />
    <glyph glyph-name="plusminus" unicode="&#xb1;" 
d="M45 0v53h460v-53h-460zM305 328v-206h-60v206h-201v53h201v204h60v-204h201v-53h-201z" />
    <glyph glyph-name="twosuperior" unicode="&#xb2;" horiz-adv-x="374" 
d="M46 351v47l120 126q41 42 59.5 76t18.5 66q0 39 -22 61.5t-63 22.5q-27 0 -51 -7t-51 -20v51q26 12 54.5 19t58.5 7q64 0 100.5 -33.5t36.5 -89.5q0 -44 -22.5 -85.5t-71.5 -91.5l-94 -97q32 1 78 1.5t134 0.5v-54h-285z" />
    <glyph glyph-name="threesuperior" unicode="&#xb3;" horiz-adv-x="362" 
d="M307 484q0 -31 -12 -57t-35 -44.5t-56 -28.5t-73 -10q-19 0 -41 2t-41 5v54q20 -6 43 -9.5t45 -3.5q52 0 80 23t28 62q0 46 -42 66.5t-128 13.5v47q82 0 118 20t36 61q0 31 -21.5 49.5t-61.5 18.5q-18 0 -42.5 -5.5t-47.5 -13.5v48q49 18 103 18q62 0 96.5 -28t34.5 -80
q0 -75 -81 -102q47 -9 72.5 -37.5t25.5 -68.5z" />
    <glyph glyph-name="acute" unicode="&#xb4;" horiz-adv-x="350" 
d="M130 576l-35 31l116 136l44 -39z" />
    <glyph glyph-name="mu1" unicode="&#xb5;" horiz-adv-x="589" 
d="M546 -5q-12 -1 -29 -1q-51 0 -72.5 30.5t-16.5 91.5h-1q-21 -57 -67.5 -90.5t-109.5 -33.5q-33 0 -58.5 10.5t-38.5 31.5l8 -285h-65v748h63v-332q0 -62 24.5 -92t76.5 -30q35 0 64.5 16t51 45t33 69t11.5 87v237h63v-330q0 -40 3 -63t10 -35.5t18.5 -17t31.5 -4.5v-52z
" />
    <glyph glyph-name="paragraph" unicode="&#xb6;" horiz-adv-x="563" 
d="M286 260q-52 0 -92 16t-67 45t-40 67t-13 82q0 43 15 80.5t43 65.5t67.5 43.5t86.5 15.5v-415zM421 628v-724h-137v47h76v724h135v-47h-74z" />
    <glyph glyph-name="periodcentered" unicode="&#xb7;" horiz-adv-x="209" 
d="M156 297q0 -22 -15 -36.5t-36 -14.5q-22 0 -36.5 14.5t-14.5 36.5t14.5 36.5t36.5 14.5q21 0 36 -14.5t15 -36.5z" />
    <glyph glyph-name="periodcentered" unicode="&#x2219;" horiz-adv-x="209" 
d="M156 297q0 -22 -15 -36.5t-36 -14.5q-22 0 -36.5 14.5t-14.5 36.5t14.5 36.5t36.5 14.5q21 0 36 -14.5t15 -36.5z" />
    <glyph glyph-name="cedilla" unicode="&#xb8;" horiz-adv-x="300" 
d="M174 -41q36 -46 29 -93t-51 -102h-57q22 28 34 49t15.5 40.5t-3 38.5t-24.5 40z" />
    <glyph glyph-name="onesuperior" unicode="&#xb9;" horiz-adv-x="283" 
d="M134 351v383l-107 -36v51l120 43h48v-441h-61z" />
    <glyph glyph-name="ordmasculine" unicode="&#xba;" horiz-adv-x="415" 
d="M297 517q0 27 -6 49t-17.5 37t-28 22.5t-37.5 7.5q-20 0 -37 -7.5t-28.5 -22t-18 -36.5t-6.5 -50t6 -50t17.5 -37t28 -22.5t37.5 -7.5q41 0 65.5 30t24.5 87zM71 237v49h273v-49h-273zM358 519q0 -35 -10 -65.5t-30 -53.5t-49 -36t-67 -13q-68 0 -107 41t-39 122
q0 35 10 66t30 54t49.5 36t67.5 13q33 0 60 -10t46 -30.5t29 -51.5t10 -72z" />
    <glyph glyph-name="guillemotright" unicode="&#xbb;" horiz-adv-x="492" 
d="M127 126l-45 27l106 143l-104 140l46 29l124 -168zM310 125l-45 28l98 143l-97 141l47 29l116 -169z" />
    <glyph glyph-name="onequarter" unicode="&#xbc;" horiz-adv-x="791" 
d="M134 351v383l-107 -36v51l120 43h48v-441h-61zM79 -132l-44 31l631 905l44 -31zM688 -16v-104h-60v104h-210l-5 41l188 296h87v-285h76v-52h-76zM628 272l-152 -239q14 1 34.5 1.5t42 1t39 0.5h36.5v236z" />
    <glyph glyph-name="onehalf" unicode="&#xbd;" horiz-adv-x="857" 
d="M134 351v383l-107 -36v51l120 43h48v-441h-61zM79 -132l-44 31l631 905l44 -31zM529 -120v47l120 126q41 42 59.5 76t18.5 66q0 39 -22 61.5t-63 22.5q-27 0 -51 -7t-51 -20v51q26 12 54.5 19t58.5 7q64 0 100.5 -33.5t36.5 -89.5q0 -44 -22.5 -85.5t-71.5 -91.5l-94 -97
q32 1 78 1.5t134 0.5v-54h-285z" />
    <glyph glyph-name="threequarters" unicode="&#xbe;" horiz-adv-x="855" 
d="M143 -132l-44 31l631 905l44 -31zM307 484q0 -31 -12 -57t-35 -44.5t-56 -28.5t-73 -10q-19 0 -41 2t-41 5v54q20 -6 43 -9.5t45 -3.5q52 0 80 23t28 62q0 46 -42 66.5t-128 13.5v47q82 0 118 20t36 61q0 31 -21.5 49.5t-61.5 18.5q-18 0 -42.5 -5.5t-47.5 -13.5v48
q49 18 103 18q62 0 96.5 -28t34.5 -80q0 -75 -81 -102q47 -9 72.5 -37.5t25.5 -68.5zM752 -16v-104h-60v104h-210l-5 41l188 296h87v-285h76v-52h-76zM692 272l-152 -239q14 1 34.5 1.5t42 1t39 0.5h36.5v236z" />
    <glyph glyph-name="questiondown" unicode="&#xbf;" horiz-adv-x="441" 
d="M282 343q16 -51 11.5 -88.5t-20.5 -66.5t-39 -52t-44 -46t-36 -49t-15 -60q0 -26 10.5 -49.5t35.5 -41.5t67 -29t105 -11v-58q-81 0 -136 16.5t-88.5 42.5t-48 58.5t-14.5 64.5q0 41 15 70.5t37 54t45.5 47t40 50t22 62.5t-9.5 85h62zM203 457q0 20 14 34t34 14t34 -14
t14 -34t-14 -33.5t-34 -13.5t-34 13.5t-14 33.5z" />
    <glyph glyph-name="Agrave" unicode="&#xc0;" horiz-adv-x="608" 
d="M332 517q-11 32 -17.5 52t-12.5 39h-1q-7 -22 -14.5 -44.5t-15.5 -44.5l-107 -295h275zM518 0l-61 173h-311l-62 -173h-68l253 675h72l251 -675h-74zM341 732l-172 58l23 54l164 -74z" />
    <glyph glyph-name="Aacute" unicode="&#xc1;" horiz-adv-x="608" 
d="M332 517q-11 32 -17.5 52t-12.5 39h-1q-7 -22 -14.5 -44.5t-15.5 -44.5l-107 -295h275zM518 0l-61 173h-311l-62 -173h-68l253 675h72l251 -675h-74zM258 732l-15 38l164 74l23 -54z" />
    <glyph glyph-name="Acircumflex" unicode="&#xc2;" horiz-adv-x="608" 
d="M332 517q-11 32 -17.5 52t-12.5 39h-1q-7 -22 -14.5 -44.5t-15.5 -44.5l-107 -295h275zM518 0l-61 173h-311l-62 -173h-68l253 675h72l251 -675h-74zM437 730l-133 63l-133 -63l-21 40l155 82l153 -81z" />
    <glyph glyph-name="Atilde" unicode="&#xc3;" horiz-adv-x="608" 
d="M332 517q-11 32 -17.5 52t-12.5 39h-1q-7 -22 -14.5 -44.5t-15.5 -44.5l-107 -295h275zM518 0l-61 173h-311l-62 -173h-68l253 675h72l251 -675h-74zM476 807q-19 -32 -45 -49.5t-58 -17.5q-23 0 -40 7.5t-37 22t-31.5 20.5t-26.5 6q-18 0 -35.5 -12t-30.5 -35l-35 26
q37 67 103 67q23 0 40 -7t37.5 -21.5t32 -20.5t26.5 -6q37 0 65 46z" />
    <glyph glyph-name="Adieresis" unicode="&#xc4;" horiz-adv-x="608" 
d="M332 517q-11 32 -17.5 52t-12.5 39h-1q-7 -22 -14.5 -44.5t-15.5 -44.5l-107 -295h275zM518 0l-61 173h-311l-62 -173h-68l253 675h72l251 -675h-74zM239 778q0 -19 -12 -31t-31 -12q-18 0 -30.5 12t-12.5 31q0 18 12.5 30.5t30.5 12.5q19 0 31 -12.5t12 -30.5zM452 778
q0 -19 -12.5 -31t-30.5 -12t-30.5 12t-12.5 31q0 18 12.5 30.5t30.5 12.5t30.5 -12.5t12.5 -30.5z" />
    <glyph glyph-name="Aring" unicode="&#xc5;" horiz-adv-x="608" 
d="M332 517q-11 32 -17.5 52t-12.5 39h-1q-7 -22 -14.5 -44.5t-15.5 -44.5l-107 -295h275zM518 0l-61 173h-311l-62 -173h-68l253 675h72l251 -675h-74zM413 816q0 -44 -29.5 -73.5t-79.5 -29.5q-48 0 -75 25t-27 73q0 44 30 73.5t80 29.5q47 0 74 -25t27 -73zM361 813
q0 28 -14 44t-39 16q-22 0 -37.5 -15t-15.5 -44q0 -59 53 -59q22 0 37.5 15t15.5 43z" />
    <glyph glyph-name="AE" unicode="&#xc6;" horiz-adv-x="824" 
d="M384 623h-25q-12 -26 -27.5 -57t-41.5 -79l-146 -262h240v398zM384 0v173h-266l-95 -173h-69l376 675h417v-52h-299v-249h274v-51h-274v-270h304v-53h-368z" />
    <glyph glyph-name="Ccedilla" unicode="&#xc7;" horiz-adv-x="595" 
d="M541 22q-44 -14 -92.5 -21.5t-98.5 -7.5q-73 0 -129 22.5t-93.5 65t-56.5 104t-19 139.5q0 77 19 142t58 113.5t99 75.5t141 27q41 0 83.5 -7t80.5 -20v-64q-89 37 -178 37q-60 0 -104.5 -23t-73.5 -63.5t-43 -93.5t-14 -114q0 -137 61 -211.5t180 -74.5q39 0 87.5 8.5
t92.5 22.5v-57zM355 -41q36 -46 29 -93t-51 -102h-57q22 28 34 49t15.5 40.5t-3 38.5t-24.5 40z" />
    <glyph glyph-name="Egrave" unicode="&#xc8;" horiz-adv-x="536" 
d="M96 0v675h363v-52h-299v-249h274v-51h-274v-270h304v-53h-368zM302 732l-172 58l23 54l164 -74z" />
    <glyph glyph-name="Eacute" unicode="&#xc9;" horiz-adv-x="536" 
d="M96 0v675h363v-52h-299v-249h274v-51h-274v-270h304v-53h-368zM228 732l-15 38l164 74l23 -54z" />
    <glyph glyph-name="Ecircumflex" unicode="&#xca;" horiz-adv-x="536" 
d="M96 0v675h363v-52h-299v-249h274v-51h-274v-270h304v-53h-368zM409 730l-133 63l-133 -63l-21 40l155 82l153 -81z" />
    <glyph glyph-name="Edieresis" unicode="&#xcb;" horiz-adv-x="536" 
d="M96 0v675h363v-52h-299v-249h274v-51h-274v-270h304v-53h-368zM213 778q0 -19 -12 -31t-31 -12q-18 0 -30.5 12t-12.5 31q0 18 12.5 30.5t30.5 12.5q19 0 31 -12.5t12 -30.5zM426 778q0 -19 -12.5 -31t-30.5 -12t-30.5 12t-12.5 31q0 18 12.5 30.5t30.5 12.5t30.5 -12.5
t12.5 -30.5z" />
    <glyph glyph-name="Igrave" unicode="&#xcc;" horiz-adv-x="256" 
d="M96 0v675h64v-675h-64zM164 732l-172 58l23 54l164 -74z" />
    <glyph glyph-name="Iacute" unicode="&#xcd;" horiz-adv-x="256" 
d="M96 0v675h64v-675h-64zM94 732l-15 38l164 74l23 -54z" />
    <glyph glyph-name="Icircumflex" unicode="&#xce;" horiz-adv-x="256" 
d="M96 0v675h64v-675h-64zM261 730l-133 63l-133 -63l-21 40l155 82l153 -81z" />
    <glyph glyph-name="Idieresis" unicode="&#xcf;" horiz-adv-x="256" 
d="M96 0v675h64v-675h-64zM74 778q0 -19 -12 -31t-31 -12q-18 0 -30.5 12t-12.5 31q0 18 12.5 30.5t30.5 12.5q19 0 31 -12.5t12 -30.5zM268 778q0 -19 -12.5 -31t-30.5 -12t-30.5 12t-12.5 31q0 18 12.5 30.5t30.5 12.5t30.5 -12.5t12.5 -30.5z" />
    <glyph glyph-name="Eth" unicode="&#xd0;" horiz-adv-x="694" 
d="M575 339q0 143 -73 215t-217 72q-30 0 -117 -3v-249h159v-51h-159v-266q53 -7 103 -7q71 0 127 18t96 54.5t60.5 91t20.5 125.5zM642 343q0 -83 -26.5 -147.5t-77 -109t-120.5 -67t-156 -22.5q-33 0 -84.5 2t-73.5 1v323h-102v51h102v301q24 0 89.5 1.5t100.5 1.5
q84 0 149 -20.5t109.5 -62.5t67 -105t22.5 -147z" />
    <glyph glyph-name="Ntilde" unicode="&#xd1;" horiz-adv-x="686" 
d="M525 0l-276 434q-43 68 -61 99t-35 63h-1q1 -29 2.5 -76t2.5 -108t2 -118t1 -102v-192h-64v675h51h23l263 -410q38 -60 62 -101t38 -68h1q-2 44 -3.5 98.5t-2.5 105t-1.5 102.5t-0.5 99v174h64v-675h-58h-7zM518 807q-19 -32 -45 -49.5t-58 -17.5q-23 0 -40 7.5t-37 22
t-31.5 20.5t-26.5 6q-18 0 -35.5 -12t-30.5 -35l-35 26q37 67 103 67q23 0 40 -7t37.5 -21.5t32 -20.5t26.5 -6q37 0 65 46z" />
    <glyph glyph-name="Ograve" unicode="&#xd2;" horiz-adv-x="707" 
d="M592 332q0 135 -61.5 216t-177.5 81q-50 0 -93 -18.5t-76 -55t-51 -90t-18 -121.5q0 -66 15 -121t45 -94.5t75 -61t103 -21.5q50 0 93.5 18.5t76 55.5t51 90.5t18.5 121.5zM659 345q0 -84 -24.5 -150t-67.5 -111.5t-100 -68.5t-122 -23q-71 0 -126.5 24t-93.5 68.5
t-57.5 107t-19.5 138.5q0 84 24.5 150t67.5 111.5t100 68.5t122 23q71 0 126.5 -24t93.5 -68.5t57.5 -107t19.5 -138.5zM382 732l-172 58l23 54l164 -74z" />
    <glyph glyph-name="Oacute" unicode="&#xd3;" horiz-adv-x="707" 
d="M592 332q0 135 -61.5 216t-177.5 81q-50 0 -93 -18.5t-76 -55t-51 -90t-18 -121.5q0 -66 15 -121t45 -94.5t75 -61t103 -21.5q50 0 93.5 18.5t76 55.5t51 90.5t18.5 121.5zM659 345q0 -84 -24.5 -150t-67.5 -111.5t-100 -68.5t-122 -23q-71 0 -126.5 24t-93.5 68.5
t-57.5 107t-19.5 138.5q0 84 24.5 150t67.5 111.5t100 68.5t122 23q71 0 126.5 -24t93.5 -68.5t57.5 -107t19.5 -138.5zM329 732l-15 38l164 74l23 -54z" />
    <glyph glyph-name="Ocircumflex" unicode="&#xd4;" horiz-adv-x="707" 
d="M592 332q0 135 -61.5 216t-177.5 81q-50 0 -93 -18.5t-76 -55t-51 -90t-18 -121.5q0 -66 15 -121t45 -94.5t75 -61t103 -21.5q50 0 93.5 18.5t76 55.5t51 90.5t18.5 121.5zM659 345q0 -84 -24.5 -150t-67.5 -111.5t-100 -68.5t-122 -23q-71 0 -126.5 24t-93.5 68.5
t-57.5 107t-19.5 138.5q0 84 24.5 150t67.5 111.5t100 68.5t122 23q71 0 126.5 -24t93.5 -68.5t57.5 -107t19.5 -138.5zM492 730l-133 63l-133 -63l-21 40l155 82l153 -81z" />
    <glyph glyph-name="Otilde" unicode="&#xd5;" horiz-adv-x="707" 
d="M592 332q0 135 -61.5 216t-177.5 81q-50 0 -93 -18.5t-76 -55t-51 -90t-18 -121.5q0 -66 15 -121t45 -94.5t75 -61t103 -21.5q50 0 93.5 18.5t76 55.5t51 90.5t18.5 121.5zM659 345q0 -84 -24.5 -150t-67.5 -111.5t-100 -68.5t-122 -23q-71 0 -126.5 24t-93.5 68.5
t-57.5 107t-19.5 138.5q0 84 24.5 150t67.5 111.5t100 68.5t122 23q71 0 126.5 -24t93.5 -68.5t57.5 -107t19.5 -138.5zM522 807q-19 -32 -45 -49.5t-58 -17.5q-23 0 -40 7.5t-37 22t-31.5 20.5t-26.5 6q-18 0 -35.5 -12t-30.5 -35l-35 26q37 67 103 67q23 0 40 -7
t37.5 -21.5t32 -20.5t26.5 -6q37 0 65 46z" />
    <glyph glyph-name="Odieresis" unicode="&#xd6;" horiz-adv-x="707" 
d="M592 332q0 135 -61.5 216t-177.5 81q-50 0 -93 -18.5t-76 -55t-51 -90t-18 -121.5q0 -66 15 -121t45 -94.5t75 -61t103 -21.5q50 0 93.5 18.5t76 55.5t51 90.5t18.5 121.5zM659 345q0 -84 -24.5 -150t-67.5 -111.5t-100 -68.5t-122 -23q-71 0 -126.5 24t-93.5 68.5
t-57.5 107t-19.5 138.5q0 84 24.5 150t67.5 111.5t100 68.5t122 23q71 0 126.5 -24t93.5 -68.5t57.5 -107t19.5 -138.5zM293 778q0 -19 -12 -31t-31 -12q-18 0 -30.5 12t-12.5 31q0 18 12.5 30.5t30.5 12.5q19 0 31 -12.5t12 -30.5zM506 778q0 -19 -12.5 -31t-30.5 -12
t-30.5 12t-12.5 31q0 18 12.5 30.5t30.5 12.5t30.5 -12.5t12.5 -30.5z" />
    <glyph glyph-name="multiply" unicode="&#xd7;" 
d="M451 83l-177 177l-178 -177l-35 35l177 178l-177 177l38 38l177 -177l178 177l35 -35l-177 -178l177 -177z" />
    <glyph glyph-name="Oslash" unicode="&#xd8;" horiz-adv-x="707" 
d="M659 345q0 -84 -24.5 -150t-67.5 -111.5t-100 -68.5t-122 -23q-36 0 -68.5 6t-59.5 19l-54 -106l-48 23l56 108q-58 40 -90.5 113t-32.5 175q0 84 24.5 150t67.5 111.5t100 68.5t122 23q36 0 68 -6t60 -19l54 106l48 -23l-56 -108q58 -40 90.5 -113t32.5 -175zM593 332
q0 86 -24 147.5t-63 95.5l-261 -504q23 -12 50.5 -18.5t57.5 -6.5q50 0 94 18.5t76.5 55.5t51 90.5t18.5 121.5zM462 604q-23 12 -50.5 18.5t-58.5 6.5q-50 0 -93.5 -18.5t-76 -55t-51 -90t-18.5 -121.5q0 -86 24 -148t63 -96z" />
    <glyph glyph-name="Ugrave" unicode="&#xd9;" horiz-adv-x="701" 
d="M605 255q0 -129 -66 -196t-197 -67q-75 0 -124 19t-75.5 51.5t-36.5 72.5t-10 87v453h64v-446q0 -41 8.5 -73.5t29 -57.5t57.5 -39.5t93 -14.5q49 0 85.5 11t60.5 35t36 63.5t12 95.5v426h63v-420zM375 732l-172 58l23 54l164 -74z" />
    <glyph glyph-name="Uacute" unicode="&#xda;" horiz-adv-x="701" 
d="M605 255q0 -129 -66 -196t-197 -67q-75 0 -124 19t-75.5 51.5t-36.5 72.5t-10 87v453h64v-446q0 -41 8.5 -73.5t29 -57.5t57.5 -39.5t93 -14.5q49 0 85.5 11t60.5 35t36 63.5t12 95.5v426h63v-420zM338 732l-15 38l164 74l23 -54z" />
    <glyph glyph-name="Ucircumflex" unicode="&#xdb;" horiz-adv-x="701" 
d="M605 255q0 -129 -66 -196t-197 -67q-75 0 -124 19t-75.5 51.5t-36.5 72.5t-10 87v453h64v-446q0 -41 8.5 -73.5t29 -57.5t57.5 -39.5t93 -14.5q49 0 85.5 11t60.5 35t36 63.5t12 95.5v426h63v-420zM486 730l-133 63l-133 -63l-21 40l155 82l153 -81z" />
    <glyph glyph-name="Udieresis" unicode="&#xdc;" horiz-adv-x="701" 
d="M605 255q0 -129 -66 -196t-197 -67q-75 0 -124 19t-75.5 51.5t-36.5 72.5t-10 87v453h64v-446q0 -41 8.5 -73.5t29 -57.5t57.5 -39.5t93 -14.5q49 0 85.5 11t60.5 35t36 63.5t12 95.5v426h63v-420zM286 778q0 -19 -12 -31t-31 -12q-18 0 -30.5 12t-12.5 31
q0 18 12.5 30.5t30.5 12.5q19 0 31 -12.5t12 -30.5zM499 778q0 -19 -12.5 -31t-30.5 -12t-30.5 12t-12.5 31q0 18 12.5 30.5t30.5 12.5t30.5 -12.5t12.5 -30.5z" />
    <glyph glyph-name="Yacute" unicode="&#xdd;" horiz-adv-x="519" 
d="M291 267v-267h-64v267l-222 408h72l130 -242q16 -29 28 -55t26 -57h1q16 35 29.5 62.5t26.5 50.5l128 241h68zM245 732l-15 38l164 74l23 -54z" />
    <glyph glyph-name="Thorn" unicode="&#xde;" horiz-adv-x="530" 
d="M443 358q0 38 -12.5 68.5t-37 52t-61 32.5t-84.5 11q-42 0 -88 -4v-322q47 -6 91 -6q90 0 141 46t51 122zM509 370q0 -50 -18.5 -93t-54 -74.5t-84.5 -48t-108 -16.5q-40 0 -84 3v-141h-64v675h64v-103q46 3 101 3q116 0 182 -56t66 -149z" />
    <glyph glyph-name="germandbls" unicode="&#xdf;" horiz-adv-x="582" 
d="M535 144q0 -32 -13 -60t-38.5 -48.5t-62 -32t-80.5 -11.5q-46 0 -88 8v60q44 -14 92 -14q61 0 93.5 24.5t32.5 63.5q0 27 -12.5 45.5t-30 31t-57.5 34.5t-62 39.5t-35 43.5t-13 62q0 27 9.5 47t24.5 34.5t43.5 33.5t41.5 30.5t22 27.5t9 38q0 40 -29 61.5t-80 21.5
q-72 0 -107.5 -42.5t-35.5 -132.5v-509h-63v504q0 61 15.5 105.5t44 72t66.5 40t86 12.5q40 0 71.5 -9.5t52.5 -26.5t32 -40t11 -50q0 -32 -9.5 -54.5t-25.5 -38t-45.5 -34t-41 -28t-20 -23.5t-8.5 -35q0 -26 12.5 -43.5t30 -30t57.5 -34.5t61.5 -40t35 -43t13.5 -60z" />
    <glyph glyph-name="agrave" unicode="&#xe0;" horiz-adv-x="519" 
d="M359 230h-68q-49 0 -82.5 -7t-53.5 -19.5t-29 -30t-9 -40.5q0 -39 24 -64t63 -25q34 0 62.5 15t49.5 40.5t32 57.5t11 65v8zM358 0q0 29 2 56t6 49l-2 1q-19 -50 -65 -82t-107 -32q-62 0 -100.5 35.5t-38.5 96.5q0 37 14.5 65t44.5 48t75.5 30t107.5 10h64v40
q0 70 -27 103.5t-95 33.5q-35 0 -75.5 -8.5t-76.5 -23.5v54q36 13 77.5 21t80.5 8q50 0 84.5 -12.5t55 -36.5t30 -57t9.5 -75v-108v-108v-108h-64zM259 576l-125 128l44 39l116 -136z" />
    <glyph glyph-name="aacute" unicode="&#xe1;" horiz-adv-x="519" 
d="M359 230h-68q-49 0 -82.5 -7t-53.5 -19.5t-29 -30t-9 -40.5q0 -39 24 -64t63 -25q34 0 62.5 15t49.5 40.5t32 57.5t11 65v8zM358 0q0 29 2 56t6 49l-2 1q-19 -50 -65 -82t-107 -32q-62 0 -100.5 35.5t-38.5 96.5q0 37 14.5 65t44.5 48t75.5 30t107.5 10h64v40
q0 70 -27 103.5t-95 33.5q-35 0 -75.5 -8.5t-76.5 -23.5v54q36 13 77.5 21t80.5 8q50 0 84.5 -12.5t55 -36.5t30 -57t9.5 -75v-108v-108v-108h-64zM250 576l-35 31l116 136l44 -39z" />
    <glyph glyph-name="acircumflex" unicode="&#xe2;" horiz-adv-x="519" 
d="M359 230h-68q-49 0 -82.5 -7t-53.5 -19.5t-29 -30t-9 -40.5q0 -39 24 -64t63 -25q34 0 62.5 15t49.5 40.5t32 57.5t11 65v8zM358 0q0 29 2 56t6 49l-2 1q-19 -50 -65 -82t-107 -32q-62 0 -100.5 35.5t-38.5 96.5q0 37 14.5 65t44.5 48t75.5 30t107.5 10h64v40
q0 70 -27 103.5t-95 33.5q-35 0 -75.5 -8.5t-76.5 -23.5v54q36 13 77.5 21t80.5 8q50 0 84.5 -12.5t55 -36.5t30 -57t9.5 -75v-108v-108v-108h-64zM352 578l-98 87l-99 -87l-30 31l130 128l128 -127z" />
    <glyph glyph-name="atilde" unicode="&#xe3;" horiz-adv-x="519" 
d="M359 230h-68q-49 0 -82.5 -7t-53.5 -19.5t-29 -30t-9 -40.5q0 -39 24 -64t63 -25q34 0 62.5 15t49.5 40.5t32 57.5t11 65v8zM358 0q0 29 2 56t6 49l-2 1q-19 -50 -65 -82t-107 -32q-62 0 -100.5 35.5t-38.5 96.5q0 37 14.5 65t44.5 48t75.5 30t107.5 10h64v40
q0 70 -27 103.5t-95 33.5q-35 0 -75.5 -8.5t-76.5 -23.5v54q36 13 77.5 21t80.5 8q50 0 84.5 -12.5t55 -36.5t30 -57t9.5 -75v-108v-108v-108h-64zM413 674q-18 -33 -44 -51t-57 -18q-22 0 -38 7.5t-36 22t-31 21t-26 6.5q-35 0 -62 -48l-34 27q18 33 44 51t57 18
q22 0 38 -7.5t36 -22t31 -21t25 -6.5q36 0 63 48z" />
    <glyph glyph-name="adieresis" unicode="&#xe4;" horiz-adv-x="519" 
d="M359 230h-68q-49 0 -82.5 -7t-53.5 -19.5t-29 -30t-9 -40.5q0 -39 24 -64t63 -25q34 0 62.5 15t49.5 40.5t32 57.5t11 65v8zM358 0q0 29 2 56t6 49l-2 1q-19 -50 -65 -82t-107 -32q-62 0 -100.5 35.5t-38.5 96.5q0 37 14.5 65t44.5 48t75.5 30t107.5 10h64v40
q0 70 -27 103.5t-95 33.5q-35 0 -75.5 -8.5t-76.5 -23.5v54q36 13 77.5 21t80.5 8q50 0 84.5 -12.5t55 -36.5t30 -57t9.5 -75v-108v-108v-108h-64zM201 658q0 -18 -12 -30.5t-31 -12.5q-18 0 -30.5 12.5t-12.5 30.5q0 19 12.5 31t30.5 12q19 0 31 -12t12 -31zM386 658
q0 -18 -12.5 -30.5t-30.5 -12.5t-30.5 12.5t-12.5 30.5q0 19 12.5 31t30.5 12t30.5 -12t12.5 -31z" />
    <glyph glyph-name="aring" unicode="&#xe5;" horiz-adv-x="519" 
d="M359 230h-68q-49 0 -82.5 -7t-53.5 -19.5t-29 -30t-9 -40.5q0 -39 24 -64t63 -25q34 0 62.5 15t49.5 40.5t32 57.5t11 65v8zM358 0q0 29 2 56t6 49l-2 1q-19 -50 -65 -82t-107 -32q-62 0 -100.5 35.5t-38.5 96.5q0 37 14.5 65t44.5 48t75.5 30t107.5 10h64v40
q0 70 -27 103.5t-95 33.5q-35 0 -75.5 -8.5t-76.5 -23.5v54q36 13 77.5 21t80.5 8q50 0 84.5 -12.5t55 -36.5t30 -57t9.5 -75v-108v-108v-108h-64zM362 666q0 -44 -29.5 -74t-79.5 -30q-47 0 -74 25t-27 74q0 44 30 73.5t80 29.5q47 0 73.5 -25t26.5 -73zM310 663
q0 59 -53 59q-22 0 -37.5 -15t-15.5 -44q0 -28 14 -43.5t39 -15.5q22 0 37.5 15t15.5 44z" />
    <glyph glyph-name="ae" unicode="&#xe6;" horiz-adv-x="811" 
d="M359 230h-68q-36 0 -69 -4.5t-58.5 -17t-36 -32t-10.5 -43.5q0 -40 24 -64.5t63 -24.5q33 0 62 14.5t50 40.5t32 58t11 65v8zM696 295q4 78 -32.5 119t-97.5 41q-57 0 -97.5 -40.5t-46.5 -119.5h274zM760 299q0 -23 -2 -52h-337q0 -47 9.5 -85.5t30.5 -65t53 -39.5
t75 -13q37 1 72.5 7.5t79.5 19.5v-53q-38 -13 -79.5 -19.5t-79.5 -6.5q-43 0 -77 9t-58.5 25.5t-40.5 38.5t-24 49h-1q-11 -24 -28.5 -46t-42 -39.5t-54.5 -27t-63 -9.5q-63 0 -101.5 35.5t-38.5 96.5q0 39 17.5 70.5t56 51t83 25.5t85.5 6h64v40q0 71 -28 104t-94 33
q-32 0 -72.5 -8t-79.5 -24v54q36 13 77.5 21t80.5 8q65 0 104 -22.5t56 -65.5h1q25 40 68.5 64t98.5 24q48 0 83.5 -15t58 -41.5t35 -64t12.5 -85.5z" />
    <glyph glyph-name="ccedilla" unicode="&#xe7;" horiz-adv-x="434" 
d="M398 14q-39 -11 -70 -15.5t-66 -4.5q-48 0 -86.5 12.5t-67.5 40t-45.5 74.5t-16.5 114q0 62 15 111.5t44.5 84.5t73 53.5t98.5 18.5q57 0 117 -19v-58q-34 13 -62.5 19.5t-58.5 6.5q-38 0 -68.5 -14.5t-51 -42t-30.5 -66.5t-10 -85q0 -44 7.5 -79.5t25.5 -62t48.5 -41
t75.5 -14.5q33 0 62 5t66 15v-53zM272 -41q36 -46 29 -93t-51 -102h-57q22 28 34 49t15.5 40.5t-3 38.5t-24.5 40z" />
    <glyph glyph-name="egrave" unicode="&#xe8;" horiz-adv-x="503" 
d="M431 18q-36 -12 -77 -19t-82 -7q-112 0 -169 63.5t-57 195.5q0 54 14.5 100.5t42 81t68 53.5t90.5 19q49 0 85 -16t59.5 -44t34.5 -65t11 -81q0 -23 -3 -52h-337q0 -102 42 -152.5t126 -50.5q37 0 75.5 7t76.5 20v-53zM386 295q4 77 -31.5 118.5t-97.5 41.5
q-58 0 -98.5 -41.5t-45.5 -118.5h273zM261 576l-125 128l44 39l116 -136z" />
    <glyph glyph-name="eacute" unicode="&#xe9;" horiz-adv-x="503" 
d="M431 18q-36 -12 -77 -19t-82 -7q-112 0 -169 63.5t-57 195.5q0 54 14.5 100.5t42 81t68 53.5t90.5 19q49 0 85 -16t59.5 -44t34.5 -65t11 -81q0 -23 -3 -52h-337q0 -102 42 -152.5t126 -50.5q37 0 75.5 7t76.5 20v-53zM386 295q4 77 -31.5 118.5t-97.5 41.5
q-58 0 -98.5 -41.5t-45.5 -118.5h273zM254 576l-35 31l116 136l44 -39z" />
    <glyph glyph-name="ecircumflex" unicode="&#xea;" horiz-adv-x="503" 
d="M431 18q-36 -12 -77 -19t-82 -7q-112 0 -169 63.5t-57 195.5q0 54 14.5 100.5t42 81t68 53.5t90.5 19q49 0 85 -16t59.5 -44t34.5 -65t11 -81q0 -23 -3 -52h-337q0 -102 42 -152.5t126 -50.5q37 0 75.5 7t76.5 20v-53zM386 295q4 77 -31.5 118.5t-97.5 41.5
q-58 0 -98.5 -41.5t-45.5 -118.5h273zM357 578l-98 87l-99 -87l-30 31l130 128l128 -127z" />
    <glyph glyph-name="edieresis" unicode="&#xeb;" horiz-adv-x="503" 
d="M431 18q-36 -12 -77 -19t-82 -7q-112 0 -169 63.5t-57 195.5q0 54 14.5 100.5t42 81t68 53.5t90.5 19q49 0 85 -16t59.5 -44t34.5 -65t11 -81q0 -23 -3 -52h-337q0 -102 42 -152.5t126 -50.5q37 0 75.5 7t76.5 20v-53zM386 295q4 77 -31.5 118.5t-97.5 41.5
q-58 0 -98.5 -41.5t-45.5 -118.5h273zM209 658q0 -18 -12 -30.5t-31 -12.5q-18 0 -30.5 12.5t-12.5 30.5q0 19 12.5 31t30.5 12q19 0 31 -12t12 -31zM394 658q0 -18 -12.5 -30.5t-30.5 -12.5t-30.5 12.5t-12.5 30.5q0 19 12.5 31t30.5 12t30.5 -12t12.5 -31z" />
    <glyph glyph-name="igrave" unicode="&#xec;" horiz-adv-x="255" 
d="M96 0v497h63v-497h-63zM117 570l-91 153l52 27l80 -158z" />
    <glyph glyph-name="iacute" unicode="&#xed;" horiz-adv-x="255" 
d="M96 0v497h63v-497h-63zM134 575l-39 26l98 144l49 -31z" />
    <glyph glyph-name="icircumflex" unicode="&#xee;" horiz-adv-x="255" 
d="M96 0v497h63v-497h-63zM212 578l-85 87l-86 -87l-31 30l118 128l116 -127z" />
    <glyph glyph-name="idieresis" unicode="&#xef;" horiz-adv-x="255" 
d="M96 0v497h63v-497h-63zM87 658q0 -18 -12.5 -30.5t-30.5 -12.5q-19 0 -31 12.5t-12 30.5q0 19 12 31t31 12q18 0 30.5 -12t12.5 -31zM254 658q0 -18 -12.5 -30.5t-30.5 -12.5t-30.5 12.5t-12.5 30.5q0 19 12.5 31t30.5 12q19 0 31 -12t12 -31z" />
    <glyph glyph-name="eth" unicode="&#xf0;" horiz-adv-x="540" 
d="M427 261q0 90 -40.5 141.5t-116.5 51.5q-32 0 -60.5 -12.5t-51 -37.5t-35.5 -63.5t-13 -88.5q0 -99 43.5 -153.5t120.5 -54.5q32 0 59.5 12.5t48.5 38.5t33 67.5t12 98.5zM493 269q0 -69 -17 -121.5t-48.5 -87t-73 -51.5t-91.5 -17t-90 15.5t-69 47.5t-44.5 80t-15.5 112
q0 53 15.5 99.5t45.5 82.5t73.5 56t97.5 20q40 0 73.5 -14t49.5 -42q-8 15 -20.5 36t-13.5 23q-14 25 -31 48.5t-41 49.5l-108 -49l-29 37l102 46q-16 16 -37 33.5t-48 38.5l65 28q22 -18 42 -36t38 -37l108 47l29 -37l-104 -46q68 -81 105 -173t37 -189z" />
    <glyph glyph-name="ntilde" unicode="&#xf1;" horiz-adv-x="579" 
d="M420 0v322q0 66 -22.5 99t-78.5 33q-35 0 -64.5 -16t-51 -45.5t-33 -69t-11.5 -86.5v-237h-63v497h64q0 -28 -2.5 -61t-6.5 -55l2 -1q21 58 68 91.5t112 33.5q42 0 71 -12t46.5 -33.5t25 -50t7.5 -63.5v-346h-63zM457 674q-18 -33 -44 -51t-57 -18q-22 0 -38 7.5t-36 22
t-31 21t-26 6.5q-35 0 -62 -48l-34 27q18 33 44 51t57 18q22 0 38 -7.5t36 -22t31 -21t25 -6.5q36 0 63 48z" />
    <glyph glyph-name="ograve" unicode="&#xf2;" horiz-adv-x="540" 
d="M430 249q0 97 -42 151t-117 54q-37 0 -66.5 -13t-50.5 -39t-32.5 -65t-11.5 -89q0 -97 42 -150.5t117 -53.5q35 0 64 12t51 37.5t34 64.5t12 91zM495 253q0 -55 -15 -102.5t-44.5 -83t-73.5 -55.5t-100 -20q-101 0 -159 63.5t-58 188.5q0 55 15 102.5t44.5 83t73.5 55.5
t100 20q50 0 89.5 -15.5t68.5 -47t44 -79t15 -110.5zM279 576l-125 128l44 39l116 -136z" />
    <glyph glyph-name="oacute" unicode="&#xf3;" horiz-adv-x="540" 
d="M430 249q0 97 -42 151t-117 54q-37 0 -66.5 -13t-50.5 -39t-32.5 -65t-11.5 -89q0 -97 42 -150.5t117 -53.5q35 0 64 12t51 37.5t34 64.5t12 91zM495 253q0 -55 -15 -102.5t-44.5 -83t-73.5 -55.5t-100 -20q-101 0 -159 63.5t-58 188.5q0 55 15 102.5t44.5 83t73.5 55.5
t100 20q50 0 89.5 -15.5t68.5 -47t44 -79t15 -110.5zM270 576l-35 31l116 136l44 -39z" />
    <glyph glyph-name="ocircumflex" unicode="&#xf4;" horiz-adv-x="540" 
d="M430 249q0 97 -42 151t-117 54q-37 0 -66.5 -13t-50.5 -39t-32.5 -65t-11.5 -89q0 -97 42 -150.5t117 -53.5q35 0 64 12t51 37.5t34 64.5t12 91zM495 253q0 -55 -15 -102.5t-44.5 -83t-73.5 -55.5t-100 -20q-101 0 -159 63.5t-58 188.5q0 55 15 102.5t44.5 83t73.5 55.5
t100 20q50 0 89.5 -15.5t68.5 -47t44 -79t15 -110.5zM371 578l-98 87l-99 -87l-30 31l130 128l128 -127z" />
    <glyph glyph-name="otilde" unicode="&#xf5;" horiz-adv-x="540" 
d="M430 249q0 97 -42 151t-117 54q-37 0 -66.5 -13t-50.5 -39t-32.5 -65t-11.5 -89q0 -97 42 -150.5t117 -53.5q35 0 64 12t51 37.5t34 64.5t12 91zM495 253q0 -55 -15 -102.5t-44.5 -83t-73.5 -55.5t-100 -20q-101 0 -159 63.5t-58 188.5q0 55 15 102.5t44.5 83t73.5 55.5
t100 20q50 0 89.5 -15.5t68.5 -47t44 -79t15 -110.5zM438 674q-18 -33 -44 -51t-57 -18q-22 0 -38 7.5t-36 22t-31 21t-26 6.5q-35 0 -62 -48l-34 27q18 33 44 51t57 18q22 0 38 -7.5t36 -22t31 -21t25 -6.5q36 0 63 48z" />
    <glyph glyph-name="odieresis" unicode="&#xf6;" horiz-adv-x="540" 
d="M430 249q0 97 -42 151t-117 54q-37 0 -66.5 -13t-50.5 -39t-32.5 -65t-11.5 -89q0 -97 42 -150.5t117 -53.5q35 0 64 12t51 37.5t34 64.5t12 91zM495 253q0 -55 -15 -102.5t-44.5 -83t-73.5 -55.5t-100 -20q-101 0 -159 63.5t-58 188.5q0 55 15 102.5t44.5 83t73.5 55.5
t100 20q50 0 89.5 -15.5t68.5 -47t44 -79t15 -110.5zM219 658q0 -18 -12 -30.5t-31 -12.5q-18 0 -30.5 12.5t-12.5 30.5q0 19 12.5 31t30.5 12q19 0 31 -12t12 -31zM404 658q0 -18 -12.5 -30.5t-30.5 -12.5t-30.5 12.5t-12.5 30.5q0 19 12.5 31t30.5 12t30.5 -12t12.5 -31z
" />
    <glyph glyph-name="divide" unicode="&#xf7;" 
d="M321 95q0 -20 -14 -33.5t-34 -13.5t-34 14t-14 33q0 20 14 34t34 14t34 -14t14 -34zM44 271v53h462v-53h-462zM321 498q0 -20 -14 -34t-34 -14t-34 14t-14 34t14 34t34 14t34 -14t14 -34z" />
    <glyph glyph-name="oslash" unicode="&#xf8;" horiz-adv-x="540" 
d="M495 253q0 -55 -15 -102.5t-44.5 -83t-73.5 -55.5t-100 -20q-54 0 -91 17l-49 -94l-45 21l51 96q-19 15 -34.5 35.5t-26 46.5t-16.5 58.5t-6 71.5q0 55 15 102.5t44.5 83t73.5 55.5t100 20q26 0 49.5 -4.5t41.5 -12.5l49 94l45 -21l-51 -96q19 -15 34.5 -35.5t26 -46.5
t16.5 -58.5t6 -71.5zM432 249q0 106 -49 160l-186 -351q36 -16 72 -16q37 0 67 13.5t51.5 39.5t33 65t11.5 89zM343 439q-36 16 -72 16q-37 0 -67 -13.5t-51.5 -39.5t-33 -65t-11.5 -89q0 -53 13.5 -94.5t35.5 -65.5z" />
    <glyph glyph-name="ugrave" unicode="&#xf9;" horiz-adv-x="579" 
d="M419 0q0 28 2.5 61t6.5 55l-2 1q-21 -58 -68 -91.5t-112 -33.5q-42 0 -71 12t-46.5 33.5t-25 50t-7.5 63.5v346h63v-322q0 -66 22.5 -99t78.5 -33q35 0 64.5 16t51 45.5t33 69t11.5 86.5v237h63v-497h-64zM289 576l-125 128l44 39l116 -136z" />
    <glyph glyph-name="uacute" unicode="&#xfa;" horiz-adv-x="579" 
d="M419 0q0 28 2.5 61t6.5 55l-2 1q-21 -58 -68 -91.5t-112 -33.5q-42 0 -71 12t-46.5 33.5t-25 50t-7.5 63.5v346h63v-322q0 -66 22.5 -99t78.5 -33q35 0 64.5 16t51 45.5t33 69t11.5 86.5v237h63v-497h-64zM292 576l-35 31l116 136l44 -39z" />
    <glyph glyph-name="ucircumflex" unicode="&#xfb;" horiz-adv-x="579" 
d="M419 0q0 28 2.5 61t6.5 55l-2 1q-21 -58 -68 -91.5t-112 -33.5q-42 0 -71 12t-46.5 33.5t-25 50t-7.5 63.5v346h63v-322q0 -66 22.5 -99t78.5 -33q35 0 64.5 16t51 45.5t33 69t11.5 86.5v237h63v-497h-64zM387 578l-98 87l-99 -87l-30 31l130 128l128 -127z" />
    <glyph glyph-name="udieresis" unicode="&#xfc;" horiz-adv-x="579" 
d="M419 0q0 28 2.5 61t6.5 55l-2 1q-21 -58 -68 -91.5t-112 -33.5q-42 0 -71 12t-46.5 33.5t-25 50t-7.5 63.5v346h63v-322q0 -66 22.5 -99t78.5 -33q35 0 64.5 16t51 45.5t33 69t11.5 86.5v237h63v-497h-64zM239 658q0 -18 -12 -30.5t-31 -12.5q-18 0 -30.5 12.5
t-12.5 30.5q0 19 12.5 31t30.5 12q19 0 31 -12t12 -31zM424 658q0 -18 -12.5 -30.5t-30.5 -12.5t-30.5 12.5t-12.5 30.5q0 19 12.5 31t30.5 12t30.5 -12t12.5 -31z" />
    <glyph glyph-name="yacute" unicode="&#xfd;" horiz-adv-x="464" 
d="M254 -30q-25 -66 -49.5 -119.5t-49.5 -101.5h-71q31 54 58 108.5t48 108.5l14 34l-192 497h74l112 -307q13 -35 21.5 -61.5t16.5 -53.5h1q7 22 20.5 63t29.5 87l96 272h69zM238 576l-35 31l116 136l44 -39z" />
    <glyph glyph-name="thorn" unicode="&#xfe;" horiz-adv-x="558" 
d="M444 265q0 91 -31.5 140t-96.5 49q-38 0 -68 -20t-49.5 -52t-29.5 -69.5t-10 -72.5v-181q23 -8 48 -11.5t56 -3.5q85 0 133 54t48 167zM510 271q0 -66 -17.5 -118t-51 -87t-80 -53t-103.5 -18q-30 0 -51.5 1t-47.5 5v-252h-63v981h63v-229q0 -15 -0.5 -31.5t-1.5 -33
t-2 -30t-3 -22.5l2 -1q21 56 67 89t105 33q89 0 136.5 -59.5t47.5 -174.5z" />
    <glyph glyph-name="ydieresis" unicode="&#xff;" horiz-adv-x="464" 
d="M254 -30q-25 -66 -49.5 -119.5t-49.5 -101.5h-71q31 54 58 108.5t48 108.5l14 34l-192 497h74l112 -307q13 -35 21.5 -61.5t16.5 -53.5h1q7 22 20.5 63t29.5 87l96 272h69zM184 658q0 -18 -12 -30.5t-31 -12.5q-18 0 -30.5 12.5t-12.5 30.5q0 19 12.5 31t30.5 12
q19 0 31 -12t12 -31zM369 658q0 -18 -12.5 -30.5t-30.5 -12.5t-30.5 12.5t-12.5 30.5q0 19 12.5 31t30.5 12t30.5 -12t12.5 -31z" />
    <glyph glyph-name="Amacron" unicode="&#x100;" horiz-adv-x="608" 
d="M332 517q-11 32 -17.5 52t-12.5 39h-1q-7 -22 -14.5 -44.5t-15.5 -44.5l-107 -295h275zM518 0l-61 173h-311l-62 -173h-68l253 675h72l251 -675h-74zM172 753v48h264v-48h-264z" />
    <glyph glyph-name="amacron" unicode="&#x101;" horiz-adv-x="519" 
d="M359 230h-68q-49 0 -82.5 -7t-53.5 -19.5t-29 -30t-9 -40.5q0 -39 24 -64t63 -25q34 0 62.5 15t49.5 40.5t32 57.5t11 65v8zM358 0q0 29 2 56t6 49l-2 1q-19 -50 -65 -82t-107 -32q-62 0 -100.5 35.5t-38.5 96.5q0 37 14.5 65t44.5 48t75.5 30t107.5 10h64v40
q0 70 -27 103.5t-95 33.5q-35 0 -75.5 -8.5t-76.5 -23.5v54q36 13 77.5 21t80.5 8q50 0 84.5 -12.5t55 -36.5t30 -57t9.5 -75v-108v-108v-108h-64zM133 629v48h240v-48h-240z" />
    <glyph glyph-name="Abreve" unicode="&#x102;" horiz-adv-x="608" 
d="M332 517q-11 32 -17.5 52t-12.5 39h-1q-7 -22 -14.5 -44.5t-15.5 -44.5l-107 -295h275zM518 0l-61 173h-311l-62 -173h-68l253 675h72l251 -675h-74zM423 847q0 -49 -33 -80.5t-89 -31.5q-29 0 -51.5 8.5t-38 24t-23 36t-7.5 43.5h45q0 -27 21.5 -45.5t54.5 -18.5
q34 0 54.5 18t20.5 46h46z" />
    <glyph glyph-name="abreve" unicode="&#x103;" horiz-adv-x="519" 
d="M359 230h-68q-49 0 -82.5 -7t-53.5 -19.5t-29 -30t-9 -40.5q0 -39 24 -64t63 -25q34 0 62.5 15t49.5 40.5t32 57.5t11 65v8zM358 0q0 29 2 56t6 49l-2 1q-19 -50 -65 -82t-107 -32q-62 0 -100.5 35.5t-38.5 96.5q0 37 14.5 65t44.5 48t75.5 30t107.5 10h64v40
q0 70 -27 103.5t-95 33.5q-35 0 -75.5 -8.5t-76.5 -23.5v54q36 13 77.5 21t80.5 8q50 0 84.5 -12.5t55 -36.5t30 -57t9.5 -75v-108v-108v-108h-64zM373 716q0 -25 -7 -46.5t-22 -38.5t-37.5 -26.5t-52.5 -9.5q-29 0 -51 9.5t-36 26.5t-21 39t-7 46h46q0 -30 18.5 -51
t51.5 -21t52 19t19 53h47z" />
    <glyph glyph-name="Aogonek" unicode="&#x104;" horiz-adv-x="608" 
d="M332 517q-12 36 -18.5 55t-11.5 36h-1q-7 -23 -14.5 -45t-15.5 -44l-107 -295h275zM612 -211q-17 -8 -38.5 -14.5t-49.5 -6.5q-45 0 -70.5 22.5t-25.5 60.5q0 39 23 77.5t67 71.5l-61 173h-311l-62 -173h-68l253 675h72l251 -675q-53 -35 -77 -69.5t-24 -68.5
q0 -43 43 -43q37 0 78 22v-52z" />
    <glyph glyph-name="aogonek" unicode="&#x105;" horiz-adv-x="519" 
d="M359 230h-68q-39 0 -71.5 -5t-56.5 -17t-35 -31t-11 -44q0 -40 24 -64.5t63 -24.5q33 0 61.5 14.5t50 40.5t32.5 58t11 65v8zM463 -211q-21 -11 -42.5 -16t-45.5 -5q-45 0 -70 22.5t-25 60.5q0 19 5.5 38.5t17 39t29.5 39t42 38.5q-4 33 -5.5 58t-0.5 43l-2 1
q-21 -53 -67 -84.5t-107 -31.5q-63 0 -101 36t-38 96q0 39 17.5 70.5t54 50t79 25.5t91.5 7h64v40q0 71 -28 104t-94 33q-32 0 -72.5 -8t-79.5 -24v54q37 14 78.5 21.5t79.5 7.5q50 0 84.5 -13t55 -36t30 -56t9.5 -76v-139q0 -50 4 -98.5t12 -86.5q-50 -37 -73 -71.5
t-23 -66.5q0 -43 43 -43q39 0 78 22v-52z" />
    <glyph glyph-name="Cacute" unicode="&#x106;" horiz-adv-x="595" 
d="M541 22q-44 -14 -92.5 -21.5t-98.5 -7.5q-73 0 -129 22.5t-93.5 65t-56.5 104t-19 139.5q0 77 19 142t58 113.5t99 75.5t141 27q41 0 83.5 -7t80.5 -20v-64q-89 37 -178 37q-60 0 -104.5 -23t-73.5 -63.5t-43 -93.5t-14 -114q0 -137 61 -211.5t180 -74.5q39 0 87.5 8.5
t92.5 22.5v-57zM324 732l-15 38l164 74l23 -54z" />
    <glyph glyph-name="cacute" unicode="&#x107;" horiz-adv-x="434" 
d="M398 14q-39 -11 -70 -15.5t-66 -4.5q-48 0 -86.5 12.5t-67.5 40t-45.5 74.5t-16.5 114q0 62 15 111.5t44.5 84.5t73 53.5t98.5 18.5q57 0 117 -19v-58q-34 13 -62.5 19.5t-58.5 6.5q-38 0 -68.5 -14.5t-51 -42t-30.5 -66.5t-10 -85q0 -44 7.5 -79.5t25.5 -62t48.5 -41
t75.5 -14.5q33 0 62 5t66 15v-53zM245 576l-35 31l116 136l44 -39z" />
    <glyph glyph-name="Ccircumflex" unicode="&#x108;" horiz-adv-x="595" 
d="M541 22q-44 -14 -92.5 -21.5t-98.5 -7.5q-73 0 -129 22.5t-93.5 65t-56.5 104t-19 139.5q0 77 19 142t58 113.5t99 75.5t141 27q41 0 83.5 -7t80.5 -20v-64q-89 37 -178 37q-60 0 -104.5 -23t-73.5 -63.5t-43 -93.5t-14 -114q0 -137 61 -211.5t180 -74.5q39 0 87.5 8.5
t92.5 22.5v-57zM489 730l-133 63l-133 -63l-21 40l155 82l153 -81z" />
    <glyph glyph-name="ccircumflex" unicode="&#x109;" horiz-adv-x="434" 
d="M398 14q-39 -11 -70 -15.5t-66 -4.5q-48 0 -86.5 12.5t-67.5 40t-45.5 74.5t-16.5 114q0 62 15 111.5t44.5 84.5t73 53.5t98.5 18.5q57 0 117 -19v-58q-34 13 -62.5 19.5t-58.5 6.5q-38 0 -68.5 -14.5t-51 -42t-30.5 -66.5t-10 -85q0 -44 7.5 -79.5t25.5 -62t48.5 -41
t75.5 -14.5q33 0 62 5t66 15v-53zM349 578l-98 87l-99 -87l-30 31l130 128l128 -127z" />
    <glyph glyph-name="Cdotaccent" unicode="&#x10a;" horiz-adv-x="595" 
d="M541 22q-44 -14 -92.5 -21.5t-98.5 -7.5q-73 0 -129 22.5t-93.5 65t-56.5 104t-19 139.5q0 77 19 142t58 113.5t99 75.5t141 27q41 0 83.5 -7t80.5 -20v-64q-89 37 -178 37q-60 0 -104.5 -23t-73.5 -63.5t-43 -93.5t-14 -114q0 -137 61 -211.5t180 -74.5q39 0 87.5 8.5
t92.5 22.5v-57zM401 779q0 -18 -13 -31.5t-32 -13.5q-18 0 -31.5 13t-13.5 32t13.5 32t31.5 13q19 0 32 -13t13 -32z" />
    <glyph glyph-name="cdotaccent" unicode="&#x10b;" horiz-adv-x="434" 
d="M398 14q-39 -11 -70 -15.5t-66 -4.5q-48 0 -86.5 12.5t-67.5 40t-45.5 74.5t-16.5 114q0 62 15 111.5t44.5 84.5t73 53.5t98.5 18.5q57 0 117 -19v-58q-34 13 -62.5 19.5t-58.5 6.5q-38 0 -68.5 -14.5t-51 -42t-30.5 -66.5t-10 -85q0 -44 7.5 -79.5t25.5 -62t48.5 -41
t75.5 -14.5q33 0 62 5t66 15v-53zM301 658q0 -18 -13 -31.5t-32 -13.5q-18 0 -31.5 13t-13.5 32t13.5 32t31.5 13q19 0 32 -13t13 -32z" />
    <glyph glyph-name="Ccaron" unicode="&#x10c;" horiz-adv-x="595" 
d="M541 22q-44 -14 -92.5 -21.5t-98.5 -7.5q-73 0 -129 22.5t-93.5 65t-56.5 104t-19 139.5q0 77 19 142t58 113.5t99 75.5t141 27q41 0 83.5 -7t80.5 -20v-64q-89 37 -178 37q-60 0 -104.5 -23t-73.5 -63.5t-43 -93.5t-14 -114q0 -137 61 -211.5t180 -74.5q39 0 87.5 8.5
t92.5 22.5v-57zM352 730l-153 81l22 41l132 -64l134 64l20 -40z" />
    <glyph glyph-name="ccaron" unicode="&#x10d;" horiz-adv-x="434" 
d="M398 14q-39 -11 -70 -15.5t-66 -4.5q-48 0 -86.5 12.5t-67.5 40t-45.5 74.5t-16.5 114q0 62 15 111.5t44.5 84.5t73 53.5t98.5 18.5q57 0 117 -19v-58q-34 13 -62.5 19.5t-58.5 6.5q-38 0 -68.5 -14.5t-51 -42t-30.5 -66.5t-10 -85q0 -44 7.5 -79.5t25.5 -62t48.5 -41
t75.5 -14.5q33 0 62 5t66 15v-53zM254 578l-128 126l31 33l98 -88l99 88l30 -32z" />
    <glyph glyph-name="Dcaron" unicode="&#x10e;" horiz-adv-x="686" 
d="M567 339q0 143 -73.5 215t-216.5 72q-48 0 -117 -3v-566q53 -7 103 -7q69 0 124.5 17.5t96 53t62 90.5t21.5 128zM634 343q0 -85 -27.5 -150.5t-78.5 -109t-120.5 -65t-153.5 -21.5q-33 0 -84.5 2t-73.5 1v675q24 0 89 1.5t100 1.5q84 0 148.5 -20.5t109.5 -62t68 -104.5
t23 -148zM303 730l-153 81l22 41l132 -64l134 64l20 -40z" />
    <glyph glyph-name="dcaron" unicode="&#x10f;" horiz-adv-x="574" 
d="M399 440q-52 13 -104 13q-88 0 -134 -56t-46 -165q0 -92 32 -140.5t95 -48.5q34 0 63.5 17.5t50.5 49t32 72t11 82.5v176zM398 0q0 13 0.5 28.5t2 31t3 29.5t3.5 25l-2 1q-21 -57 -67.5 -90t-105.5 -33q-90 0 -137 60.5t-47 173.5q0 65 17.5 117t51 88t80.5 54t104 18
q44 0 98 -6v233h63v-730h-64zM564 573l-44 15l59 164l56 -19z" />
    <glyph glyph-name="Dcroat" unicode="&#x110;" horiz-adv-x="694" 
d="M575 339q0 143 -73 215t-217 72q-30 0 -117 -3v-249h159v-51h-159v-266q53 -7 103 -7q71 0 127 18t96 54.5t60.5 91t20.5 125.5zM642 343q0 -83 -26.5 -147.5t-77 -109t-120.5 -67t-156 -22.5q-33 0 -84.5 2t-73.5 1v323h-102v51h102v301q24 0 89.5 1.5t100.5 1.5
q84 0 149 -20.5t109.5 -62.5t67 -105t22.5 -147z" />
    <glyph glyph-name="dcroat" unicode="&#x111;" horiz-adv-x="558" 
d="M399 440q-52 13 -104 13q-85 0 -132.5 -54t-47.5 -167q0 -91 31.5 -140t95.5 -49q38 0 68 20t49.5 52t29.5 69.5t10 72.5v183zM462 597v-597h-64q0 12 0.5 27t1.5 31t3 30.5t4 25.5l-2 1q-21 -57 -67 -90t-106 -33q-91 0 -137.5 61.5t-46.5 172.5q0 66 18 118t51.5 87.5
t80 53.5t103.5 18q44 0 98 -6v100h-124v47h124v86h63v-86h78v-47h-78z" />
    <glyph glyph-name="Emacron" unicode="&#x112;" horiz-adv-x="536" 
d="M96 0v675h363v-52h-299v-249h274v-51h-274v-270h304v-53h-368zM145 753v48h264v-48h-264z" />
    <glyph glyph-name="emacron" unicode="&#x113;" horiz-adv-x="503" 
d="M431 18q-36 -12 -77 -19t-82 -7q-112 0 -169 63.5t-57 195.5q0 54 14.5 100.5t42 81t68 53.5t90.5 19q49 0 85 -16t59.5 -44t34.5 -65t11 -81q0 -23 -3 -52h-337q0 -102 42 -152.5t126 -50.5q37 0 75.5 7t76.5 20v-53zM386 295q4 77 -31.5 118.5t-97.5 41.5
q-58 0 -98.5 -41.5t-45.5 -118.5h273zM134 629v48h240v-48h-240z" />
    <glyph glyph-name="Ebreve" unicode="&#x114;" horiz-adv-x="536" 
d="M96 0v675h363v-52h-299v-249h274v-51h-274v-270h304v-53h-368zM398 847q0 -49 -33 -80.5t-89 -31.5q-29 0 -51.5 8.5t-38 24t-23 36t-7.5 43.5h45q0 -27 21.5 -45.5t54.5 -18.5q34 0 54.5 18t20.5 46h46z" />
    <glyph glyph-name="ebreve" unicode="&#x115;" horiz-adv-x="503" 
d="M431 18q-36 -12 -77 -19t-82 -7q-112 0 -169 63.5t-57 195.5q0 54 14.5 100.5t42 81t68 53.5t90.5 19q49 0 85 -16t59.5 -44t34.5 -65t11 -81q0 -23 -3 -52h-337q0 -102 42 -152.5t126 -50.5q37 0 75.5 7t76.5 20v-53zM386 295q4 77 -31.5 118.5t-97.5 41.5
q-58 0 -98.5 -41.5t-45.5 -118.5h273zM372 716q0 -25 -7 -46.5t-22 -38.5t-37.5 -26.5t-52.5 -9.5q-29 0 -51 9.5t-36 26.5t-21 39t-7 46h46q0 -30 18.5 -51t51.5 -21t52 19t19 53h47z" />
    <glyph glyph-name="Edotaccent" unicode="&#x116;" horiz-adv-x="536" 
d="M96 0v675h363v-52h-299v-249h274v-51h-274v-270h304v-53h-368zM321 779q0 -18 -13 -31.5t-32 -13.5q-18 0 -31.5 13t-13.5 32t13.5 32t31.5 13q19 0 32 -13t13 -32z" />
    <glyph glyph-name="edotaccent" unicode="&#x117;" horiz-adv-x="503" 
d="M431 18q-36 -12 -77 -19t-82 -7q-112 0 -169 63.5t-57 195.5q0 54 14.5 100.5t42 81t68 53.5t90.5 19q49 0 85 -16t59.5 -44t34.5 -65t11 -81q0 -23 -3 -52h-337q0 -102 42 -152.5t126 -50.5q37 0 75.5 7t76.5 20v-53zM386 295q4 77 -31.5 118.5t-97.5 41.5
q-58 0 -98.5 -41.5t-45.5 -118.5h273zM303 659q0 -18 -13 -31.5t-32 -13.5q-18 0 -31.5 13t-13.5 32t13.5 32t31.5 13q19 0 32 -13t13 -32z" />
    <glyph glyph-name="Eogonek" unicode="&#x118;" horiz-adv-x="536" 
d="M476 -211q-42 -21 -88 -21q-45 0 -70 22.5t-25 60.5q0 42 26.5 84.5t64.5 64.5h-288v675h363v-52h-299v-249h274v-51h-274v-270h304v-49q-21 -9 -40.5 -24.5t-35 -36t-24 -41.5t-8.5 -40q0 -43 42 -43q39 0 78 22v-52z" />
    <glyph glyph-name="eogonek" unicode="&#x119;" horiz-adv-x="503" 
d="M386 295q4 76 -31 118t-98 42q-60 0 -99.5 -42.5t-44.5 -117.5h273zM409 -211q-21 -11 -42.5 -16t-45.5 -5q-45 0 -70 22.5t-25 60.5q0 37 22 75t61 68q-22 -2 -40 -2q-111 0 -167 64.5t-56 194.5q0 54 14.5 101t43 81.5t68.5 53t89 18.5q47 0 83 -15t60 -43t35.5 -66
t11.5 -82q0 -23 -3 -52h-337q0 -48 10 -86.5t31 -64.5t52.5 -39t74.5 -13q46 1 78 7t74 20v-50q-24 -8 -50 -24.5t-47 -39t-33 -47.5t-12 -48q0 -21 11 -32t31 -11q39 0 78 22v-52z" />
    <glyph glyph-name="Ecaron" unicode="&#x11a;" horiz-adv-x="536" 
d="M96 0v675h363v-52h-299v-249h274v-51h-274v-270h304v-53h-368zM275 730l-153 81l22 41l132 -64l134 64l20 -40z" />
    <glyph glyph-name="ecaron" unicode="&#x11b;" horiz-adv-x="503" 
d="M431 18q-36 -12 -77 -19t-82 -7q-112 0 -169 63.5t-57 195.5q0 54 14.5 100.5t42 81t68 53.5t90.5 19q49 0 85 -16t59.5 -44t34.5 -65t11 -81q0 -23 -3 -52h-337q0 -102 42 -152.5t126 -50.5q37 0 75.5 7t76.5 20v-53zM386 295q4 77 -31.5 118.5t-97.5 41.5
q-58 0 -98.5 -41.5t-45.5 -118.5h273zM256 578l-128 126l31 33l98 -88l99 88l30 -32z" />
    <glyph glyph-name="Gcircumflex" unicode="&#x11c;" horiz-adv-x="687" 
d="M597 29q-49 -18 -106 -27.5t-111 -9.5q-77 0 -138.5 22.5t-104.5 65.5t-66 105.5t-23 140.5q0 77 22.5 142.5t67.5 114t112 74.5t152 26q42 0 86.5 -6.5t87.5 -18.5v-64q-43 17 -90.5 26.5t-92.5 9.5q-70 0 -123 -23t-87 -64t-50.5 -94t-16.5 -113q0 -69 19 -123
t55 -91.5t86.5 -56.5t113.5 -19q39 0 73.5 5.5t69.5 16.5v269h64v-308zM513 730l-133 63l-133 -63l-21 40l155 82l153 -81z" />
    <glyph glyph-name="gcircumflex" unicode="&#x11d;" horiz-adv-x="529" 
d="M261 505q32 0 63 -8h168v-50h-88q19 -20 30 -48t11 -63q0 -38 -12.5 -71.5t-37.5 -58t-61.5 -39t-84.5 -14.5q-35 0 -62 7q-37 -23 -37 -48q0 -19 18.5 -30.5t63.5 -12.5l86 -3q94 -3 137.5 -41.5t43.5 -103.5q0 -40 -17.5 -73t-50 -56.5t-79.5 -37t-103 -13.5
q-96 0 -151.5 39t-55.5 109q0 23 7 43.5t20 39.5t28 33t33 26q-16 8 -30 25.5t-14 44.5q0 23 13 43.5t40 37.5q-17 10 -30 24q-22 24 -33 54t-11 62q0 38 13 71.5t37.5 58t61 39t84.5 14.5zM127 -40q-19 -29 -19 -61q0 -53 41 -80t110 -27q87 0 131 34t44 87q0 43 -30 68.5
t-103 27.5l-87 3q-16 1 -29 3q-39 -26 -58 -55zM382 329q0 55 -33.5 91t-93.5 36t-93.5 -36t-33.5 -91t33.5 -91t93.5 -36t93.5 36t33.5 91zM355 578l-98 87l-99 -87l-30 31l130 128l128 -127z" />
    <glyph glyph-name="Gbreve" unicode="&#x11e;" horiz-adv-x="687" 
d="M597 29q-49 -18 -106 -27.5t-111 -9.5q-77 0 -138.5 22.5t-104.5 65.5t-66 105.5t-23 140.5q0 77 22.5 142.5t67.5 114t112 74.5t152 26q42 0 86.5 -6.5t87.5 -18.5v-64q-43 17 -90.5 26.5t-92.5 9.5q-70 0 -123 -23t-87 -64t-50.5 -94t-16.5 -113q0 -69 19 -123
t55 -91.5t86.5 -56.5t113.5 -19q39 0 73.5 5.5t69.5 16.5v269h64v-308zM504 847q0 -49 -33 -80.5t-89 -31.5q-29 0 -51.5 8.5t-38 24t-23 36t-7.5 43.5h45q0 -27 21.5 -45.5t54.5 -18.5q34 0 54.5 18t20.5 46h46z" />
    <glyph glyph-name="gbreve" unicode="&#x11f;" horiz-adv-x="529" 
d="M261 505q32 0 63 -8h168v-50h-88q19 -20 30 -48t11 -63q0 -38 -12.5 -71.5t-37.5 -58t-61.5 -39t-84.5 -14.5q-35 0 -62 7q-37 -23 -37 -48q0 -19 18.5 -30.5t63.5 -12.5l86 -3q94 -3 137.5 -41.5t43.5 -103.5q0 -40 -17.5 -73t-50 -56.5t-79.5 -37t-103 -13.5
q-96 0 -151.5 39t-55.5 109q0 23 7 43.5t20 39.5t28 33t33 26q-16 8 -30 25.5t-14 44.5q0 23 13 43.5t40 37.5q-17 10 -30 24q-22 24 -33 54t-11 62q0 38 13 71.5t37.5 58t61 39t84.5 14.5zM127 -40q-19 -29 -19 -61q0 -53 41 -80t110 -27q87 0 131 34t44 87q0 43 -30 68.5
t-103 27.5l-87 3q-16 1 -29 3q-39 -26 -58 -55zM382 329q0 55 -33.5 91t-93.5 36t-93.5 -36t-33.5 -91t33.5 -91t93.5 -36t93.5 36t33.5 91zM380 716q0 -25 -7 -46.5t-22 -38.5t-37.5 -26.5t-52.5 -9.5q-29 0 -51 9.5t-36 26.5t-21 39t-7 46h46q0 -30 18.5 -51t51.5 -21
t52 19t19 53h47z" />
    <glyph glyph-name="Gdotaccent" unicode="&#x120;" horiz-adv-x="687" 
d="M597 29q-49 -18 -106 -27.5t-111 -9.5q-77 0 -138.5 22.5t-104.5 65.5t-66 105.5t-23 140.5q0 77 22.5 142.5t67.5 114t112 74.5t152 26q42 0 86.5 -6.5t87.5 -18.5v-64q-43 17 -90.5 26.5t-92.5 9.5q-70 0 -123 -23t-87 -64t-50.5 -94t-16.5 -113q0 -69 19 -123
t55 -91.5t86.5 -56.5t113.5 -19q39 0 73.5 5.5t69.5 16.5v269h64v-308zM421 780q0 -18 -13 -31.5t-32 -13.5q-18 0 -31.5 13t-13.5 32t13.5 32t31.5 13q19 0 32 -13t13 -32z" />
    <glyph glyph-name="gdotaccent" unicode="&#x121;" horiz-adv-x="529" 
d="M261 505q32 0 63 -8h168v-50h-88q19 -20 30 -48t11 -63q0 -38 -12.5 -71.5t-37.5 -58t-61.5 -39t-84.5 -14.5q-35 0 -62 7q-37 -23 -37 -48q0 -19 18.5 -30.5t63.5 -12.5l86 -3q94 -3 137.5 -41.5t43.5 -103.5q0 -40 -17.5 -73t-50 -56.5t-79.5 -37t-103 -13.5
q-96 0 -151.5 39t-55.5 109q0 23 7 43.5t20 39.5t28 33t33 26q-16 8 -30 25.5t-14 44.5q0 23 13 43.5t40 37.5q-17 10 -30 24q-22 24 -33 54t-11 62q0 38 13 71.5t37.5 58t61 39t84.5 14.5zM127 -40q-19 -29 -19 -61q0 -53 41 -80t110 -27q87 0 131 34t44 87q0 43 -30 68.5
t-103 27.5l-87 3q-16 1 -29 3q-39 -26 -58 -55zM382 329q0 55 -33.5 91t-93.5 36t-93.5 -36t-33.5 -91t33.5 -91t93.5 -36t93.5 36t33.5 91zM301 659q0 -18 -13 -31.5t-32 -13.5q-18 0 -31.5 13t-13.5 32t13.5 32t31.5 13q19 0 32 -13t13 -32z" />
    <glyph glyph-name="Gcommaaccent" unicode="&#x122;" horiz-adv-x="687" 
d="M597 29q-49 -18 -106 -27.5t-111 -9.5q-77 0 -138.5 22.5t-104.5 65.5t-66 105.5t-23 140.5q0 77 22.5 142.5t67.5 114t112 74.5t152 26q42 0 86.5 -6.5t87.5 -18.5v-64q-43 17 -90.5 26.5t-92.5 9.5q-70 0 -123 -23t-87 -64t-50.5 -94t-16.5 -113q0 -69 19 -123
t55 -91.5t86.5 -56.5t113.5 -19q39 0 73.5 5.5t69.5 16.5v269h64v-308zM363 -50q18 0 31 -14.5t13 -40t-20 -59t-68 -75.5l-24 25q36 36 41 61t-5 40q-7 10 -7.5 21.5t4.5 20.5t14 15t21 6z" />
    <glyph glyph-name="gcommaaccent" unicode="&#x123;" horiz-adv-x="529" 
d="M261 505q32 0 63 -8h168v-50h-88q19 -20 30 -48t11 -63q0 -38 -12.5 -71.5t-37.5 -58t-61.5 -39t-84.5 -14.5q-35 0 -62 7q-37 -23 -37 -48q0 -19 18.5 -30.5t63.5 -12.5l86 -3q94 -3 137.5 -41.5t43.5 -103.5q0 -40 -17.5 -73t-50 -56.5t-79.5 -37t-103 -13.5
q-96 0 -151.5 39t-55.5 109q0 23 7 43.5t20 39.5t28 33t33 26q-16 8 -30 25.5t-14 44.5q0 23 13 43.5t40 37.5q-17 10 -30 24q-22 24 -33 54t-11 62q0 38 13 71.5t37.5 58t61 39t84.5 14.5zM127 -40q-19 -29 -19 -61q0 -53 41 -80t110 -27q87 0 131 34t44 87q0 43 -30 68.5
t-103 27.5l-87 3q-16 1 -29 3q-39 -26 -58 -55zM382 329q0 55 -33.5 91t-93.5 36t-93.5 -36t-33.5 -91t33.5 -91t93.5 -36t93.5 36t33.5 91zM260 569q-18 0 -31 14t-13 38q0 28 21 62.5t67 73.5l24 -24q-23 -22 -33.5 -41.5t-10.5 -35.5q0 -8 2 -13.5t5.5 -11.5t5.5 -11
t2 -13q0 -16 -11.5 -27t-27.5 -11z" />
    <glyph glyph-name="Hcircumflex" unicode="&#x124;" horiz-adv-x="706" 
d="M546 0v324h-386v-324h-64v675h64v-298h386v298h64v-675h-64zM486 730l-133 63l-133 -63l-21 40l155 82l153 -81z" />
    <glyph glyph-name="hcircumflex" unicode="&#x125;" horiz-adv-x="579" 
d="M420 0v322q0 66 -22.5 99t-78.5 33q-35 0 -64.5 -16t-51 -45.5t-33 -69t-11.5 -86.5v-237h-63v730h63v-251q0 -29 -2 -55.5t-6 -43.5l2 -1q22 59 69 92.5t111 33.5q42 0 71 -12t46.5 -33.5t25 -50t7.5 -63.5v-346h-63zM422 761l-133 63l-133 -63l-21 40l155 82l153 -81z
" />
    <glyph glyph-name="Hbar" unicode="&#x126;" horiz-adv-x="726" 
d="M170 502v-129h386v129h-386zM703 553v-51h-83v-502h-64v322h-386v-322h-64v502h-83v51h83v122h64v-122h386v122h64v-122h83z" />
    <glyph glyph-name="hbar" unicode="&#x127;" horiz-adv-x="580" 
d="M421 0v322q0 66 -22.5 98.5t-78.5 32.5q-35 0 -64.5 -16t-51 -45t-33 -69t-11.5 -86v-237h-63v594h-97v50h97v86h63v-86h146v-50h-146v-117q0 -26 -2 -52.5t-6 -44.5l1 -1q22 59 69 92.5t112 33.5q41 0 70.5 -12t47 -33.5t25 -50.5t7.5 -64v-345h-63z" />
    <glyph glyph-name="Itilde" unicode="&#x128;" horiz-adv-x="256" 
d="M96 0v675h64v-675h-64zM298 807q-19 -32 -45 -49.5t-58 -17.5q-23 0 -40 7.5t-37 22t-31.5 20.5t-26.5 6q-18 0 -35.5 -12t-30.5 -35l-35 26q37 67 103 67q23 0 40 -7t37.5 -21.5t32 -20.5t26.5 -6q37 0 65 46z" />
    <glyph glyph-name="itilde" unicode="&#x129;" horiz-adv-x="255" 
d="M96 0v497h63v-497h-63zM264 674q-31 -65 -87 -65q-15 0 -29 6.5t-32 19t-26 17.5t-17 5q-15 0 -27.5 -11.5t-20.5 -30.5l-34 24q13 29 36 48t53 19q15 0 29 -6.5t32 -19t26 -17.5t17 -5q14 0 26 11.5t21 30.5z" />
    <glyph glyph-name="Imacron" unicode="&#x12a;" horiz-adv-x="256" 
d="M96 0v675h64v-675h-64zM-4 753v48h264v-48h-264z" />
    <glyph glyph-name="imacron" unicode="&#x12b;" horiz-adv-x="255" 
d="M96 0v497h63v-497h-63zM16 629v48h223v-48h-223z" />
    <glyph glyph-name="Ibreve" unicode="&#x12c;" horiz-adv-x="256" 
d="M96 0v675h64v-675h-64zM249 847q0 -49 -33 -80.5t-89 -31.5q-29 0 -51.5 8.5t-38 24t-23 36t-7.5 43.5h45q0 -27 21.5 -45.5t54.5 -18.5q34 0 54.5 18t20.5 46h46z" />
    <glyph glyph-name="ibreve" unicode="&#x12d;" horiz-adv-x="255" 
d="M96 0v497h63v-497h-63zM237 716q0 -58 -29 -89.5t-81 -31.5t-79.5 31.5t-27.5 89.5h46q0 -30 16.5 -51t45.5 -21t46 19.5t17 52.5h46z" />
    <glyph glyph-name="Iogonek" unicode="&#x12e;" horiz-adv-x="256" 
d="M206 -211q-17 -9 -39 -15t-49 -6q-45 0 -70.5 22.5t-25.5 60.5q0 18 4.5 36.5t14 37.5t23 38.5t32.5 39.5v672h64v-675q-38 -36 -56.5 -71.5t-18.5 -66.5q0 -43 43 -43q37 0 78 22v-52z" />
    <glyph glyph-name="iogonek" unicode="&#x12f;" horiz-adv-x="255" 
d="M205 -211q-19 -10 -40.5 -15.5t-46.5 -5.5q-46 0 -71 22.5t-25 60.5q0 36 18.5 73.5t55.5 78.5v494h63v-497q-37 -36 -55.5 -71t-18.5 -67q0 -21 11 -32t32 -11q38 0 77 22v-52zM173 658q0 -18 -13 -31.5t-32 -13.5t-32 13t-13 32t13 32t32 13t32 -13t13 -32z" />
    <glyph glyph-name="Idotaccent" unicode="&#x130;" horiz-adv-x="256" 
d="M96 0v675h64v-675h-64zM173 779q0 -18 -13 -31.5t-32 -13.5q-18 0 -31.5 13t-13.5 32t13.5 32t31.5 13q19 0 32 -13t13 -32z" />
    <glyph glyph-name="dotlessi" unicode="&#x131;" horiz-adv-x="255" 
d="M96 0v497h63v-497h-63z" />
    <glyph glyph-name="IJ" unicode="&#x132;" horiz-adv-x="532" 
d="M96 0v675h64v-675h-64zM280 -139q28 15 45.5 30t28 33.5t14.5 42t4 56.5v652h64v-648q0 -41 -6 -71.5t-20.5 -54.5t-39 -44t-62.5 -39z" />
    <glyph glyph-name="ij" unicode="&#x133;" horiz-adv-x="510" 
d="M96 0v497h63v-497h-63zM173 658q0 -18 -13 -31.5t-32 -13.5t-32 13t-13 32t13 32t32 13t32 -13t13 -32zM428 658q0 -18 -13 -31.5t-32 -13.5t-32.5 13t-13.5 32t13.5 32t32.5 13t32 -12.5t13 -32.5zM414 -44q0 -42 -8 -73t-24 -56t-39.5 -45t-54.5 -40l-30 43
q25 17 42.5 33t29 35.5t16.5 44t5 58.5v541h63v-541z" />
    <glyph glyph-name="Jcircumflex" unicode="&#x134;" horiz-adv-x="256" 
d="M4 -139q28 15 45.5 30t28 33.5t14.5 42t4 56.5v652h64v-648q0 -41 -6 -71.5t-20.5 -54.5t-39 -44t-62.5 -39zM262 730l-133 63l-133 -63l-21 40l155 82l153 -81z" />
    <glyph glyph-name="jcircumflex" unicode="&#x135;" horiz-adv-x="255" 
d="M159 -44q0 -42 -8 -73t-24 -56t-39.5 -45t-54.5 -40l-30 43q25 17 42.5 33t29 35.5t16.5 44t5 58.5v541h63v-541zM213 578l-85 87l-86 -87l-31 30l118 128l116 -127z" />
    <glyph glyph-name="Kcommaaccent" unicode="&#x136;" horiz-adv-x="576" 
d="M474 0l-314 342v-342h-64v675h64v-327l302 327h80l-307 -324l326 -351h-87zM296 -50q18 0 31 -14.5t13 -40t-20 -59t-68 -75.5l-24 25q36 36 41 61t-5 40q-7 10 -7.5 21.5t4.5 20.5t14 15t21 6z" />
    <glyph glyph-name="kcommaaccent" unicode="&#x137;" horiz-adv-x="473" 
d="M364 0l-205 264v-264h-63v730h63v-459l196 226h74l-202 -225l221 -272h-84zM246 -50q18 0 31 -14.5t13 -40t-20 -59t-68 -75.5l-24 25q36 36 41 61t-5 40q-7 10 -7.5 21.5t4.5 20.5t14 15t21 6z" />
    <glyph glyph-name="kgreenlandic" unicode="&#x138;" horiz-adv-x="473" 
d="M360 0l-201 258v-258h-63v497h63v-232l201 232h74l-206 -230l216 -267h-84z" />
    <glyph glyph-name="Lacute" unicode="&#x139;" horiz-adv-x="454" 
d="M96 0v675h64v-622h288v-53h-352zM168 732l-15 38l164 74l23 -54z" />
    <glyph glyph-name="lacute" unicode="&#x13a;" horiz-adv-x="255" 
d="M96 0v730h63v-730h-63zM103 792l-15 38l164 74l23 -54z" />
    <glyph glyph-name="Lcommaaccent" unicode="&#x13b;" horiz-adv-x="454" 
d="M96 0v675h64v-622h288v-53h-352zM271 -50q18 0 31 -14.5t13 -40t-20 -59t-68 -75.5l-24 25q36 36 41 61t-5 40q-7 10 -7.5 21.5t4.5 20.5t14 15t21 6z" />
    <glyph glyph-name="lcommaaccent" unicode="&#x13c;" horiz-adv-x="255" 
d="M96 0v730h63v-730h-63zM129 -50q18 0 31 -14.5t13 -40t-20 -59t-68 -75.5l-24 25q36 36 41 61t-5 40q-7 10 -7.5 21.5t4.5 20.5t14 15t21 6z" />
    <glyph glyph-name="Lcaron" unicode="&#x13d;" horiz-adv-x="454" 
d="M96 0v675h64v-622h288v-53h-352zM287 573l-44 15l59 164l56 -19z" />
    <glyph glyph-name="lcaron" unicode="&#x13e;" horiz-adv-x="270" 
d="M96 0v730h63v-730h-63zM261 573l-44 15l59 164l56 -19z" />
    <glyph glyph-name="Lslash" unicode="&#x141;" horiz-adv-x="462" 
d="M104 0v373l-87 -40l-16 48l103 47v247h64v-217l121 54l16 -47l-137 -62v-350h288v-53h-352z" />
    <glyph glyph-name="lslash" unicode="&#x142;" horiz-adv-x="285" 
d="M177 425v-425h-63v389l-70 -41l-20 44l90 52v286h63v-250l77 45l20 -44z" />
    <glyph glyph-name="Nacute" unicode="&#x143;" horiz-adv-x="686" 
d="M525 0l-276 434q-43 68 -61 99t-35 63h-1q1 -29 2.5 -76t2.5 -108t2 -118t1 -102v-192h-64v675h51h23l263 -410q38 -60 62 -101t38 -68h1q-2 44 -3.5 98.5t-2.5 105t-1.5 102.5t-0.5 99v174h64v-675h-58h-7zM333 732l-15 38l164 74l23 -54z" />
    <glyph glyph-name="nacute" unicode="&#x144;" horiz-adv-x="579" 
d="M420 0v322q0 66 -22.5 99t-78.5 33q-35 0 -64.5 -16t-51 -45.5t-33 -69t-11.5 -86.5v-237h-63v497h64q0 -28 -2.5 -61t-6.5 -55l2 -1q21 58 68 91.5t112 33.5q42 0 71 -12t46.5 -33.5t25 -50t7.5 -63.5v-346h-63zM298 576l-35 31l116 136l44 -39z" />
    <glyph glyph-name="Ncommaaccent" unicode="&#x145;" horiz-adv-x="686" 
d="M525 0l-276 434q-43 68 -61 99t-35 63h-1q1 -29 2.5 -76t2.5 -108t2 -118t1 -102v-192h-64v675h51h23l263 -410q38 -60 62 -101t38 -68h1q-2 44 -3.5 98.5t-2.5 105t-1.5 102.5t-0.5 99v174h64v-675h-58h-7zM340 -50q18 0 31 -14.5t13 -40t-20 -59t-68 -75.5l-24 25
q36 36 41 61t-5 40q-7 10 -7.5 21.5t4.5 20.5t14 15t21 6z" />
    <glyph glyph-name="ncommaaccent" unicode="&#x146;" horiz-adv-x="579" 
d="M420 0v322q0 66 -22.5 99t-78.5 33q-35 0 -64.5 -16t-51 -45.5t-33 -69t-11.5 -86.5v-237h-63v497h64q0 -28 -2.5 -61t-6.5 -55l2 -1q21 58 68 91.5t112 33.5q42 0 71 -12t46.5 -33.5t25 -50t7.5 -63.5v-346h-63zM295 -50q18 0 31 -14.5t13 -40t-20 -59t-68 -75.5l-24 25
q36 36 41 61t-5 40q-7 10 -7.5 21.5t4.5 20.5t14 15t21 6z" />
    <glyph glyph-name="Ncaron" unicode="&#x147;" horiz-adv-x="686" 
d="M525 0l-276 434q-43 68 -61 99t-35 63h-1q1 -29 2.5 -76t2.5 -108t2 -118t1 -102v-192h-64v675h51h23l263 -410q38 -60 62 -101t38 -68h1q-2 44 -3.5 98.5t-2.5 105t-1.5 102.5t-0.5 99v174h64v-675h-58h-7zM345 730l-153 81l22 41l132 -64l134 64l20 -40z" />
    <glyph glyph-name="ncaron" unicode="&#x148;" horiz-adv-x="579" 
d="M420 0v322q0 66 -22.5 99t-78.5 33q-35 0 -64.5 -16t-51 -45.5t-33 -69t-11.5 -86.5v-237h-63v497h64q0 -28 -2.5 -61t-6.5 -55l2 -1q21 58 68 91.5t112 33.5q42 0 71 -12t46.5 -33.5t25 -50t7.5 -63.5v-346h-63zM294 578l-128 126l31 33l98 -88l99 88l30 -32z" />
    <glyph glyph-name="napostrophe" unicode="&#x149;" horiz-adv-x="646" 
d="M488 0v322q0 66 -22.5 99t-78.5 33q-35 0 -64.5 -16t-51 -45.5t-33 -69t-11.5 -86.5v-237h-63v497h64q0 -28 -2.5 -61t-6.5 -55l2 -1q21 58 68 91.5t112 33.5q42 0 71 -12t46.5 -33.5t25 -50t7.5 -63.5v-346h-63zM98 740q22 0 35.5 -18.5t11.5 -50.5t-25 -73.5t-70 -86.5
l-29 25q22 24 34.5 45t17 38.5t2 31t-9.5 22.5q-8 11 -8.5 22.5t4.5 22t15 16.5t22 6z" />
    <glyph glyph-name="Eng" unicode="&#x14a;" horiz-adv-x="695" 
d="M599 9q0 -72 -13 -119.5t-37 -77.5t-58.5 -46t-75.5 -25l-13 49q31 7 56 19t42.5 34.5t26.5 59t9 92.5l-306 480q-22 36 -41.5 68.5t-36.5 65.5q2 -31 3.5 -82t2 -109.5t1 -118.5t0.5 -107v-192h-63v675h63h20l300 -469q17 -26 33 -54t31 -56q-2 35 -3 84.5t-2 103.5
t-1.5 110.5t-0.5 106.5v174h63v-666z" />
    <glyph glyph-name="eng" unicode="&#x14b;" horiz-adv-x="579" 
d="M488 207q0 -91 -4 -150t-12 -96t-20.5 -59t-31.5 -41q-19 -20 -47 -33t-70 -24l-13 48q59 16 85 42q14 14 23 31.5t15 47t9 79t3 127.5v20q0 76 -6.5 125.5t-20.5 77.5t-35.5 40t-52.5 12t-59 -15.5t-48.5 -43.5t-32 -64.5t-11.5 -76.5v-254h-63v497h64q0 -37 -2.5 -66.5
t-6.5 -48.5h1q21 56 67 89.5t105 33.5q45 0 75.5 -15t50.5 -48t29 -87t9 -133v-15z" />
    <glyph glyph-name="Omacron" unicode="&#x14c;" horiz-adv-x="707" 
d="M592 332q0 135 -61.5 216t-177.5 81q-50 0 -93 -18.5t-76 -55t-51 -90t-18 -121.5q0 -66 15 -121t45 -94.5t75 -61t103 -21.5q50 0 93.5 18.5t76 55.5t51 90.5t18.5 121.5zM659 345q0 -84 -24.5 -150t-67.5 -111.5t-100 -68.5t-122 -23q-71 0 -126.5 24t-93.5 68.5
t-57.5 107t-19.5 138.5q0 84 24.5 150t67.5 111.5t100 68.5t122 23q71 0 126.5 -24t93.5 -68.5t57.5 -107t19.5 -138.5zM222 753v48h264v-48h-264z" />
    <glyph glyph-name="omacron" unicode="&#x14d;" horiz-adv-x="540" 
d="M430 249q0 97 -42 151t-117 54q-37 0 -66.5 -13t-50.5 -39t-32.5 -65t-11.5 -89q0 -97 42 -150.5t117 -53.5q35 0 64 12t51 37.5t34 64.5t12 91zM495 253q0 -55 -15 -102.5t-44.5 -83t-73.5 -55.5t-100 -20q-101 0 -159 63.5t-58 188.5q0 55 15 102.5t44.5 83t73.5 55.5
t100 20q50 0 89.5 -15.5t68.5 -47t44 -79t15 -110.5zM152 629v48h240v-48h-240z" />
    <glyph glyph-name="Obreve" unicode="&#x14e;" horiz-adv-x="707" 
d="M592 332q0 135 -61.5 216t-177.5 81q-50 0 -93 -18.5t-76 -55t-51 -90t-18 -121.5q0 -66 15 -121t45 -94.5t75 -61t103 -21.5q50 0 93.5 18.5t76 55.5t51 90.5t18.5 121.5zM659 345q0 -84 -24.5 -150t-67.5 -111.5t-100 -68.5t-122 -23q-71 0 -126.5 24t-93.5 68.5
t-57.5 107t-19.5 138.5q0 84 24.5 150t67.5 111.5t100 68.5t122 23q71 0 126.5 -24t93.5 -68.5t57.5 -107t19.5 -138.5zM475 847q0 -49 -33 -80.5t-89 -31.5q-29 0 -51.5 8.5t-38 24t-23 36t-7.5 43.5h45q0 -27 21.5 -45.5t54.5 -18.5q34 0 54.5 18t20.5 46h46z" />
    <glyph glyph-name="obreve" unicode="&#x14f;" horiz-adv-x="540" 
d="M430 249q0 97 -42 151t-117 54q-37 0 -66.5 -13t-50.5 -39t-32.5 -65t-11.5 -89q0 -97 42 -150.5t117 -53.5q35 0 64 12t51 37.5t34 64.5t12 91zM495 253q0 -55 -15 -102.5t-44.5 -83t-73.5 -55.5t-100 -20q-101 0 -159 63.5t-58 188.5q0 55 15 102.5t44.5 83t73.5 55.5
t100 20q50 0 89.5 -15.5t68.5 -47t44 -79t15 -110.5zM387 716q0 -25 -7 -46.5t-22 -38.5t-37.5 -26.5t-52.5 -9.5q-29 0 -51 9.5t-36 26.5t-21 39t-7 46h46q0 -30 18.5 -51t51.5 -21t52 19t19 53h47z" />
    <glyph glyph-name="Ohungarumlaut" unicode="&#x150;" horiz-adv-x="707" 
d="M592 332q0 135 -61.5 216t-177.5 81q-50 0 -93 -18.5t-76 -55t-51 -90t-18 -121.5q0 -66 15 -121t45 -94.5t75 -61t103 -21.5q50 0 93.5 18.5t76 55.5t51 90.5t18.5 121.5zM659 345q0 -84 -24.5 -150t-67.5 -111.5t-100 -68.5t-122 -23q-71 0 -126.5 24t-93.5 68.5
t-57.5 107t-19.5 138.5q0 84 24.5 150t67.5 111.5t100 68.5t122 23q71 0 126.5 -24t93.5 -68.5t57.5 -107t19.5 -138.5zM277 731l-33 32l105 116l42 -40zM442 731l-33 32l121 115l42 -41z" />
    <glyph glyph-name="ohungarumlaut" unicode="&#x151;" horiz-adv-x="540" 
d="M430 249q0 97 -42 151t-117 54q-37 0 -66.5 -13t-50.5 -39t-32.5 -65t-11.5 -89q0 -97 42 -150.5t117 -53.5q35 0 64 12t51 37.5t34 64.5t12 91zM495 253q0 -55 -15 -102.5t-44.5 -83t-73.5 -55.5t-100 -20q-101 0 -159 63.5t-58 188.5q0 55 15 102.5t44.5 83t73.5 55.5
t100 20q50 0 89.5 -15.5t68.5 -47t44 -79t15 -110.5zM202 578l-34 30l110 130l44 -37zM364 578l-34 30l118 126l43 -39z" />
    <glyph glyph-name="OE" unicode="&#x152;" horiz-adv-x="904" 
d="M464 615q-24 7 -53 10.5t-58 3.5q-50 0 -93.5 -18.5t-76 -55.5t-50.5 -90.5t-18 -120.5t15 -121.5t45.5 -94.5t75 -61t102.5 -21q24 0 55.5 3.5t55.5 8.5v557zM466 0q-29 -4 -61 -6t-60 -2q-70 0 -125.5 24t-94 68.5t-58 107t-19.5 138.5q0 83 24 149t67.5 111.5
t100.5 69t122 23.5q26 0 54.5 -2t51.5 -6h359v-52h-299v-249h274v-51h-274v-270h304v-53h-366z" />
    <glyph glyph-name="oe" unicode="&#x153;" horiz-adv-x="883" 
d="M430 249q0 97 -42 151t-117 54q-37 0 -66.5 -13t-50.5 -39.5t-32.5 -65t-11.5 -88.5q0 -97 42 -150.5t117 -53.5q35 0 64.5 12.5t51 38t33.5 64.5t12 90zM767 295q4 76 -31.5 118t-98.5 42q-58 0 -98 -41.5t-45 -118.5h273zM831 299q0 -13 -0.5 -28t-1.5 -24h-337
q0 -52 10.5 -90t31 -62.5t52 -37.5t74.5 -13q36 0 75 7t77 20v-53q-37 -12 -78.5 -19t-80.5 -7q-77 0 -125.5 29t-71.5 84q-28 -54 -76.5 -83.5t-117.5 -29.5q-103 0 -160 64.5t-57 187.5q0 55 15 102.5t45 83.5t74 55.5t99 19.5q66 0 113 -27.5t73 -81.5q25 52 71 80.5
t107 28.5q48 0 84 -15.5t59.5 -44t34.5 -66t11 -80.5z" />
    <glyph glyph-name="Racute" unicode="&#x154;" horiz-adv-x="562" 
d="M417 493q0 66 -43.5 100t-125.5 34q-43 0 -88 -3v-268q11 0 35.5 -0.5t48.5 -0.5q84 0 128.5 36.5t44.5 101.5zM448 0l-229 306h-59v-306h-64v674q21 1 67 2.5t93 1.5q50 0 91.5 -10.5t72 -32t47 -55t16.5 -78.5q0 -44 -15 -78.5t-42 -58.5t-62 -37.5t-75 -17.5
q8 -8 24.5 -27.5t33.5 -43.5l182 -239h-81zM224 732l-15 38l164 74l23 -54z" />
    <glyph glyph-name="racute" unicode="&#x155;" horiz-adv-x="354" 
d="M328 443q-84 13 -126.5 -50t-42.5 -195v-198h-63v497h64q0 -28 -3.5 -63.5t-9.5 -66.5l2 -1q8 30 22 56.5t35.5 46.5t52.5 30t69 5v-61zM216 576l-35 31l116 136l44 -39z" />
    <glyph glyph-name="Rcommaaccent" unicode="&#x156;" horiz-adv-x="562" 
d="M417 493q0 66 -43.5 100t-125.5 34q-43 0 -88 -3v-268q11 0 35.5 -0.5t48.5 -0.5q84 0 128.5 36.5t44.5 101.5zM448 0l-229 306h-59v-306h-64v674q21 1 67 2.5t93 1.5q50 0 91.5 -10.5t72 -32t47 -55t16.5 -78.5q0 -44 -15 -78.5t-42 -58.5t-62 -37.5t-75 -17.5
q8 -8 24.5 -27.5t33.5 -43.5l182 -239h-81zM284 -50q18 0 31 -14.5t13 -40t-20 -59t-68 -75.5l-24 25q36 36 41 61t-5 40q-7 10 -7.5 21.5t4.5 20.5t14 15t21 6z" />
    <glyph glyph-name="rcommaaccent" unicode="&#x157;" horiz-adv-x="354" 
d="M328 443q-84 13 -126.5 -50t-42.5 -195v-198h-63v497h64q0 -28 -3.5 -63.5t-9.5 -66.5l2 -1q8 30 22 56.5t35.5 46.5t52.5 30t69 5v-61zM135 -50q18 0 31 -14.5t13 -40t-20 -59t-68 -75.5l-24 25q36 36 41 61t-5 40q-7 10 -7.5 21.5t4.5 20.5t14 15t21 6z" />
    <glyph glyph-name="Rcaron" unicode="&#x158;" horiz-adv-x="562" 
d="M417 493q0 66 -43.5 100t-125.5 34q-43 0 -88 -3v-268q11 0 35.5 -0.5t48.5 -0.5q84 0 128.5 36.5t44.5 101.5zM448 0l-229 306h-59v-306h-64v674q21 1 67 2.5t93 1.5q50 0 91.5 -10.5t72 -32t47 -55t16.5 -78.5q0 -44 -15 -78.5t-42 -58.5t-62 -37.5t-75 -17.5
q8 -8 24.5 -27.5t33.5 -43.5l182 -239h-81zM255 730l-153 81l22 41l132 -64l134 64l20 -40z" />
    <glyph glyph-name="rcaron" unicode="&#x159;" horiz-adv-x="354" 
d="M328 443q-84 13 -126.5 -50t-42.5 -195v-198h-63v497h64q0 -28 -3.5 -63.5t-9.5 -66.5l2 -1q8 30 22 56.5t35.5 46.5t52.5 30t69 5v-61zM212 578l-128 126l31 33l98 -88l99 88l30 -32z" />
    <glyph glyph-name="Sacute" unicode="&#x15a;" horiz-adv-x="504" 
d="M446 181q0 -41 -15.5 -76t-45.5 -60.5t-74 -39t-97 -13.5q-41 0 -80 5t-69 14v64q35 -13 75.5 -20.5t78.5 -7.5q34 0 63.5 7t52 23t34.5 41.5t12 58.5q0 36 -18 62t-47.5 43.5t-90.5 42.5t-94 47t-53 55.5t-20 81.5q0 36 15 68.5t44 56t70.5 36.5t93.5 13q30 0 61.5 -3.5
t55.5 -8.5v-59q-29 8 -61.5 13t-59.5 5q-75 0 -115 -31t-40 -87q0 -34 16.5 -57t43 -39.5t95 -44.5t101.5 -53t50.5 -58t17.5 -79zM231 732l-15 38l164 74l23 -54z" />
    <glyph glyph-name="sacute" unicode="&#x15b;" horiz-adv-x="431" 
d="M375 135q0 -29 -12 -55.5t-37 -46.5t-61 -30.5t-80 -10.5q-32 0 -62 3.5t-60 9.5v61q31 -9 64 -15t65 -6q57 0 87.5 22t30.5 63q0 28 -15 45.5t-35.5 27.5t-69 26t-74.5 32t-42.5 42t-16.5 66q0 61 48.5 98.5t134.5 37.5q23 0 47.5 -2t52.5 -6v-57q-25 6 -53.5 10
t-52.5 4q-55 0 -84 -21t-29 -59q0 -26 13.5 -42.5t33.5 -26.5t71.5 -27.5t78 -34t42 -42.5t15.5 -66zM200 576l-35 31l116 136l44 -39z" />
    <glyph glyph-name="Scircumflex" unicode="&#x15c;" horiz-adv-x="504" 
d="M446 181q0 -41 -15.5 -76t-45.5 -60.5t-74 -39t-97 -13.5q-41 0 -80 5t-69 14v64q35 -13 75.5 -20.5t78.5 -7.5q34 0 63.5 7t52 23t34.5 41.5t12 58.5q0 36 -18 62t-47.5 43.5t-90.5 42.5t-94 47t-53 55.5t-20 81.5q0 36 15 68.5t44 56t70.5 36.5t93.5 13q30 0 61.5 -3.5
t55.5 -8.5v-59q-29 8 -61.5 13t-59.5 5q-75 0 -115 -31t-40 -87q0 -34 16.5 -57t43 -39.5t95 -44.5t101.5 -53t50.5 -58t17.5 -79zM392 730l-133 63l-133 -63l-21 40l155 82l153 -81z" />
    <glyph glyph-name="scircumflex" unicode="&#x15d;" horiz-adv-x="431" 
d="M375 135q0 -29 -12 -55.5t-37 -46.5t-61 -30.5t-80 -10.5q-32 0 -62 3.5t-60 9.5v61q31 -9 64 -15t65 -6q57 0 87.5 22t30.5 63q0 28 -15 45.5t-35.5 27.5t-69 26t-74.5 32t-42.5 42t-16.5 66q0 61 48.5 98.5t134.5 37.5q23 0 47.5 -2t52.5 -6v-57q-25 6 -53.5 10
t-52.5 4q-55 0 -84 -21t-29 -59q0 -26 13.5 -42.5t33.5 -26.5t71.5 -27.5t78 -34t42 -42.5t15.5 -66zM313 578l-98 87l-99 -87l-30 31l130 128l128 -127z" />
    <glyph glyph-name="Scedilla" unicode="&#x15e;" horiz-adv-x="504" 
d="M446 181q0 -41 -15.5 -76t-45.5 -60.5t-74 -39t-97 -13.5q-41 0 -80 5t-69 14v64q35 -13 75.5 -20.5t78.5 -7.5q34 0 63.5 7t52 23t34.5 41.5t12 58.5q0 36 -18 62t-47.5 43.5t-90.5 42.5t-94 47t-53 55.5t-20 81.5q0 36 15 68.5t44 56t70.5 36.5t93.5 13q30 0 61.5 -3.5
t55.5 -8.5v-59q-29 8 -61.5 13t-59.5 5q-75 0 -115 -31t-40 -87q0 -34 16.5 -57t43 -39.5t95 -44.5t101.5 -53t50.5 -58t17.5 -79zM259 -41q36 -46 29 -93t-51 -102h-57q22 28 34 49t15.5 40.5t-3 38.5t-24.5 40z" />
    <glyph glyph-name="scedilla" unicode="&#x15f;" horiz-adv-x="431" 
d="M375 135q0 -29 -12 -55.5t-37 -46.5t-61 -30.5t-80 -10.5q-32 0 -62 3.5t-60 9.5v61q31 -9 64 -15t65 -6q57 0 87.5 22t30.5 63q0 28 -15 45.5t-35.5 27.5t-69 26t-74.5 32t-42.5 42t-16.5 66q0 61 48.5 98.5t134.5 37.5q23 0 47.5 -2t52.5 -6v-57q-25 6 -53.5 10
t-52.5 4q-55 0 -84 -21t-29 -59q0 -26 13.5 -42.5t33.5 -26.5t71.5 -27.5t78 -34t42 -42.5t15.5 -66zM225 -41q36 -46 29 -93t-51 -102h-57q22 28 34 49t15.5 40.5t-3 38.5t-24.5 40z" />
    <glyph glyph-name="Scaron" unicode="&#x160;" horiz-adv-x="504" 
d="M446 181q0 -41 -15.5 -76t-45.5 -60.5t-74 -39t-97 -13.5q-41 0 -80 5t-69 14v64q35 -13 75.5 -20.5t78.5 -7.5q34 0 63.5 7t52 23t34.5 41.5t12 58.5q0 36 -18 62t-47.5 43.5t-90.5 42.5t-94 47t-53 55.5t-20 81.5q0 36 15 68.5t44 56t70.5 36.5t93.5 13q30 0 61.5 -3.5
t55.5 -8.5v-59q-29 8 -61.5 13t-59.5 5q-75 0 -115 -31t-40 -87q0 -34 16.5 -57t43 -39.5t95 -44.5t101.5 -53t50.5 -58t17.5 -79zM251 730l-153 81l22 41l132 -64l134 64l20 -40z" />
    <glyph glyph-name="scaron" unicode="&#x161;" horiz-adv-x="431" 
d="M375 135q0 -29 -12 -55.5t-37 -46.5t-61 -30.5t-80 -10.5q-32 0 -62 3.5t-60 9.5v61q31 -9 64 -15t65 -6q57 0 87.5 22t30.5 63q0 28 -15 45.5t-35.5 27.5t-69 26t-74.5 32t-42.5 42t-16.5 66q0 61 48.5 98.5t134.5 37.5q23 0 47.5 -2t52.5 -6v-57q-25 6 -53.5 10
t-52.5 4q-55 0 -84 -21t-29 -59q0 -26 13.5 -42.5t33.5 -26.5t71.5 -27.5t78 -34t42 -42.5t15.5 -66zM215 578l-128 126l31 33l98 -88l99 88l30 -32z" />
    <glyph glyph-name="uni0162" unicode="&#x162;" horiz-adv-x="520" 
d="M292 622v-622h-64v622h-209v53h482v-53h-209zM284 -41q36 -46 29 -93t-51 -102h-57q22 28 34 49t15.5 40.5t-3 38.5t-24.5 40z" />
    <glyph glyph-name="uni0163" unicode="&#x163;" horiz-adv-x="369" 
d="M331 2q-22 -4 -44 -6.5t-42 -2.5q-37 0 -61.5 8.5t-39 25.5t-21 44.5t-6.5 66.5v309h-111v50h111v168l63 17v-185h151v-50h-151v-289q0 -33 3.5 -54t12 -33t23.5 -17.5t38 -5.5q41 0 74 9v-55zM240 -41q36 -46 29 -93t-51 -102h-57q22 28 34 49t15.5 40.5t-3 38.5
t-24.5 40z" />
    <glyph glyph-name="Tcaron" unicode="&#x164;" horiz-adv-x="520" 
d="M292 622v-622h-64v622h-209v53h482v-53h-209zM257 730l-153 81l22 41l132 -64l134 64l20 -40z" />
    <glyph glyph-name="tcaron" unicode="&#x165;" horiz-adv-x="371" 
d="M331 2q-22 -4 -44 -6.5t-42 -2.5q-37 0 -61.5 8.5t-39 25.5t-21 44.5t-6.5 66.5v309h-111v50h111v168l63 17v-185h151v-50h-151v-289q0 -33 3.5 -54t12 -33t23.5 -17.5t38 -5.5q41 0 74 9v-55zM291 573l-44 15l59 164l56 -19z" />
    <glyph glyph-name="Tbar" unicode="&#x166;" horiz-adv-x="520" 
d="M228 622h-209v53h482v-53h-209v-250h124v-51h-124v-321h-64v321h-124v51h124v250z" />
    <glyph glyph-name="tbar" unicode="&#x167;" horiz-adv-x="398" 
d="M339 2q-23 -4 -45 -6.5t-41 -2.5q-38 0 -62 8.5t-38.5 26t-21 44.5t-6.5 66v97h-105v48h105v165h-111v49h111v168l63 17v-185h151v-49h-151v-165h139v-48h-139v-77q0 -33 3.5 -54t11.5 -33.5t22.5 -18t37.5 -5.5q19 0 39 2.5t37 7.5v-55z" />
    <glyph glyph-name="Utilde" unicode="&#x168;" horiz-adv-x="701" 
d="M605 255q0 -129 -66 -196t-197 -67q-75 0 -124 19t-75.5 51.5t-36.5 72.5t-10 87v453h64v-446q0 -41 8.5 -73.5t29 -57.5t57.5 -39.5t93 -14.5q49 0 85.5 11t60.5 35t36 63.5t12 95.5v426h63v-420zM519 807q-19 -32 -45 -49.5t-58 -17.5q-23 0 -40 7.5t-37 22t-31.5 20.5
t-26.5 6q-18 0 -35.5 -12t-30.5 -35l-35 26q37 67 103 67q23 0 40 -7t37.5 -21.5t32 -20.5t26.5 -6q37 0 65 46z" />
    <glyph glyph-name="utilde" unicode="&#x169;" horiz-adv-x="579" 
d="M419 0q0 28 2.5 61t6.5 55l-2 1q-21 -58 -68 -91.5t-112 -33.5q-42 0 -71 12t-46.5 33.5t-25 50t-7.5 63.5v346h63v-322q0 -66 22.5 -99t78.5 -33q35 0 64.5 16t51 45.5t33 69t11.5 86.5v237h63v-497h-64zM453 674q-18 -33 -44 -51t-57 -18q-22 0 -38 7.5t-36 22t-31 21
t-26 6.5q-35 0 -62 -48l-34 27q18 33 44 51t57 18q22 0 38 -7.5t36 -22t31 -21t25 -6.5q36 0 63 48z" />
    <glyph glyph-name="Umacron" unicode="&#x16a;" horiz-adv-x="701" 
d="M605 255q0 -129 -66 -196t-197 -67q-75 0 -124 19t-75.5 51.5t-36.5 72.5t-10 87v453h64v-446q0 -41 8.5 -73.5t29 -57.5t57.5 -39.5t93 -14.5q49 0 85.5 11t60.5 35t36 63.5t12 95.5v426h63v-420zM219 753v48h264v-48h-264z" />
    <glyph glyph-name="umacron" unicode="&#x16b;" horiz-adv-x="579" 
d="M419 0q0 28 2.5 61t6.5 55l-2 1q-21 -58 -68 -91.5t-112 -33.5q-42 0 -71 12t-46.5 33.5t-25 50t-7.5 63.5v346h63v-322q0 -66 22.5 -99t78.5 -33q35 0 64.5 16t51 45.5t33 69t11.5 86.5v237h63v-497h-64zM170 629v48h240v-48h-240z" />
    <glyph glyph-name="Ubreve" unicode="&#x16c;" horiz-adv-x="701" 
d="M605 255q0 -129 -66 -196t-197 -67q-75 0 -124 19t-75.5 51.5t-36.5 72.5t-10 87v453h64v-446q0 -41 8.5 -73.5t29 -57.5t57.5 -39.5t93 -14.5q49 0 85.5 11t60.5 35t36 63.5t12 95.5v426h63v-420zM472 847q0 -49 -33 -80.5t-89 -31.5q-29 0 -51.5 8.5t-38 24t-23 36
t-7.5 43.5h45q0 -27 21.5 -45.5t54.5 -18.5q34 0 54.5 18t20.5 46h46z" />
    <glyph glyph-name="ubreve" unicode="&#x16d;" horiz-adv-x="579" 
d="M419 0q0 28 2.5 61t6.5 55l-2 1q-21 -58 -68 -91.5t-112 -33.5q-42 0 -71 12t-46.5 33.5t-25 50t-7.5 63.5v346h63v-322q0 -66 22.5 -99t78.5 -33q35 0 64.5 16t51 45.5t33 69t11.5 86.5v237h63v-497h-64zM407 716q0 -25 -7 -46.5t-22 -38.5t-37.5 -26.5t-52.5 -9.5
q-29 0 -51 9.5t-36 26.5t-21 39t-7 46h46q0 -30 18.5 -51t51.5 -21t52 19t19 53h47z" />
    <glyph glyph-name="Uring" unicode="&#x16e;" horiz-adv-x="701" 
d="M605 255q0 -129 -66 -196t-197 -67q-75 0 -124 19t-75.5 51.5t-36.5 72.5t-10 87v453h64v-446q0 -41 8.5 -73.5t29 -57.5t57.5 -39.5t93 -14.5q49 0 85.5 11t60.5 35t36 63.5t12 95.5v426h63v-420zM455 797q0 -44 -29.5 -73.5t-79.5 -29.5q-48 0 -75 25t-27 73
q0 44 30 73.5t80 29.5q47 0 74 -25t27 -73zM403 794q0 28 -14 44t-39 16q-22 0 -37.5 -15t-15.5 -44q0 -59 53 -59q22 0 37.5 15t15.5 43z" />
    <glyph glyph-name="uring" unicode="&#x16f;" horiz-adv-x="579" 
d="M419 0q0 28 2.5 61t6.5 55l-2 1q-21 -58 -68 -91.5t-112 -33.5q-42 0 -71 12t-46.5 33.5t-25 50t-7.5 63.5v346h63v-322q0 -66 22.5 -99t78.5 -33q35 0 64.5 16t51 45.5t33 69t11.5 86.5v237h63v-497h-64zM395 658q0 -44 -29.5 -74t-79.5 -30q-47 0 -74 25t-27 74
q0 44 30 73.5t80 29.5q47 0 73.5 -25t26.5 -73zM343 655q0 59 -53 59q-22 0 -37.5 -15t-15.5 -44q0 -28 14 -43.5t39 -15.5q22 0 37.5 15t15.5 44z" />
    <glyph glyph-name="Uhungarumlaut" unicode="&#x170;" horiz-adv-x="701" 
d="M605 255q0 -129 -66 -196t-197 -67q-75 0 -124 19t-75.5 51.5t-36.5 72.5t-10 87v453h64v-446q0 -41 8.5 -73.5t29 -57.5t57.5 -39.5t93 -14.5q49 0 85.5 11t60.5 35t36 63.5t12 95.5v426h63v-420zM260 731l-33 32l105 116l42 -40zM425 731l-33 32l121 115l42 -41z" />
    <glyph glyph-name="uhungarumlaut" unicode="&#x171;" horiz-adv-x="579" 
d="M419 0q0 28 2.5 61t6.5 55l-2 1q-21 -58 -68 -91.5t-112 -33.5q-42 0 -71 12t-46.5 33.5t-25 50t-7.5 63.5v346h63v-322q0 -66 22.5 -99t78.5 -33q35 0 64.5 16t51 45.5t33 69t11.5 86.5v237h63v-497h-64zM216 578l-34 30l110 130l44 -37zM378 578l-34 30l118 126l43 -39
z" />
    <glyph glyph-name="Uogonek" unicode="&#x172;" horiz-adv-x="701" 
d="M605 255q0 -65 -17 -114.5t-50 -82.5q-11 -11 -23.5 -20t-35.5 -23.5t-39 -26t-31 -26.5q-50 -50 -50 -100q0 -43 43 -43q38 0 77 22v-52q-20 -10 -41.5 -15.5t-45.5 -5.5q-46 0 -71 22.5t-25 60.5q0 37 21 74.5t61 68.5q-8 -1 -19 -1.5t-18 -0.5q-74 0 -123 19
t-75.5 51.5t-36.5 72.5t-10 87v453h64v-446q0 -41 8.5 -73.5t29 -57.5t57.5 -39.5t93 -14.5q49 0 85.5 11t60.5 35t36 63.5t12 95.5v426h63v-420z" />
    <glyph glyph-name="uogonek" unicode="&#x173;" horiz-adv-x="579" 
d="M524 -211q-21 -10 -42.5 -15.5t-45.5 -5.5q-45 0 -70 22.5t-25 60.5q0 19 5.5 38.5t17 39t29.5 39t42 38.5q-4 25 -5.5 54.5t-0.5 50.5h-1q-25 -56 -72 -87.5t-110 -31.5q-41 0 -70 11.5t-46.5 33t-25.5 50t-8 64.5v346h63v-322q0 -68 23 -100t78 -32q35 0 64.5 16
t51 45.5t33 69.5t11.5 86v237h63v-312q0 -50 4 -98.5t12 -86.5q-50 -37 -73 -71.5t-23 -66.5q0 -43 43 -43q39 0 78 22v-52z" />
    <glyph glyph-name="Wcircumflex" unicode="&#x174;" horiz-adv-x="954" 
d="M725 0h-81l-146 497q-7 22 -12.5 45.5t-9.5 44.5h-2q-5 -27 -9.5 -48.5t-10.5 -41.5l-142 -497h-83l-188 675h69l135 -487q9 -38 16 -68.5t13 -60.5h1q7 35 14 65.5t15 58.5l141 492h65l148 -501q8 -27 15.5 -57t12.5 -58h1q8 38 12 58t10 42l140 516h63zM611 730
l-133 63l-133 -63l-21 40l155 82l153 -81z" />
    <glyph glyph-name="wcircumflex" unicode="&#x175;" horiz-adv-x="791" 
d="M607 0h-76l-117 345q-14 41 -27 91h-1q-7 -27 -14 -50.5t-23 -74.5l-97 -311h-77l-155 497h72l92 -322q7 -24 18.5 -63.5t14.5 -51.5h1q7 26 15.5 56t17.5 60l102 321h77l105 -321q5 -17 12 -39t10.5 -34.5t6.5 -23t6 -20.5h1q5 21 18.5 66t15.5 50l97 322h68zM493 578
l-98 87l-99 -87l-30 31l130 128l128 -127z" />
    <glyph glyph-name="Ycircumflex" unicode="&#x176;" horiz-adv-x="519" 
d="M291 267v-267h-64v267l-222 408h72l130 -242q16 -29 28 -55t26 -57h1q16 35 29.5 62.5t26.5 50.5l128 241h68zM392 730l-133 63l-133 -63l-21 40l155 82l153 -81z" />
    <glyph glyph-name="ycircumflex" unicode="&#x177;" horiz-adv-x="464" 
d="M254 -30q-25 -66 -49.5 -119.5t-49.5 -101.5h-71q31 54 58 108.5t48 108.5l14 34l-192 497h74l112 -307q13 -35 21.5 -61.5t16.5 -53.5h1q7 22 20.5 63t29.5 87l96 272h69zM329 578l-98 87l-99 -87l-30 31l130 128l128 -127z" />
    <glyph glyph-name="Ydieresis" unicode="&#x178;" horiz-adv-x="519" 
d="M291 267v-267h-64v267l-222 408h72l130 -242q16 -29 28 -55t26 -57h1q16 35 29.5 62.5t26.5 50.5l128 241h68zM197 778q0 -19 -12 -31t-31 -12q-18 0 -30.5 12t-12.5 31q0 18 12.5 30.5t30.5 12.5q19 0 31 -12.5t12 -30.5zM410 778q0 -19 -12.5 -31t-30.5 -12t-30.5 12
t-12.5 31q0 18 12.5 30.5t30.5 12.5t30.5 -12.5t12.5 -30.5z" />
    <glyph glyph-name="Zacute" unicode="&#x179;" horiz-adv-x="540" 
d="M47 0v45l311 481q17 26 32 48t32 46q-34 -1 -75.5 -1.5t-90.5 -0.5h-198v57h434v-46l-328 -505q-11 -17 -22 -33.5l-23 -34.5q11 1 36 1.5t57.5 0.5h90.5h193v-58h-449zM259 732l-15 38l164 74l23 -54z" />
    <glyph glyph-name="zacute" unicode="&#x17a;" horiz-adv-x="445" 
d="M49 0v44l266 399q-44 -1 -74.5 -1.5t-74.5 -0.5h-112v56h332v-43l-264 -398q52 1 92.5 1.5t59.5 0.5h117v-58h-342zM227 576l-35 31l116 136l44 -39z" />
    <glyph glyph-name="Zdotaccent" unicode="&#x17b;" horiz-adv-x="540" 
d="M47 0v45l311 481q17 26 32 48t32 46q-34 -1 -75.5 -1.5t-90.5 -0.5h-198v57h434v-46l-328 -505q-11 -17 -22 -33.5l-23 -34.5q11 1 36 1.5t57.5 0.5h90.5h193v-58h-449zM314 779q0 -18 -13 -31.5t-32 -13.5q-18 0 -31.5 13t-13.5 32t13.5 32t31.5 13q19 0 32 -13t13 -32z
" />
    <glyph glyph-name="zdotaccent" unicode="&#x17c;" horiz-adv-x="445" 
d="M49 0v44l266 399q-44 -1 -74.5 -1.5t-74.5 -0.5h-112v56h332v-43l-264 -398q52 1 92.5 1.5t59.5 0.5h117v-58h-342zM263 658q0 -18 -13 -31.5t-32 -13.5q-18 0 -31.5 13t-13.5 32t13.5 32t31.5 13q19 0 32 -13t13 -32z" />
    <glyph glyph-name="Zcaron" unicode="&#x17d;" horiz-adv-x="540" 
d="M47 0v45l311 481q17 26 32 48t32 46q-34 -1 -75.5 -1.5t-90.5 -0.5h-198v57h434v-46l-328 -505q-11 -17 -22 -33.5l-23 -34.5q11 1 36 1.5t57.5 0.5h90.5h193v-58h-449zM273 730l-153 81l22 41l132 -64l134 64l20 -40z" />
    <glyph glyph-name="zcaron" unicode="&#x17e;" horiz-adv-x="445" 
d="M49 0v44l266 399q-44 -1 -74.5 -1.5t-74.5 -0.5h-112v56h332v-43l-264 -398q52 1 92.5 1.5t59.5 0.5h117v-58h-342zM221 578l-128 126l31 33l98 -88l99 88l30 -32z" />
    <glyph glyph-name="uni018F" unicode="&#x18f;" horiz-adv-x="601" 
d="M483 372q-4 64 -22 112.5t-49 80.5t-73.5 47.5t-94.5 15.5q-46 0 -90 -11.5t-81 -27.5v57q38 16 83 26t99 10q69 0 124 -21.5t94 -65t59.5 -108.5t20.5 -149q0 -80 -18.5 -144t-54 -109.5t-86 -69t-112.5 -23.5q-64 0 -111 21.5t-76 61t-43 94.5t-14 124q0 12 1 33.5
t3 45.5h441zM107 320v-24q0 -65 12 -112.5t35.5 -77.5t57 -44t75.5 -14q49 0 86 19.5t61.5 56t37 86t12.5 110.5h-377z" />
    <glyph glyph-name="florin" unicode="&#x192;" horiz-adv-x="433" 
d="M170 23q-4 -43 -17 -76.5t-35 -57t-54.5 -35.5t-74.5 -12q-17 0 -34 1t-31 3v55q20 -4 40 -6t38 -2q24 0 42 8t31 23.5t21 40t11 57.5l35 331h-127v49h132l17 156q9 87 53.5 133t127.5 46q17 0 34 -1t32 -3v-55q-42 8 -79 8q-47 0 -72 -31t-32 -96l-17 -157h174v-49h-179
z" />
    <glyph glyph-name="Gcaron" unicode="&#x1e6;" horiz-adv-x="687" 
d="M597 29q-49 -18 -106 -27.5t-111 -9.5q-77 0 -138.5 22.5t-104.5 65.5t-66 105.5t-23 140.5q0 77 22.5 142.5t67.5 114t112 74.5t152 26q42 0 86.5 -6.5t87.5 -18.5v-64q-43 17 -90.5 26.5t-92.5 9.5q-70 0 -123 -23t-87 -64t-50.5 -94t-16.5 -113q0 -69 19 -123
t55 -91.5t86.5 -56.5t113.5 -19q39 0 73.5 5.5t69.5 16.5v269h64v-308zM370 730l-153 81l22 41l132 -64l134 64l20 -40z" />
    <glyph glyph-name="gcaron" unicode="&#x1e7;" horiz-adv-x="529" 
d="M261 505q32 0 63 -8h168v-50h-88q19 -20 30 -48t11 -63q0 -38 -12.5 -71.5t-37.5 -58t-61.5 -39t-84.5 -14.5q-35 0 -62 7q-37 -23 -37 -48q0 -19 18.5 -30.5t63.5 -12.5l86 -3q94 -3 137.5 -41.5t43.5 -103.5q0 -40 -17.5 -73t-50 -56.5t-79.5 -37t-103 -13.5
q-96 0 -151.5 39t-55.5 109q0 23 7 43.5t20 39.5t28 33t33 26q-16 8 -30 25.5t-14 44.5q0 23 13 43.5t40 37.5q-17 10 -30 24q-22 24 -33 54t-11 62q0 38 13 71.5t37.5 58t61 39t84.5 14.5zM127 -40q-19 -29 -19 -61q0 -53 41 -80t110 -27q87 0 131 34t44 87q0 43 -30 68.5
t-103 27.5l-87 3q-16 1 -29 3q-39 -26 -58 -55zM382 329q0 55 -33.5 91t-93.5 36t-93.5 -36t-33.5 -91t33.5 -91t93.5 -36t93.5 36t33.5 91zM267 578l-128 126l31 33l98 -88l99 88l30 -32z" />
    <glyph glyph-name="Aringacute" unicode="&#x1fa;" horiz-adv-x="608" 
d="M332 517q-11 32 -17.5 52t-12.5 39h-1q-7 -22 -14.5 -44.5t-15.5 -44.5l-107 -295h275zM518 0l-61 173h-311l-62 -173h-68l253 675h72l251 -675h-74zM265 885l-13 35l161 60l19 -48zM411 786q0 -37 -29.5 -63.5t-78.5 -26.5q-46 0 -73 22t-27 64q0 38 29.5 64t78.5 26
q46 0 73 -22t27 -64zM361 784q0 24 -14.5 36.5t-39.5 12.5q-22 0 -38 -12.5t-16 -36.5q0 -23 14.5 -35.5t39.5 -12.5q23 0 38.5 12t15.5 36z" />
    <glyph glyph-name="aringacute" unicode="&#x1fb;" horiz-adv-x="519" 
d="M359 230h-68q-49 0 -82.5 -7t-53.5 -19.5t-29 -30t-9 -40.5q0 -39 24 -64t63 -25q34 0 62.5 15t49.5 40.5t32 57.5t11 65v8zM358 0q0 29 2 56t6 49l-2 1q-19 -50 -65 -82t-107 -32q-62 0 -100.5 35.5t-38.5 96.5q0 37 14.5 65t44.5 48t75.5 30t107.5 10h64v40
q0 70 -27 103.5t-95 33.5q-35 0 -75.5 -8.5t-76.5 -23.5v54q36 13 77.5 21t80.5 8q50 0 84.5 -12.5t55 -36.5t30 -57t9.5 -75v-108v-108v-108h-64zM215 781l-15 38l163 72l23 -52zM359 648q0 -43 -29 -72t-78 -29q-47 0 -73.5 24.5t-26.5 72.5q0 43 29.5 72t78.5 29
q47 0 73 -24.5t26 -72.5zM308 646q0 28 -13.5 43.5t-38.5 15.5q-22 0 -37.5 -15t-15.5 -44q0 -28 14 -43.5t39 -15.5q21 0 36.5 15t15.5 44z" />
    <glyph glyph-name="AEacute" unicode="&#x1fc;" horiz-adv-x="824" 
d="M384 623h-25q-12 -26 -27.5 -57t-41.5 -79l-146 -262h240v398zM384 0v173h-266l-95 -173h-69l376 675h417v-52h-299v-249h274v-51h-274v-270h304v-53h-368zM450 732l-15 38l164 74l23 -54z" />
    <glyph glyph-name="aeacute" unicode="&#x1fd;" horiz-adv-x="811" 
d="M359 230h-68q-36 0 -69 -4.5t-58.5 -17t-36 -32t-10.5 -43.5q0 -40 24 -64.5t63 -24.5q33 0 62 14.5t50 40.5t32 58t11 65v8zM696 295q4 78 -32.5 119t-97.5 41q-57 0 -97.5 -40.5t-46.5 -119.5h274zM760 299q0 -23 -2 -52h-337q0 -47 9.5 -85.5t30.5 -65t53 -39.5
t75 -13q37 1 72.5 7.5t79.5 19.5v-53q-38 -13 -79.5 -19.5t-79.5 -6.5q-43 0 -77 9t-58.5 25.5t-40.5 38.5t-24 49h-1q-11 -24 -28.5 -46t-42 -39.5t-54.5 -27t-63 -9.5q-63 0 -101.5 35.5t-38.5 96.5q0 39 17.5 70.5t56 51t83 25.5t85.5 6h64v40q0 71 -28 104t-94 33
q-32 0 -72.5 -8t-79.5 -24v54q36 13 77.5 21t80.5 8q65 0 104 -22.5t56 -65.5h1q25 40 68.5 64t98.5 24q48 0 83.5 -15t58 -41.5t35 -64t12.5 -85.5zM419 576l-35 31l116 136l44 -39z" />
    <glyph glyph-name="Oslashacute" unicode="&#x1fe;" horiz-adv-x="707" 
d="M659 345q0 -84 -24.5 -150t-67.5 -111.5t-100 -68.5t-122 -23q-36 0 -68.5 6t-59.5 19l-54 -106l-48 23l56 108q-58 40 -90.5 113t-32.5 175q0 84 24.5 150t67.5 111.5t100 68.5t122 23q36 0 68 -6t60 -19l54 106l48 -23l-56 -108q58 -40 90.5 -113t32.5 -175zM593 332
q0 86 -24 147.5t-63 95.5l-261 -504q23 -12 50.5 -18.5t57.5 -6.5q50 0 94 18.5t76.5 55.5t51 90.5t18.5 121.5zM462 604q-23 12 -50.5 18.5t-58.5 6.5q-50 0 -93.5 -18.5t-76 -55t-51 -90t-18.5 -121.5q0 -86 24 -148t63 -96zM309 772l-15 38l164 74l23 -54z" />
    <glyph glyph-name="oslashacute" unicode="&#x1ff;" horiz-adv-x="540" 
d="M495 253q0 -55 -15 -102.5t-44.5 -83t-73.5 -55.5t-100 -20q-54 0 -91 17l-49 -94l-45 21l51 96q-19 15 -34.5 35.5t-26 46.5t-16.5 58.5t-6 71.5q0 55 15 102.5t44.5 83t73.5 55.5t100 20q26 0 49.5 -4.5t41.5 -12.5l49 94l45 -21l-51 -96q19 -15 34.5 -35.5t26 -46.5
t16.5 -58.5t6 -71.5zM432 249q0 106 -49 160l-186 -351q36 -16 72 -16q37 0 67 13.5t51.5 39.5t33 65t11.5 89zM343 439q-36 16 -72 16q-37 0 -67 -13.5t-51.5 -39.5t-33 -65t-11.5 -89q0 -53 13.5 -94.5t35.5 -65.5zM252 576l-35 31l116 136l44 -39z" />
    <glyph glyph-name="Scommaaccent" unicode="&#x218;" horiz-adv-x="504" 
d="M446 181q0 -41 -15.5 -76t-45.5 -60.5t-74 -39t-97 -13.5q-41 0 -80 5t-69 14v64q35 -13 75.5 -20.5t78.5 -7.5q34 0 63.5 7t52 23t34.5 41.5t12 58.5q0 36 -18 62t-47.5 43.5t-90.5 42.5t-94 47t-53 55.5t-20 81.5q0 36 15 68.5t44 56t70.5 36.5t93.5 13q30 0 61.5 -3.5
t55.5 -8.5v-59q-29 8 -61.5 13t-59.5 5q-75 0 -115 -31t-40 -87q0 -34 16.5 -57t43 -39.5t95 -44.5t101.5 -53t50.5 -58t17.5 -79zM244 -50q18 0 31 -14.5t13 -40t-20 -59t-68 -75.5l-24 25q36 36 41 61t-5 40q-7 10 -7.5 21.5t4.5 20.5t14 15t21 6z" />
    <glyph glyph-name="scommaaccent" unicode="&#x219;" horiz-adv-x="431" 
d="M375 135q0 -29 -12 -55.5t-37 -46.5t-61 -30.5t-80 -10.5q-32 0 -62 3.5t-60 9.5v61q31 -9 64 -15t65 -6q57 0 87.5 22t30.5 63q0 28 -15 45.5t-35.5 27.5t-69 26t-74.5 32t-42.5 42t-16.5 66q0 61 48.5 98.5t134.5 37.5q23 0 47.5 -2t52.5 -6v-57q-25 6 -53.5 10
t-52.5 4q-55 0 -84 -21t-29 -59q0 -26 13.5 -42.5t33.5 -26.5t71.5 -27.5t78 -34t42 -42.5t15.5 -66zM213 -50q18 0 31 -14.5t13 -40t-20 -59t-68 -75.5l-24 25q36 36 41 61t-5 40q-7 10 -7.5 21.5t4.5 20.5t14 15t21 6z" />
    <glyph glyph-name="Tcommaaccent" unicode="&#x21a;" horiz-adv-x="520" 
d="M292 622v-622h-64v622h-209v53h482v-53h-209zM262 -50q18 0 31 -14.5t13 -40t-20 -59t-68 -75.5l-24 25q36 36 41 61t-5 40q-7 10 -7.5 21.5t4.5 20.5t14 15t21 6z" />
    <glyph glyph-name="tcommaaccent" unicode="&#x21b;" horiz-adv-x="369" 
d="M331 2q-22 -4 -44 -6.5t-42 -2.5q-37 0 -61.5 8.5t-39 25.5t-21 44.5t-6.5 66.5v309h-111v50h111v168l63 17v-185h151v-50h-151v-289q0 -33 3.5 -54t12 -33t23.5 -17.5t38 -5.5q41 0 74 9v-55zM214 -50q18 0 31 -14.5t13 -40t-20 -59t-68 -75.5l-24 25q36 36 41 61t-5 40
q-7 10 -7.5 21.5t4.5 20.5t14 15t21 6z" />
    <glyph glyph-name="dotlessj" unicode="&#x237;" horiz-adv-x="255" 
d="M159 -44q0 -42 -8 -73t-24 -56t-39.5 -45t-54.5 -40l-30 43q25 17 42.5 33t29 35.5t16.5 44t5 58.5v541h63v-541z" />
    <glyph glyph-name="uni0259" unicode="&#x259;" horiz-adv-x="497" 
d="M385 280q-6 90 -49.5 132.5t-121.5 42.5q-37 0 -72.5 -7.5t-66.5 -21.5v54q22 9 63.5 17t84.5 8q111 0 170 -63t59 -192q0 -58 -15 -106.5t-42 -82t-67.5 -51.5t-92.5 -18q-51 0 -86.5 16.5t-58 46.5t-33.5 71.5t-11 91.5q0 31 3 62h336zM112 232q-1 -8 -1 -12v-8
q0 -88 35.5 -128t96.5 -40q35 0 61.5 14t45 39t27.5 60t9 75h-274z" />
    <glyph glyph-name="circumflex" unicode="&#x2c6;" horiz-adv-x="448" 
d="M322 578l-98 87l-99 -87l-30 31l130 128l128 -127z" />
    <glyph glyph-name="caron" unicode="&#x2c7;" horiz-adv-x="448" 
d="M223 578l-128 126l31 33l98 -88l99 88l30 -32z" />
    <glyph glyph-name="breve" unicode="&#x2d8;" horiz-adv-x="424" 
d="M329 716q0 -25 -7 -46.5t-22 -38.5t-37.5 -26.5t-52.5 -9.5q-29 0 -51 9.5t-36 26.5t-21 39t-7 46h46q0 -30 18.5 -51t51.5 -21t52 19t19 53h47z" />
    <glyph glyph-name="dotaccent" unicode="&#x2d9;" horiz-adv-x="280" 
d="M185 658q0 -18 -13 -31.5t-32 -13.5q-18 0 -31.5 13t-13.5 32t13.5 32t31.5 13q19 0 32 -13t13 -32z" />
    <glyph glyph-name="ring" unicode="&#x2da;" horiz-adv-x="401" 
d="M305 658q0 -44 -29.5 -74t-79.5 -30q-47 0 -74 25t-27 74q0 44 30 73.5t80 29.5q47 0 73.5 -25t26.5 -73zM253 655q0 59 -53 59q-22 0 -37.5 -15t-15.5 -44q0 -28 14 -43.5t39 -15.5q22 0 37.5 15t15.5 44z" />
    <glyph glyph-name="ogonek" unicode="&#x2db;" horiz-adv-x="386" 
d="M254 0q-52 -39 -74 -73t-22 -65q0 -21 11.5 -32t31.5 -11q37 0 78 22v-52q-42 -21 -88 -21t-71 22.5t-25 60.5q0 39 23.5 78.5t71.5 76.5z" />
    <glyph glyph-name="tilde" unicode="&#x2dc;" horiz-adv-x="518" 
d="M423 674q-18 -33 -44 -51t-57 -18q-22 0 -38 7.5t-36 22t-31 21t-26 6.5q-35 0 -62 -48l-34 27q18 33 44 51t57 18q22 0 38 -7.5t36 -22t31 -21t25 -6.5q36 0 63 48z" />
    <glyph glyph-name="hungarumlaut" unicode="&#x2dd;" horiz-adv-x="513" 
d="M129 578l-34 30l110 130l44 -37zM291 578l-34 30l118 126l43 -39z" />
    <glyph glyph-name="uni0312" unicode="&#x312;" horiz-adv-x="0" 
d="M-289 569q-18 0 -31 14t-13 38q0 28 21 62.5t67 73.5l24 -24q-23 -22 -33.5 -41.5t-10.5 -35.5q0 -8 2 -13.5t5.5 -11.5t5.5 -11t2 -13q0 -16 -11.5 -27t-27.5 -11z" />
    <glyph glyph-name="uni0315" unicode="&#x315;" horiz-adv-x="306" 
d="M139 573l-44 15l59 164l56 -19z" />
    <glyph glyph-name="uni0326" unicode="&#x326;" horiz-adv-x="0" 
d="M-286 -50q18 0 31 -14.5t13 -40t-20 -59t-68 -75.5l-24 25q36 36 41 61t-5 40q-7 10 -7.5 21.5t4.5 20.5t14 15t21 6z" />
    <glyph glyph-name="uni037E" unicode="&#x37e;" horiz-adv-x="278" 
d="M155 88q22 0 35.5 -18.5t11.5 -50.5t-25 -73.5t-70 -86.5l-29 25q22 24 34.5 45t17 38.5t2.5 31t-9 22.5q-8 10 -9 22t4 22.5t15 16.5t22 6zM204 397q0 -20 -14 -34t-34 -14t-34 14t-14 34t14 34t34 14t34 -14t14 -34z" />
    <glyph glyph-name="tonos" unicode="&#x384;" horiz-adv-x="276" 
d="M142 567l-47 6l24 166l62 -7z" />
    <glyph glyph-name="dieresistonos" unicode="&#x385;" horiz-adv-x="514" 
d="M179 658q0 -18 -12 -30t-30 -12q-17 0 -29.5 12t-12.5 30t12.5 30t29.5 12q18 0 30 -12t12 -30zM266 566l-43 5l13 166l59 -4zM419 658q0 -18 -12.5 -30t-29.5 -12q-18 0 -30 12t-12 30t12 30t30 12q17 0 29.5 -12t12.5 -30z" />
    <glyph glyph-name="Alphatonos" unicode="&#x386;" horiz-adv-x="611" 
d="M82 567l-47 6l24 166l62 -7zM336 517q-11 32 -17.5 52t-12.5 39h-1q-7 -22 -14.5 -44.5t-15.5 -44.5l-107 -295h275zM522 0l-61 173h-311l-62 -173h-68l253 675h72l251 -675h-74z" />
    <glyph glyph-name="anoteleia" unicode="&#x387;" horiz-adv-x="281" 
d="M186 497q0 -19 -13 -32t-32 -13t-32.5 12.5t-13.5 32.5q0 19 13.5 32t32.5 13t32 -12.5t13 -32.5z" />
    <glyph glyph-name="Epsilontonos" unicode="&#x388;" horiz-adv-x="571" 
d="M131 0v675h363v-52h-299v-249h274v-51h-274v-270h304v-53h-368zM47 567l-47 6l24 166l62 -7z" />
    <glyph glyph-name="Etatonos" unicode="&#x389;" horiz-adv-x="741" 
d="M581 0v324h-386v-324h-64v675h64v-298h386v298h64v-675h-64zM47 567l-47 6l24 166l62 -7z" />
    <glyph glyph-name="Iotatonos" unicode="&#x38a;" horiz-adv-x="291" 
d="M47 567l-47 6l24 166l62 -7zM131 0v675h64v-675h-64z" />
    <glyph glyph-name="Omicrontonos" unicode="&#x38c;" horiz-adv-x="719" 
d="M604 332q0 135 -61.5 216t-177.5 81q-50 0 -93 -18.5t-76 -55t-51 -90t-18 -121.5q0 -66 15 -121t45 -94.5t75 -61t103 -21.5q50 0 93.5 18.5t76 55.5t51 90.5t18.5 121.5zM671 345q0 -84 -24.5 -150t-67.5 -111.5t-100 -68.5t-122 -23q-71 0 -126.5 24t-93.5 68.5
t-57.5 107t-19.5 138.5q0 84 24.5 150t67.5 111.5t100 68.5t122 23q71 0 126.5 -24t93.5 -68.5t57.5 -107t19.5 -138.5zM47 567l-47 6l24 166l62 -7z" />
    <glyph glyph-name="Upsilontonos" unicode="&#x38e;" horiz-adv-x="616" 
d="M47 567l-47 6l24 166l62 -7zM388 267v-267h-64v267l-222 408h72l130 -242q16 -29 28 -55t26 -57h1q16 35 29.5 62.5t26.5 50.5l128 241h68z" />
    <glyph glyph-name="Omegatonos" unicode="&#x38f;" horiz-adv-x="731" 
d="M454 0v55q36 30 63 58.5t46.5 62t30 75t10.5 91.5q0 61 -15 113.5t-45 91.5t-74.5 60.5t-101.5 21.5q-48 0 -91 -19.5t-75.5 -56t-50.5 -89.5t-18 -117q0 -49 8.5 -89t26 -74t46 -65t69.5 -64v-55h-230v56h156q-68 49 -106.5 121.5t-38.5 163.5q0 80 24 144t67 108
t100 67t121 23t118 -21t94 -63t62 -105t22 -144q0 -49 -12 -93t-32.5 -81t-47.5 -66.5t-58 -53.5h161v-56h-229zM47 567l-47 6l24 166l62 -7z" />
    <glyph glyph-name="iotadieresistonos" unicode="&#x390;" horiz-adv-x="284" 
d="M272 1q-18 -3 -36.5 -5t-36.5 -2q-53 0 -78 29t-25 98v376h63v-367q0 -49 12 -66.5t41 -17.5t60 7v-52zM60 658q0 -18 -12 -30t-30 -12q-17 0 -29.5 12t-12.5 30t12.5 30t29.5 12q18 0 30 -12t12 -30zM147 566l-43 5l13 166l59 -4zM300 658q0 -18 -12.5 -30t-29.5 -12
q-18 0 -30 12t-12 30t12 30t30 12q17 0 29.5 -12t12.5 -30z" />
    <glyph glyph-name="Alpha" unicode="&#x391;" horiz-adv-x="608" 
d="M332 517q-11 32 -17.5 52t-12.5 39h-1q-7 -22 -14.5 -44.5t-15.5 -44.5l-107 -295h275zM518 0l-61 173h-311l-62 -173h-68l253 675h72l251 -675h-74z" />
    <glyph glyph-name="Beta" unicode="&#x392;" horiz-adv-x="563" 
d="M439 189q0 34 -11.5 59t-36.5 42t-64 25.5t-94 8.5h-42t-31 -1v-268q15 -2 44.5 -4t52.5 -2q47 0 81.5 10.5t57 30t33 44.5t10.5 55zM415 505q0 27 -7.5 48.5t-25.5 38t-49.5 26t-77.5 9.5q-17 0 -40.5 -1t-54.5 -2v-250q15 -1 30 -1h47q87 0 132.5 34t45.5 98zM506 195
q0 -33 -12.5 -67t-42 -64t-80 -48.5t-122.5 -18.5q-30 0 -91.5 1.5l-61.5 1.5v675q21 1 68.5 2t99.5 1q111 0 164.5 -43.5t53.5 -118.5q0 -56 -32.5 -99t-89.5 -61v-1q33 -5 60 -18t46 -33.5t29.5 -47.5t10.5 -61z" />
    <glyph glyph-name="Gamma" unicode="&#x393;" horiz-adv-x="425" 
d="M160 622v-622h-64v675h322v-53h-258z" />
    <glyph glyph-name="Delta" unicode="&#x394;" horiz-adv-x="603" 
d="M315 564q-5 14 -7.5 23.5t-8.5 32.5h-1q-3 -12 -7 -26.5t-10 -32.5l-181 -505h396zM30 0v45l233 630h77l233 -630v-45h-543z" />
    <glyph glyph-name="Delta" unicode="&#x2206;" horiz-adv-x="603" 
d="M315 564q-5 14 -7.5 23.5t-8.5 32.5h-1q-3 -12 -7 -26.5t-10 -32.5l-181 -505h396zM30 0v45l233 630h77l233 -630v-45h-543z" />
    <glyph glyph-name="Epsilon" unicode="&#x395;" horiz-adv-x="536" 
d="M96 0v675h363v-52h-299v-249h274v-51h-274v-270h304v-53h-368z" />
    <glyph glyph-name="Zeta" unicode="&#x396;" horiz-adv-x="540" 
d="M47 0v45l311 481q17 26 32 48t32 46q-34 -1 -75.5 -1.5t-90.5 -0.5h-198v57h434v-46l-328 -505q-11 -17 -22 -33.5l-23 -34.5q11 1 36 1.5t57.5 0.5h90.5h193v-58h-449z" />
    <glyph glyph-name="Eta" unicode="&#x397;" horiz-adv-x="706" 
d="M546 0v324h-386v-324h-64v675h64v-298h386v298h64v-675h-64z" />
    <glyph glyph-name="Theta" unicode="&#x398;" horiz-adv-x="707" 
d="M226 325v51h254v-51h-254zM592 332q0 135 -61.5 216t-177.5 81q-50 0 -93 -18.5t-76 -55.5t-51 -90.5t-18 -121.5q0 -66 15 -120.5t45 -94t75 -61t103 -21.5q50 0 93.5 18.5t76 55.5t51 90.5t18.5 121.5zM659 345q0 -84 -24.5 -150t-67.5 -111.5t-100 -68.5t-122 -23
q-72 0 -127.5 24t-93.5 68.5t-57 107t-19 138.5q0 84 24.5 150t67.5 111.5t100 68.5t122 23q72 0 127.5 -24t93.5 -68.5t57 -107t19 -138.5z" />
    <glyph glyph-name="Iota" unicode="&#x399;" horiz-adv-x="256" 
d="M96 0v675h64v-675h-64z" />
    <glyph glyph-name="Kappa" unicode="&#x39a;" horiz-adv-x="576" 
d="M474 0l-314 342v-342h-64v675h64v-327l302 327h80l-307 -324l326 -351h-87z" />
    <glyph glyph-name="Lambda" unicode="&#x39b;" horiz-adv-x="608" 
d="M518 0l-167 463q-11 29 -23.5 67.5t-24.5 78.5h-1q-11 -36 -24 -75.5t-27 -75.5l-167 -458h-68l253 675h72l251 -675h-74z" />
    <glyph glyph-name="Mu" unicode="&#x39c;" horiz-adv-x="892" 
d="M767 0l-62 439q-9 62 -14.5 106t-6.5 72h-2q-5 -18 -12.5 -42t-23.5 -70l-179 -505h-58l-169 476q-24 67 -32 90.5t-15 50.5h-1q-2 -37 -6 -79t-11 -105l-51 -433h-66l91 675h88l171 -481q10 -25 18.5 -53t14.5 -55h1q6 28 14 56t17 52l172 481h93l96 -675h-67z" />
    <glyph glyph-name="Nu" unicode="&#x39d;" horiz-adv-x="695" 
d="M534 0l-304 477q-23 37 -42 69.5t-36 64.5q1 -30 2.5 -81t3 -110t2 -119.5t0.5 -107.5v-193h-64v675h63h21l300 -470q17 -27 32.5 -54.5t30.5 -56.5q-2 35 -3 84.5t-2 104.5t-1.5 111.5t-0.5 106.5v174h63v-675h-63h-2z" />
    <glyph glyph-name="Xi" unicode="&#x39e;" horiz-adv-x="543" 
d="M47 0v58h449v-58h-449zM109 322v53h322v-53h-322zM56 618v57h431v-57h-431z" />
    <glyph glyph-name="Omicron" unicode="&#x39f;" horiz-adv-x="707" 
d="M592 332q0 135 -61.5 216t-177.5 81q-50 0 -93 -18.5t-76 -55t-51 -90t-18 -121.5q0 -66 15 -121t45 -94.5t75 -61t103 -21.5q50 0 93.5 18.5t76 55.5t51 90.5t18.5 121.5zM659 345q0 -84 -24.5 -150t-67.5 -111.5t-100 -68.5t-122 -23q-71 0 -126.5 24t-93.5 68.5
t-57.5 107t-19.5 138.5q0 84 24.5 150t67.5 111.5t100 68.5t122 23q71 0 126.5 -24t93.5 -68.5t57.5 -107t19.5 -138.5z" />
    <glyph glyph-name="Pi" unicode="&#x3a0;" horiz-adv-x="660" 
d="M500 0v622h-340v-622h-64v675h468v-675h-64z" />
    <glyph glyph-name="Rho" unicode="&#x3a1;" horiz-adv-x="548" 
d="M443 462q0 75 -48.5 119.5t-146.5 44.5q-42 0 -88 -2v-324q47 -6 91 -6q93 0 142.5 47.5t49.5 120.5zM509 473q0 -50 -18.5 -92.5t-53.5 -74t-84.5 -48.5t-108.5 -17q-40 0 -84 4v-245h-64v675q95 3 165 3q63 0 110.5 -16.5t78 -45t45 -65.5t14.5 -78z" />
    <glyph glyph-name="Sigma" unicode="&#x3a3;" horiz-adv-x="508" 
d="M47 0v45l259 294l-243 283v53h408v-56h-327l237 -276l-253 -285h355v-58h-436z" />
    <glyph glyph-name="Tau" unicode="&#x3a4;" horiz-adv-x="520" 
d="M292 622v-622h-64v622h-209v53h482v-53h-209z" />
    <glyph glyph-name="Upsilon" unicode="&#x3a5;" horiz-adv-x="519" 
d="M291 267v-267h-64v267l-222 408h72l130 -242q16 -29 28 -55t26 -57h1q16 35 29.5 62.5t26.5 50.5l128 241h68z" />
    <glyph glyph-name="Phi" unicode="&#x3a6;" horiz-adv-x="801" 
d="M369 597q-59 -4 -106 -23t-79.5 -52t-50 -78.5t-17.5 -102.5q0 -118 64.5 -188.5t188.5 -75.5v520zM686 334q0 58 -16 105t-47.5 81.5t-79.5 54t-111 22.5v-519q59 4 106 23t80 51.5t50.5 78.5t17.5 103zM754 344q0 -70 -23 -127.5t-65.5 -99t-102 -65.5t-131.5 -28v-75
h-63v75q-82 3 -143 25.5t-100.5 62.5t-58.5 95t-19 124q0 70 23 127.5t65.5 99t101.5 65.5t131 28v70h63v-70q82 -3 143 -25.5t100.5 -62.5t59 -95t19.5 -124z" />
    <glyph glyph-name="Chi" unicode="&#x3a7;" horiz-adv-x="578" 
d="M476 0l-191 301l-189 -301h-74l226 349l-212 326h75l175 -275l173 275h73l-209 -320l233 -355h-80z" />
    <glyph glyph-name="Psi" unicode="&#x3a8;" horiz-adv-x="779" 
d="M693 421q0 -121 -68.5 -189.5t-203.5 -74.5v-157h-64v157q-83 2 -137.5 22t-83 52t-39.5 71t-11 86v287h64v-279q0 -39 9 -71t31.5 -57t63.5 -40.5t103 -18.5v466h64v-466q54 3 93 16t64.5 37.5t38 62.5t12.5 91v259h64v-254z" />
    <glyph glyph-name="Omega" unicode="&#x3a9;" horiz-adv-x="724" 
d="M448 0v55q36 30 63 58.5t46.5 62t30 75t10.5 91.5q0 61 -15 113.5t-45 91.5t-74.5 60.5t-101.5 21.5q-48 0 -91 -19.5t-75.5 -56t-50.5 -89.5t-18 -117q0 -49 8.5 -89t26 -74t46 -65t69.5 -64v-55h-230v56h156q-68 49 -106.5 121.5t-38.5 163.5q0 80 24 144t67 108
t100 67t121 23t118 -21t94 -63t62 -105t22 -144q0 -49 -12 -93t-32.5 -81t-47.5 -66.5t-58 -53.5h161v-56h-229z" />
    <glyph glyph-name="Omega" unicode="&#x2126;" horiz-adv-x="724" 
d="M448 0v55q36 30 63 58.5t46.5 62t30 75t10.5 91.5q0 61 -15 113.5t-45 91.5t-74.5 60.5t-101.5 21.5q-48 0 -91 -19.5t-75.5 -56t-50.5 -89.5t-18 -117q0 -49 8.5 -89t26 -74t46 -65t69.5 -64v-55h-230v56h156q-68 49 -106.5 121.5t-38.5 163.5q0 80 24 144t67 108
t100 67t121 23t118 -21t94 -63t62 -105t22 -144q0 -49 -12 -93t-32.5 -81t-47.5 -66.5t-58 -53.5h161v-56h-229z" />
    <glyph glyph-name="Iotadieresis" unicode="&#x3aa;" horiz-adv-x="256" 
d="M96 0v675h64v-675h-64zM74 778q0 -19 -12 -31t-31 -12q-18 0 -30.5 12t-12.5 31q0 18 12.5 30.5t30.5 12.5q19 0 31 -12.5t12 -30.5zM268 778q0 -19 -12.5 -31t-30.5 -12t-30.5 12t-12.5 31q0 18 12.5 30.5t30.5 12.5t30.5 -12.5t12.5 -30.5z" />
    <glyph glyph-name="Upsilondieresis" unicode="&#x3ab;" horiz-adv-x="519" 
d="M196 778q0 -19 -12 -31t-31 -12q-18 0 -30.5 12t-12.5 31q0 18 12.5 30.5t30.5 12.5q19 0 31 -12.5t12 -30.5zM409 778q0 -19 -12.5 -31t-30.5 -12t-30.5 12t-12.5 31q0 18 12.5 30.5t30.5 12.5t30.5 -12.5t12.5 -30.5zM291 267v-267h-64v267l-222 408h72l130 -242
q16 -29 28 -55t26 -57h1q16 35 29.5 62.5t26.5 50.5l128 241h68z" />
    <glyph glyph-name="alphatonos" unicode="&#x3ac;" horiz-adv-x="581" 
d="M403 252q0 45 -10 82.5t-28.5 64t-45 41.5t-59.5 15q-30 0 -56.5 -13.5t-46.5 -39.5t-31.5 -65.5t-11.5 -91.5q0 -99 38 -150t103 -51q33 0 60 14.5t46.5 41.5t30.5 64t11 82v6zM541 -5q-17 -1 -33 -1q-51 0 -73 26.5t-17 94.5h-1q-6 -22 -20.5 -44t-36.5 -39.5
t-51.5 -28.5t-65.5 -11q-90 0 -143 63.5t-53 182.5q0 59 16 108t45 84.5t68.5 55t87.5 19.5q57 0 100.5 -32t59.5 -89q1 29 6 56.5t13 56.5h62q-9 -30 -16.5 -68t-12.5 -78t-7.5 -80t-2.5 -75q0 -52 2.5 -82t10.5 -45.5t22.5 -19.5t39.5 -4v-50zM292 567l-47 6l24 166l62 -7
z" />
    <glyph glyph-name="epsilontonos" unicode="&#x3ad;" horiz-adv-x="441" 
d="M396 18q-40 -13 -80 -19.5t-73 -6.5q-49 0 -86.5 10.5t-61.5 29t-35.5 43t-11.5 52.5q0 47 25.5 81.5t70.5 48.5v1q-37 15 -56.5 41t-19.5 62q0 31 11.5 57t35.5 46t59.5 30.5t82.5 10.5q29 0 60 -4t61 -11v-56q-32 10 -65 15.5t-62 5.5q-59 0 -89.5 -24t-30.5 -66
q0 -37 30.5 -60t80.5 -23h99v-48h-108q-28 0 -51 -7.5t-38 -21.5t-23 -31.5t-8 -36.5q0 -44 36.5 -69.5t103.5 -25.5q32 0 70 7t73 20v-51zM267 567l-47 6l24 166l62 -7z" />
    <glyph glyph-name="etatonos" unicode="&#x3ae;" horiz-adv-x="588" 
d="M132 497q8 -29 13.5 -60.5t7.5 -58.5h1q18 57 64.5 92t114.5 35q43 0 74 -13t50 -36.5t27.5 -56t8.5 -73.5v-375q0 -56 3.5 -105.5t12.5 -96.5h-61q-10 47 -14 93.5t-4 100.5v360q0 78 -26 114.5t-85 36.5q-31 0 -58.5 -14.5t-48 -41t-32 -63t-11.5 -78.5v-257h-63v247
q0 62 -10 124.5t-29 125.5h65zM350 567l-47 6l24 166l62 -7z" />
    <glyph glyph-name="iotatonos" unicode="&#x3af;" horiz-adv-x="284" 
d="M272 1q-18 -3 -36.5 -5t-36.5 -2q-53 0 -78 29t-25 98v376h63v-367q0 -49 12 -66.5t41 -17.5t60 7v-52zM151 567l-47 6l24 166l62 -7z" />
    <glyph glyph-name="upsilondieresistonos" unicode="&#x3b0;" horiz-adv-x="578" 
d="M491 288q0 -74 -15.5 -130t-44 -93t-67.5 -55t-86 -18q-51 0 -86.5 14.5t-57.5 43t-32 71t-10 99.5v277h63v-261q0 -100 29 -146.5t102 -46.5q32 0 58 13.5t45 41.5t29 72.5t10 105.5q0 57 -4.5 113.5t-13.5 107.5h66q8 -45 11.5 -98t3.5 -111zM209 658q0 -18 -12 -30
t-30 -12q-17 0 -29.5 12t-12.5 30t12.5 30t29.5 12q18 0 30 -12t12 -30zM296 566l-43 5l13 166l59 -4zM449 658q0 -18 -12.5 -30t-29.5 -12q-18 0 -30 12t-12 30t12 30t30 12q17 0 29.5 -12t12.5 -30z" />
    <glyph glyph-name="alpha" unicode="&#x3b1;" horiz-adv-x="581" 
d="M403 252q0 45 -10 82.5t-28.5 64t-45 41.5t-59.5 15q-30 0 -56.5 -13.5t-46.5 -39.5t-31.5 -65.5t-11.5 -91.5q0 -99 38 -150t103 -51q33 0 60 14.5t46.5 41.5t30.5 64t11 82v6zM541 -5q-17 -1 -33 -1q-51 0 -73 26.5t-17 94.5h-1q-6 -22 -20.5 -44t-36.5 -39.5
t-51.5 -28.5t-65.5 -11q-90 0 -143 63.5t-53 182.5q0 59 16 108t45 84.5t68.5 55t87.5 19.5q57 0 100.5 -32t59.5 -89q1 29 6 56.5t13 56.5h62q-9 -30 -16.5 -68t-12.5 -78t-7.5 -80t-2.5 -75q0 -52 2.5 -82t10.5 -45.5t22.5 -19.5t39.5 -4v-50z" />
    <glyph glyph-name="beta" unicode="&#x3b2;" horiz-adv-x="544" 
d="M159 -49q0 -56 3.5 -105.5t12.5 -96.5h-61q-10 47 -14 93.5t-4 100.5v574q0 56 14.5 97.5t40 68t59.5 39t73 12.5q43 0 75 -13t52.5 -35.5t30.5 -52t10 -62.5t-8.5 -62t-24.5 -53t-38 -40.5t-49 -23.5v-1q39 -4 67.5 -19.5t47 -40.5t27.5 -56.5t9 -67.5q0 -44 -15 -83.5
t-44.5 -69t-71 -46t-92.5 -16.5q-58 0 -100 15v-56zM159 70q23 -13 51.5 -19.5t56.5 -6.5q69 0 109 42.5t40 114.5q0 33 -8.5 61t-28 49t-50.5 33t-74 12h-28v49q78 3 119 46t41 114q0 24 -6.5 45.5t-20 37.5t-34.5 25.5t-48 9.5q-56 0 -87.5 -41t-31.5 -122v-450z" />
    <glyph glyph-name="gamma" unicode="&#x3b3;" horiz-adv-x="464" 
d="M243 -251h-63v157q0 32 -1 59t-6.5 57.5t-15.5 69.5t-28.5 94t-46 130.5t-66.5 180.5h71q31 -89 53.5 -153.5t37.5 -109.5t23.5 -74t13 -47t6 -27.5t2.5 -16.5h1q38 61 65 115.5t41.5 106.5t17 102.5t-9.5 103.5h69q9 -64 2 -122.5t-28 -118t-55.5 -122t-82.5 -135.5
v-250z" />
    <glyph glyph-name="delta" unicode="&#x3b4;" horiz-adv-x="517" 
d="M406 231q0 38 -7.5 69t-22.5 57.5t-39 50.5t-60 51q-33 0 -63.5 -13.5t-54 -39.5t-36.5 -66t-13 -91q0 -97 39.5 -151t110.5 -54q28 0 54.5 12t47 35.5t32.5 59t12 80.5zM271 736q33 0 65.5 -6t59.5 -18v-58q-32 15 -66 23.5t-67 8.5q-35 0 -52.5 -12.5t-17.5 -32.5
q0 -14 4 -24t15.5 -23t36 -33.5t67.5 -52.5q43 -33 72.5 -64t47.5 -63t26.5 -67t8.5 -77q0 -48 -14.5 -92.5t-43 -79t-70 -54t-93.5 -19.5q-47 0 -85 15.5t-65 47t-41.5 79t-14.5 109.5q0 50 12.5 94t36 78t57.5 56t76 30q-54 39 -76.5 69t-22.5 64q0 18 7.5 35.5t24 32.5
t44.5 24.5t68 9.5z" />
    <glyph glyph-name="epsilon" unicode="&#x3b5;" horiz-adv-x="441" 
d="M396 18q-40 -13 -80 -19.5t-73 -6.5q-49 0 -86.5 10.5t-61.5 29t-35.5 43t-11.5 52.5q0 47 25.5 81.5t70.5 48.5v1q-37 15 -56.5 41t-19.5 62q0 31 11.5 57t35.5 46t59.5 30.5t82.5 10.5q29 0 60 -4t61 -11v-56q-32 10 -65 15.5t-62 5.5q-59 0 -89.5 -24t-30.5 -66
q0 -37 30.5 -60t80.5 -23h99v-48h-108q-28 0 -51 -7.5t-38 -21.5t-23 -31.5t-8 -36.5q0 -44 36.5 -69.5t103.5 -25.5q32 0 70 7t73 20v-51z" />
    <glyph glyph-name="zeta" unicode="&#x3b6;" horiz-adv-x="403" 
d="M397 -46q0 -45 -22.5 -87t-59.5 -86l-43 28q30 42 45 74t15 62q0 14 -4.5 23.5t-15.5 16.5t-31.5 11.5t-52.5 7.5q-52 5 -87.5 18.5t-57 37t-31 56.5t-9.5 78q0 41 10.5 88.5t29.5 96t44 95t53.5 87t58.5 71.5t59 48h-243v50h320v-45q-37 -22 -71 -56.5t-64 -77
t-54 -88.5t-41.5 -92t-26.5 -88t-9 -75q0 -39 6 -64t21 -42t42.5 -26.5t71.5 -14.5q80 -9 113.5 -34.5t33.5 -72.5z" />
    <glyph glyph-name="eta" unicode="&#x3b7;" horiz-adv-x="588" 
d="M132 497q8 -29 13.5 -60.5t7.5 -58.5h1q18 57 64.5 92t114.5 35q43 0 74 -13t50 -36.5t27.5 -56t8.5 -73.5v-375q0 -56 3.5 -105.5t12.5 -96.5h-61q-10 47 -14 93.5t-4 100.5v360q0 78 -26 114.5t-85 36.5q-31 0 -58.5 -14.5t-48 -41t-32 -63t-11.5 -78.5v-257h-63v247
q0 62 -10 124.5t-29 125.5h65z" />
    <glyph glyph-name="theta" unicode="&#x3b8;" horiz-adv-x="556" 
d="M129 348q2 -144 41 -223.5t110 -79.5q38 0 66 23.5t45.5 65t26 95.5t9.5 119h-298zM427 397q-2 67 -12.5 120.5t-29.5 91t-46.5 57.5t-62.5 20q-37 0 -64.5 -22.5t-45 -62t-26.5 -91.5t-11 -113h298zM492 378q0 -185 -56 -285.5t-162 -100.5q-98 0 -154 92.5t-56 266.5
q0 92 14 164t41.5 122t68.5 75.5t95 25.5q98 0 153.5 -93.5t55.5 -266.5z" />
    <glyph glyph-name="iota" unicode="&#x3b9;" horiz-adv-x="284" 
d="M272 1q-18 -3 -36.5 -5t-36.5 -2q-53 0 -78 29t-25 98v376h63v-367q0 -49 12 -66.5t41 -17.5t60 7v-52z" />
    <glyph glyph-name="kappa" unicode="&#x3ba;" horiz-adv-x="473" 
d="M360 0l-201 258v-258h-63v497h63v-232l201 232h74l-206 -230l216 -267h-84z" />
    <glyph glyph-name="lambda" unicode="&#x3bb;" horiz-adv-x="462" 
d="M172 591q-10 28 -20.5 46t-21.5 28t-22.5 14t-24.5 4q-7 0 -16.5 -0.5t-16.5 -1.5v50q13 2 25.5 3t20.5 1q24 0 42.5 -6t34.5 -19t30 -35.5t26 -56.5l218 -618h-70l-145 422h-1q-3 -11 -9 -28t-13 -38t-14.5 -42.5t-14.5 -40.5l-102 -273h-70l197 496z" />
    <glyph glyph-name="mu" unicode="&#x3bc;" horiz-adv-x="589" 
d="M546 -5q-12 -1 -29 -1q-51 0 -72.5 30.5t-16.5 91.5h-1q-21 -57 -67.5 -90.5t-109.5 -33.5q-33 0 -58.5 10.5t-38.5 31.5l8 -285h-65v748h63v-332q0 -62 24.5 -92t76.5 -30q35 0 64.5 16t51 45t33 69t11.5 87v237h63v-330q0 -40 3 -63t10 -35.5t18.5 -17t31.5 -4.5v-52z
" />
    <glyph glyph-name="nu" unicode="&#x3bd;" horiz-adv-x="471" 
d="M447 497q-23 -126 -71.5 -249.5t-122.5 -247.5h-58l-181 497h72l118 -346l17 -51t10 -35h1q115 214 145 432h70z" />
    <glyph glyph-name="xi" unicode="&#x3be;" horiz-adv-x="408" 
d="M406 -46q0 -45 -22.5 -87t-59.5 -86l-43 28q30 42 45 74t15 62q0 14 -4.5 24t-16.5 17t-33.5 11.5t-55.5 7.5q-100 9 -145 52.5t-45 124.5q0 38 11 70t30.5 56t44 40.5t52.5 24.5q-45 10 -72 45.5t-27 85.5q0 29 8 56.5t23 52t36.5 42.5t48.5 27q-15 -1 -30 -1.5
t-30 -0.5h-84v50h315v-50h-25q-53 0 -91.5 -14.5t-62.5 -38t-35 -52.5t-11 -58q0 -50 31.5 -81t92.5 -31h82v-50h-50q-52 0 -89 -13.5t-60 -36t-33.5 -50.5t-10.5 -58q0 -33 8 -56.5t25 -39t45 -25t70 -14.5q84 -9 118.5 -34.5t34.5 -73.5z" />
    <glyph glyph-name="omicron" unicode="&#x3bf;" horiz-adv-x="540" 
d="M430 249q0 97 -42 151t-117 54q-37 0 -66.5 -13t-50.5 -39t-32.5 -65t-11.5 -89q0 -97 42 -150.5t117 -53.5q35 0 64 12t51 37.5t34 64.5t12 91zM495 253q0 -55 -15 -102.5t-44.5 -83t-73.5 -55.5t-100 -20q-101 0 -159 63.5t-58 188.5q0 55 15 102.5t44.5 83t73.5 55.5
t100 20q50 0 89.5 -15.5t68.5 -47t44 -79t15 -110.5z" />
    <glyph glyph-name="pi" unicode="&#x3c0;" horiz-adv-x="635" 
d="M463 445q1 -109 6 -182t12.5 -116.5t17.5 -65t21.5 -28t28.5 -6.5q11 0 22.5 1.5t26.5 3.5v-52q-13 -3 -28.5 -4.5t-28.5 -1.5q-28 0 -48 7.5t-35 25.5t-25.5 50t-17.5 81.5t-10.5 119t-4.5 167.5h-191q2 -115 -14 -226.5t-52 -220.5l-73 4q40 113 59.5 223.5t17.5 219.5
h-133v52h584v-52h-135z" />
    <glyph glyph-name="rho" unicode="&#x3c1;" horiz-adv-x="538" 
d="M425 253q0 95 -36 148t-109 53q-68 0 -104 -49.5t-36 -134.5v-198q27 -13 55 -20.5t66 -7.5q36 0 66 12.5t52 38.5t34 66t12 92zM490 257q0 -55 -15 -103t-44.5 -84t-75 -56.5t-104.5 -20.5q-35 0 -63 4.5t-49 13.5q1 -25 1 -78v-184h-63v518q0 50 13 93t39.5 75.5
t66.5 51t93 18.5q43 0 79 -13.5t63.5 -43t43 -77.5t15.5 -114z" />
    <glyph glyph-name="sigma1" unicode="&#x3c2;" horiz-adv-x="451" 
d="M407 -46q0 -42 -21 -84t-61 -89l-43 28q32 44 46 75.5t14 60.5q0 15 -5 24.5t-16 16t-30.5 11t-52.5 7.5q-51 5 -88 23.5t-60 49.5t-33.5 71t-10.5 87q0 124 59 196t172 72q31 0 60.5 -5.5t56.5 -13.5v-58q-34 13 -62.5 19.5t-58.5 6.5q-39 0 -70 -15t-51 -43.5
t-29.5 -66t-9.5 -83.5q0 -41 8 -73.5t25.5 -55.5t45.5 -36.5t68 -17.5q79 -9 113 -34t34 -73z" />
    <glyph glyph-name="sigma" unicode="&#x3c3;" horiz-adv-x="572" 
d="M428 249q0 130 -74 203q-19 1 -34 1.5t-29 0.5q-84 0 -132.5 -51t-48.5 -155q0 -97 42 -150.5t117 -53.5q34 0 62.5 12t50.5 37.5t34 64.5t12 91zM535 445q-31 0 -61 1.5t-49 3.5q30 -29 48.5 -81t18.5 -118q0 -55 -15 -102t-44 -82.5t-72.5 -55t-98.5 -19.5
q-101 0 -159 63.5t-58 188.5q0 54 15.5 101.5t46.5 83.5t79.5 56t111.5 20q30 0 110.5 -4t126.5 -4v-52z" />
    <glyph glyph-name="tau" unicode="&#x3c4;" horiz-adv-x="362" 
d="M187 445v-278q0 -37 3 -59.5t9 -35t17 -18t29 -5.5q12 0 24 1t20 3v-54q-11 -2 -27.5 -4t-29.5 -2q-60 0 -84 32.5t-24 111.5v308h-118v52h324v-52h-143z" />
    <glyph glyph-name="upsilon" unicode="&#x3c5;" horiz-adv-x="578" 
d="M491 288q0 -74 -15.5 -130t-44 -93t-67.5 -55t-86 -18q-51 0 -86.5 14.5t-57.5 43t-32 71t-10 99.5v277h63v-261q0 -100 29 -146.5t102 -46.5q32 0 58 13.5t45 41.5t29 72.5t10 105.5q0 57 -4.5 113.5t-13.5 107.5h66q8 -45 11.5 -98t3.5 -111z" />
    <glyph glyph-name="phi" unicode="&#x3c6;" horiz-adv-x="657" 
d="M297 454q-39 -3 -73 -17t-60.5 -39.5t-41 -62.5t-14.5 -83q0 -92 49 -146.5t140 -61.5v410zM549 246q0 92 -49 146.5t-140 61.5v-410q39 3 73.5 17t60.5 39.5t40.5 62t14.5 83.5zM614 251q0 -48 -16.5 -93t-49 -80.5t-80.5 -57.5t-108 -26v-245h-63v244
q-58 3 -104.5 19.5t-80 48t-51.5 78.5t-18 108q0 48 17 93t49.5 80.5t80 57.5t107.5 26v171h63v-170q58 -3 104.5 -19.5t80 -48t51.5 -78.5t18 -108z" />
    <glyph glyph-name="chi" unicode="&#x3c7;" horiz-adv-x="457" 
d="M461 -253q-8 -1 -16.5 -1.5t-15.5 -0.5q-29 0 -46.5 7t-32.5 24.5t-31 50t-37 90.5l-59 161l-156 -334l-63 20l192 378l-71 182q-16 42 -27.5 66t-21 37t-20.5 18.5t-27 5.5q-12 0 -20 -1v49q6 1 15.5 2t16.5 1q27 0 45.5 -6.5t33.5 -22t29.5 -43.5t31.5 -75l55 -148
l136 290h72l-182 -356l76 -193q20 -52 33.5 -81.5t24 -44.5t20.5 -20.5t25 -5.5q12 0 20 1v-50z" />
    <glyph glyph-name="psi" unicode="&#x3c8;" horiz-adv-x="766" 
d="M678 280q0 -140 -65.5 -209.5t-199.5 -77.5v-244h-63v244q-81 3 -132.5 23.5t-78.5 54t-37 75t-10 95.5v256h63v-237q0 -50 8 -87.5t29 -65t59.5 -44t98.5 -19.5v631h63v-631q105 5 153.5 58.5t48.5 170.5q0 59 -4 115.5t-12 108.5h65q7 -47 10.5 -101t3.5 -116z" />
    <glyph glyph-name="omega" unicode="&#x3c9;" horiz-adv-x="763" 
d="M713 248q0 -59 -16.5 -106.5t-44.5 -81t-64.5 -51t-75.5 -17.5q-51 0 -87.5 28t-44.5 75q-16 -49 -54 -76t-90 -27q-39 0 -73 15.5t-59 46t-39 75t-14 99.5q0 91 30.5 161t88.5 129l49 -31q-102 -104 -102 -245q0 -88 36.5 -140t95.5 -52q19 0 37.5 8.5t33 25.5t23 43.5
t8.5 60.5v177h62v-173q0 -69 30 -105.5t76 -36.5q24 0 47 12t41 36t28.5 60t10.5 82q0 77 -25 135t-75 109l53 34q25 -26 45 -52.5t35.5 -58.5t24.5 -72t9 -87z" />
    <glyph glyph-name="iotadieresis" unicode="&#x3ca;" horiz-adv-x="284" 
d="M272 1q-18 -3 -36.5 -5t-36.5 -2q-53 0 -78 29t-25 98v376h63v-367q0 -49 12 -66.5t41 -17.5t60 7v-52zM89 658q0 -18 -12.5 -30.5t-30.5 -12.5q-19 0 -31 12.5t-12 30.5q0 19 12 31t31 12q18 0 30.5 -12t12.5 -31zM256 658q0 -18 -12.5 -30.5t-30.5 -12.5t-30.5 12.5
t-12.5 30.5q0 19 12.5 31t30.5 12q19 0 31 -12t12 -31z" />
    <glyph glyph-name="upsilondieresis" unicode="&#x3cb;" horiz-adv-x="578" 
d="M491 288q0 -74 -15.5 -130t-44 -93t-67.5 -55t-86 -18q-51 0 -86.5 14.5t-57.5 43t-32 71t-10 99.5v277h63v-261q0 -100 29 -146.5t102 -46.5q32 0 58 13.5t45 41.5t29 72.5t10 105.5q0 57 -4.5 113.5t-13.5 107.5h66q8 -45 11.5 -98t3.5 -111zM227 658q0 -18 -12 -30.5
t-31 -12.5q-18 0 -30.5 12.5t-12.5 30.5q0 19 12.5 31t30.5 12q19 0 31 -12t12 -31zM412 658q0 -18 -12.5 -30.5t-30.5 -12.5t-30.5 12.5t-12.5 30.5q0 19 12.5 31t30.5 12t30.5 -12t12.5 -31z" />
    <glyph glyph-name="omicrontonos" unicode="&#x3cc;" horiz-adv-x="540" 
d="M430 249q0 97 -42 151t-117 54q-37 0 -66.5 -13t-50.5 -39t-32.5 -65t-11.5 -89q0 -97 42 -150.5t117 -53.5q35 0 64 12t51 37.5t34 64.5t12 91zM495 253q0 -55 -15 -102.5t-44.5 -83t-73.5 -55.5t-100 -20q-101 0 -159 63.5t-58 188.5q0 55 15 102.5t44.5 83t73.5 55.5
t100 20q50 0 89.5 -15.5t68.5 -47t44 -79t15 -110.5zM292 567l-47 6l24 166l62 -7z" />
    <glyph glyph-name="upsilontonos" unicode="&#x3cd;" horiz-adv-x="578" 
d="M491 288q0 -74 -15.5 -130t-44 -93t-67.5 -55t-86 -18q-51 0 -86.5 14.5t-57.5 43t-32 71t-10 99.5v277h63v-261q0 -100 29 -146.5t102 -46.5q32 0 58 13.5t45 41.5t29 72.5t10 105.5q0 57 -4.5 113.5t-13.5 107.5h66q8 -45 11.5 -98t3.5 -111zM308 567l-47 6l24 166
l62 -7z" />
    <glyph glyph-name="omegatonos" unicode="&#x3ce;" horiz-adv-x="763" 
d="M713 248q0 -59 -16.5 -106.5t-44.5 -81t-64.5 -51t-75.5 -17.5q-51 0 -87.5 28t-44.5 75q-16 -49 -54 -76t-90 -27q-39 0 -73 15.5t-59 46t-39 75t-14 99.5q0 91 30.5 161t88.5 129l49 -31q-102 -104 -102 -245q0 -88 36.5 -140t95.5 -52q19 0 37.5 8.5t33 25.5t23 43.5
t8.5 60.5v177h62v-173q0 -69 30 -105.5t76 -36.5q24 0 47 12t41 36t28.5 60t10.5 82q0 77 -25 135t-75 109l53 34q25 -26 45 -52.5t35.5 -58.5t24.5 -72t9 -87zM400 567l-47 6l24 166l62 -7z" />
    <glyph glyph-name="beta.alt" unicode="&#x3d0;" horiz-adv-x="548" 
d="M468 595q0 -53 -28 -91.5t-91 -66.5q47 -6 77 -25.5t47 -47.5t23 -62.5t6 -69.5q0 -46 -13.5 -89.5t-41.5 -77t-70 -53.5t-99 -20q-60 0 -99 21.5t-62.5 65.5t-32.5 110.5t-9 156.5q0 103 15 176.5t44.5 120.5t73 69.5t100.5 22.5q75 0 117.5 -38t42.5 -102zM298 685
q-36 0 -65.5 -16t-50.5 -50.5t-32.5 -88t-11.5 -128.5q75 22 126 42.5t82 42.5t44 47t13 55q0 18 -5.5 35t-17.5 30.5t-32 22t-50 8.5zM308 389q-14 0 -28.5 -1.5t-33.5 -6t-45 -12t-63 -19.5q0 -84 8 -142.5t25.5 -94.5t46 -52.5t69.5 -16.5q38 0 66 14.5t46.5 39.5
t27.5 58t9 71q0 40 -6 70t-21 50.5t-39.5 31t-61.5 10.5z" />
    <glyph glyph-name="theta1" unicode="&#x3d1;" horiz-adv-x="595" 
d="M586 436q-22 3 -46.5 4t-50.5 1q1 -8 2 -22.5t1 -42.5q0 -86 -11.5 -156.5t-37 -121t-66.5 -78.5t-100 -28q-50 0 -87.5 23t-63 64.5t-38.5 99t-13 126.5q0 30 1.5 63.5t4.5 61.5h62q-2 -26 -3.5 -55.5t-1.5 -56.5q0 -59 9 -109t27 -86.5t45.5 -57t64.5 -20.5
q40 0 68.5 24t45.5 66.5t25 101t8 126.5q0 31 -1 49t-3 29h-77q-100 0 -153.5 43t-53.5 115q0 29 10 54.5t29.5 44t46.5 29.5t62 11q79 0 127.5 -62.5t65.5 -178.5h20q23 0 44 -1.5t38 -5.5v-54zM421 497q-15 85 -48.5 137t-88.5 52q-38 0 -58.5 -22.5t-20.5 -57.5
q0 -49 36 -79t122 -30h58z" />
    <glyph glyph-name="phi1" unicode="&#x3d5;" horiz-adv-x="646" 
d="M354 45q39 3 72 16.5t57 38.5t38 63t14 91q0 51 -12 88.5t-30.5 62t-41.5 37t-44 12.5q-14 0 -23.5 -4.5t-16.5 -17.5t-10 -37t-3 -62v-288zM291 -230v223q-118 8 -182 71t-64 186q0 83 34.5 149.5t109.5 105.5l33 -41q-113 -61 -113 -207q0 -101 49.5 -152t132.5 -60
v282q0 50 8 84t23 55t37 30t50 9q45 0 80.5 -18.5t60 -51.5t37.5 -78t13 -98q0 -59 -17.5 -105.5t-49.5 -80t-77.5 -53.5t-101.5 -26v-224h-63z" />
    <glyph glyph-name="uni0400" unicode="&#x400;" horiz-adv-x="536" 
d="M96 0v675h363v-52h-299v-249h274v-51h-274v-270h304v-53h-368zM302 732l-172 58l23 54l164 -74z" />
    <glyph glyph-name="uni0401" unicode="&#x401;" horiz-adv-x="536" 
d="M96 0v675h363v-52h-299v-249h274v-51h-274v-270h304v-53h-368zM213 778q0 -19 -12 -31t-31 -12q-18 0 -30.5 12t-12.5 31q0 18 12.5 30.5t30.5 12.5q19 0 31 -12.5t12 -30.5zM426 778q0 -19 -12.5 -31t-30.5 -12t-30.5 12t-12.5 31q0 18 12.5 30.5t30.5 12.5t30.5 -12.5
t12.5 -30.5z" />
    <glyph glyph-name="uni0402" unicode="&#x402;" horiz-adv-x="695" 
d="M643 216q0 -62 -21.5 -108t-61 -76.5t-93 -46t-119.5 -18.5v51q53 3 94.5 14t71.5 33t46.5 58t16.5 87q0 33 -8 63.5t-27.5 56t-55.5 40.5t-89 15q-34 0 -68.5 -6.5t-67.5 -18.5v-360h-64v622h-178v53h451v-53h-209v-209q29 10 69.5 16.5t79.5 6.5q59 0 103 -16t73 -45.5
t43 -70t14 -88.5z" />
    <glyph glyph-name="uni0403" unicode="&#x403;" horiz-adv-x="425" 
d="M160 622v-622h-64v675h322v-53h-258zM214 732l-15 38l164 74l23 -54z" />
    <glyph glyph-name="uni0404" unicode="&#x404;" horiz-adv-x="616" 
d="M542 29q-41 -17 -89.5 -26.5t-96.5 -9.5q-149 0 -226.5 85.5t-77.5 245.5q0 78 19 143t59 113t102.5 74.5t145.5 26.5q37 0 76 -5.5t79 -15.5v-62q-43 15 -86 22.5t-84 7.5q-58 0 -101.5 -19.5t-73 -54t-45.5 -80.5t-20 -100h342v-52h-343q2 -133 64.5 -203.5
t186.5 -70.5q40 0 84.5 10.5t84.5 29.5v-59z" />
    <glyph glyph-name="uni0405" unicode="&#x405;" horiz-adv-x="504" 
d="M446 181q0 -41 -15.5 -76t-45.5 -60.5t-74 -39t-97 -13.5q-41 0 -80 5t-69 14v64q35 -13 75.5 -20.5t78.5 -7.5q34 0 63.5 7t52 23t34.5 41.5t12 58.5q0 36 -18 62t-47.5 43.5t-90.5 42.5t-94 47t-53 55.5t-20 81.5q0 36 15 68.5t44 56t70.5 36.5t93.5 13q30 0 61.5 -3.5
t55.5 -8.5v-59q-29 8 -61.5 13t-59.5 5q-75 0 -115 -31t-40 -87q0 -34 16.5 -57t43 -39.5t95 -44.5t101.5 -53t50.5 -58t17.5 -79z" />
    <glyph glyph-name="uni0406" unicode="&#x406;" horiz-adv-x="256" 
d="M96 0v675h64v-675h-64z" />
    <glyph glyph-name="uni0407" unicode="&#x407;" horiz-adv-x="256" 
d="M96 0v675h64v-675h-64zM74 778q0 -19 -12 -31t-31 -12q-18 0 -30.5 12t-12.5 31q0 18 12.5 30.5t30.5 12.5q19 0 31 -12.5t12 -30.5zM268 778q0 -19 -12.5 -31t-30.5 -12t-30.5 12t-12.5 31q0 18 12.5 30.5t30.5 12.5t30.5 -12.5t12.5 -30.5z" />
    <glyph glyph-name="uni0408" unicode="&#x408;" horiz-adv-x="256" 
d="M4 -139q28 15 45.5 30t28 33.5t14.5 42t4 56.5v652h64v-648q0 -41 -6 -71.5t-20.5 -54.5t-39 -44t-62.5 -39z" />
    <glyph glyph-name="uni0409" unicode="&#x409;" horiz-adv-x="904" 
d="M465 622h-270q0 -139 -5 -238.5t-14.5 -167t-24 -109.5t-34.5 -65.5t-45.5 -34t-64.5 -13.5v60q27 3 43.5 13.5t29 32.5t22 61.5t16 106t10 166.5t3.5 241h398v-280q14 1 40.5 1.5t55.5 0.5q60 0 105.5 -14t75.5 -39t44.5 -60t14.5 -77q0 -99 -68 -154.5t-186 -55.5
q-37 0 -78.5 1t-67.5 2v622zM529 51q14 -1 38 -1.5t48 -0.5q92 0 138 39t46 112q0 69 -45 107t-137 38q-26 0 -50.5 -0.5t-37.5 -0.5v-293z" />
    <glyph glyph-name="uni040A" unicode="&#x40a;" horiz-adv-x="956" 
d="M850 200q0 33 -10 59.5t-32 45.5t-56.5 29.5t-82.5 10.5q-31 0 -54.5 -0.5t-33.5 -0.5v-293q10 0 34 -1t52 -1q92 0 137.5 39.5t45.5 111.5zM517 324h-357v-324h-64v675h64v-298h357v298h64v-280q11 1 36.5 1.5t58.5 0.5q61 0 106.5 -14t75 -39.5t44 -60t14.5 -76.5
q0 -49 -17.5 -88t-50.5 -66.5t-80 -41.5t-106 -14q-23 0 -48 0.5t-46 1t-33.5 1t-17.5 0.5v324z" />
    <glyph glyph-name="uni040B" unicode="&#x40b;" horiz-adv-x="724" 
d="M566 0v201q0 42 -6.5 73.5t-24 56.5t-51 39t-86.5 14q-39 0 -74.5 -7.5t-62.5 -19.5v-357h-64v622h-178v53h451v-53h-209v-210q31 11 68.5 17.5t76.5 6.5q70 0 115 -18.5t68.5 -50.5t32 -70.5t8.5 -86.5v-210h-64z" />
    <glyph glyph-name="uni040C" unicode="&#x40c;" horiz-adv-x="576" 
d="M474 0l-314 342v-342h-64v675h64v-327l302 327h80l-307 -324l326 -351h-87zM273 732l-15 38l164 74l23 -54z" />
    <glyph glyph-name="uni040D" unicode="&#x40d;" horiz-adv-x="694" 
d="M534 0v484q0 56 6 107h-1q-11 -20 -23 -40.5t-25 -40.5l-332 -510h-63v675h64v-498q0 -19 -1 -41t-3 -46h1q9 18 20 37.5t23 37.5l332 510h66v-675h-64zM365 732l-172 58l23 54l164 -74z" />
    <glyph glyph-name="uni040E" unicode="&#x40e;" horiz-adv-x="552" 
d="M320 146q-17 -43 -35.5 -72.5t-39.5 -47t-45 -26t-53 -8.5q-13 0 -30 2.5t-31 6.5v59q34 -13 65 -13q20 0 34.5 4.5t27 15t24.5 30t26 49.5l-235 529h72l147 -342q31 -76 34.5 -84.5t10.5 -33.5l1 -1q6 16 24 63t29 73l123 325h67zM427 842q0 -24 -8.5 -45.5t-26 -38
t-45.5 -26t-65 -9.5q-69 0 -106.5 32t-37.5 87h59q0 -37 21.5 -56t65.5 -19q42 0 63 20t21 55h59z" />
    <glyph glyph-name="uni040F" unicode="&#x40f;" horiz-adv-x="658" 
d="M358 0v-158h-58v158h-204v675h64v-622h338v622h64v-675h-204z" />
    <glyph glyph-name="uni0410" unicode="&#x410;" horiz-adv-x="608" 
d="M332 517q-11 32 -17.5 52t-12.5 39h-1q-7 -22 -14.5 -44.5t-15.5 -44.5l-107 -295h275zM518 0l-61 173h-311l-62 -173h-68l253 675h72l251 -675h-74z" />
    <glyph glyph-name="uni0411" unicode="&#x411;" horiz-adv-x="562" 
d="M438 196q0 32 -10 57.5t-32 44.5t-57 29t-83 10h-96v-282q20 -3 48 -4.5t57 -1.5q81 0 127 40.5t46 106.5zM504 202q0 -41 -15 -78t-46 -65.5t-78 -45t-109 -16.5h-29t-33 0.5t-34.5 0.5t-33.5 0.5t-30 1.5v675h361v-52h-297v-235h106q60 0 105 -13t74.5 -38t44 -59
t14.5 -76z" />
    <glyph glyph-name="uni0412" unicode="&#x412;" horiz-adv-x="563" 
d="M439 189q0 34 -11.5 59t-36.5 42t-64 25.5t-94 8.5h-42t-31 -1v-268q15 -2 44.5 -4t52.5 -2q47 0 81.5 10.5t57 30t33 44.5t10.5 55zM415 505q0 27 -7.5 48.5t-25.5 38t-49.5 26t-77.5 9.5q-17 0 -40.5 -1t-54.5 -2v-250q15 -1 30 -1h47q87 0 132.5 34t45.5 98zM506 195
q0 -33 -12.5 -67t-42 -64t-80 -48.5t-122.5 -18.5q-30 0 -91.5 1.5l-61.5 1.5v675q21 1 68.5 2t99.5 1q111 0 164.5 -43.5t53.5 -118.5q0 -56 -32.5 -99t-89.5 -61v-1q33 -5 60 -18t46 -33.5t29.5 -47.5t10.5 -61z" />
    <glyph glyph-name="uni0413" unicode="&#x413;" horiz-adv-x="425" 
d="M160 622v-622h-64v675h322v-53h-258z" />
    <glyph glyph-name="uni0414" unicode="&#x414;" horiz-adv-x="664" 
d="M635 -158h-59v158h-512v-158h-59v211h59q13 18 24.5 39t20 51.5t15 74t10.5 106.5t6 149t2 202h408v-622h85v-211zM486 623h-281q0 -145 -4.5 -243t-14 -162.5t-23 -102.5t-31.5 -62h354v570z" />
    <glyph glyph-name="uni0415" unicode="&#x415;" horiz-adv-x="536" 
d="M96 0v675h363v-52h-299v-249h274v-51h-274v-270h304v-53h-368z" />
    <glyph glyph-name="uni0416" unicode="&#x416;" horiz-adv-x="797" 
d="M365 675h65v-327l275 327h76l-283 -326l296 -349h-88l-276 342v-342h-65v342l-278 -342h-84l294 345l-285 330h79l274 -327v327z" />
    <glyph glyph-name="uni0417" unicode="&#x417;" horiz-adv-x="522" 
d="M465 194q0 -39 -14.5 -74.5t-45 -64.5t-81 -45.5t-118.5 -16.5q-42 0 -81.5 5t-72.5 14v59q38 -12 79 -18.5t85 -6.5q51 0 86.5 11t56 30.5t30 44.5t9.5 56q0 39 -16 66t-45.5 42.5t-69 22.5t-88.5 7h-41v50h42q95 0 146 34t51 98q0 26 -7 47.5t-24.5 39t-48 27.5
t-75.5 10q-33 0 -69.5 -6.5t-72.5 -18.5v54q41 11 77 16.5t75 5.5q53 0 93.5 -12.5t66 -34.5t38 -52t12.5 -65q0 -57 -33.5 -99.5t-93.5 -60.5v-1q38 -7 66.5 -22t47 -37t27.5 -48.5t9 -56.5z" />
    <glyph glyph-name="uni0418" unicode="&#x418;" horiz-adv-x="694" 
d="M534 0v484q0 56 6 107h-1q-11 -20 -23 -40.5t-25 -40.5l-332 -510h-63v675h64v-498q0 -19 -1 -41t-3 -46h1q9 18 20 37.5t23 37.5l332 510h66v-675h-64z" />
    <glyph glyph-name="uni0419" unicode="&#x419;" horiz-adv-x="694" 
d="M534 0v484q0 56 6 107h-1q-11 -20 -23 -40.5t-25 -40.5l-332 -510h-63v675h64v-498q0 -19 -1 -41t-3 -46h1q9 18 20 37.5t23 37.5l332 510h66v-675h-64zM499 842q0 -24 -8.5 -45.5t-26 -38t-45.5 -26t-65 -9.5q-69 0 -106.5 32t-37.5 87h59q0 -37 21.5 -56t65.5 -19
q42 0 63 20t21 55h59z" />
    <glyph glyph-name="uni041A" unicode="&#x41a;" horiz-adv-x="576" 
d="M474 0l-314 342v-342h-64v675h64v-327l302 327h80l-307 -324l326 -351h-87z" />
    <glyph glyph-name="uni041B" unicode="&#x41b;" horiz-adv-x="626" 
d="M466 0v622h-271q0 -139 -5 -238t-14.5 -166t-24 -109.5t-34.5 -66.5t-45.5 -34.5t-64.5 -13.5v60q27 3 43.5 13t29.5 32.5t22.5 63.5t16 108t9.5 166t3 238h399v-675h-64z" />
    <glyph glyph-name="uni041C" unicode="&#x41c;" horiz-adv-x="892" 
d="M767 0l-62 439q-9 62 -14.5 106t-6.5 72h-2q-5 -18 -12.5 -42t-23.5 -70l-179 -505h-58l-169 476q-24 67 -32 90.5t-15 50.5h-1q-2 -37 -6 -79t-11 -105l-51 -433h-66l91 675h88l171 -481q10 -25 18.5 -53t14.5 -55h1q6 28 14 56t17 52l172 481h93l96 -675h-67z" />
    <glyph glyph-name="uni041D" unicode="&#x41d;" horiz-adv-x="688" 
d="M527 0v324h-367v-324h-64v675h64v-298h367v298h65v-675h-65z" />
    <glyph glyph-name="uni041E" unicode="&#x41e;" horiz-adv-x="707" 
d="M592 332q0 135 -61.5 216t-177.5 81q-50 0 -93 -18.5t-76 -55t-51 -90t-18 -121.5q0 -66 15 -121t45 -94.5t75 -61t103 -21.5q50 0 93.5 18.5t76 55.5t51 90.5t18.5 121.5zM659 345q0 -84 -24.5 -150t-67.5 -111.5t-100 -68.5t-122 -23q-71 0 -126.5 24t-93.5 68.5
t-57.5 107t-19.5 138.5q0 84 24.5 150t67.5 111.5t100 68.5t122 23q71 0 126.5 -24t93.5 -68.5t57.5 -107t19.5 -138.5z" />
    <glyph glyph-name="uni041F" unicode="&#x41f;" horiz-adv-x="660" 
d="M500 0v622h-340v-622h-64v675h468v-675h-64z" />
    <glyph glyph-name="uni0420" unicode="&#x420;" horiz-adv-x="548" 
d="M443 462q0 75 -48.5 119.5t-146.5 44.5q-42 0 -88 -2v-324q47 -6 91 -6q93 0 142.5 47.5t49.5 120.5zM509 473q0 -50 -18.5 -92.5t-53.5 -74t-84.5 -48.5t-108.5 -17q-40 0 -84 4v-245h-64v675q95 3 165 3q63 0 110.5 -16.5t78 -45t45 -65.5t14.5 -78z" />
    <glyph glyph-name="uni0421" unicode="&#x421;" horiz-adv-x="595" 
d="M541 22q-44 -14 -92.5 -21.5t-98.5 -7.5q-73 0 -129 22.5t-93.5 65t-56.5 104t-19 139.5q0 77 19 142t58 113.5t99 75.5t141 27q41 0 83.5 -7t80.5 -20v-64q-89 37 -178 37q-60 0 -104.5 -23t-73.5 -63.5t-43 -93.5t-14 -114q0 -137 61 -211.5t180 -74.5q39 0 87.5 8.5
t92.5 22.5v-57z" />
    <glyph glyph-name="uni0422" unicode="&#x422;" horiz-adv-x="520" 
d="M292 622v-622h-64v622h-209v53h482v-53h-209z" />
    <glyph glyph-name="uni0423" unicode="&#x423;" horiz-adv-x="552" 
d="M320 146q-17 -43 -35.5 -72.5t-39.5 -47t-45 -26t-53 -8.5q-13 0 -30 2.5t-31 6.5v59q34 -13 65 -13q20 0 34.5 4.5t27 15t24.5 30t26 49.5l-235 529h72l147 -342q31 -76 34.5 -84.5t10.5 -33.5l1 -1q6 16 24 63t29 73l123 325h67z" />
    <glyph glyph-name="uni0424" unicode="&#x424;" horiz-adv-x="822" 
d="M379 597q-64 -1 -114 -20.5t-84 -54t-51.5 -80.5t-17.5 -101q0 -57 15 -102.5t46.5 -80t83 -55t122.5 -25.5v519zM709 335q0 57 -15 102.5t-46.5 80t-82.5 55t-122 24.5v-518q63 2 113 21.5t84 53.5t51.5 80t17.5 101zM778 343q0 -70 -23.5 -127t-67.5 -98.5t-106 -65.5
t-138 -28v-75h-64v75q-87 3 -150.5 26t-104.5 63.5t-60.5 95.5t-19.5 123q0 70 23.5 127t67.5 98.5t106 65.5t138 28v70h64v-70q86 -3 149.5 -26t104.5 -63t61 -95t20 -124z" />
    <glyph glyph-name="uni0425" unicode="&#x425;" horiz-adv-x="578" 
d="M476 0l-191 301l-189 -301h-74l226 349l-212 326h75l175 -275l173 275h73l-209 -320l233 -355h-80z" />
    <glyph glyph-name="uni0426" unicode="&#x426;" horiz-adv-x="686" 
d="M657 -158h-59v158h-502v675h64v-622h338v622h65v-622h94v-211z" />
    <glyph glyph-name="uni0427" unicode="&#x427;" horiz-adv-x="617" 
d="M457 298q-38 -15 -81.5 -23t-90.5 -8q-67 0 -112 16.5t-69.5 46t-34.5 66.5t-10 82v197h64v-184q0 -40 7.5 -70.5t26 -53t52 -35t83.5 -12.5q45 0 86 8t79 23v324h64v-675h-64v298z" />
    <glyph glyph-name="uni0428" unicode="&#x428;" horiz-adv-x="960" 
d="M96 0v675h64v-622h288v622h64v-622h288v622h64v-675h-768z" />
    <glyph glyph-name="uni0429" unicode="&#x429;" horiz-adv-x="987" 
d="M958 -158h-58v158h-804v675h64v-622h288v622h64v-622h288v622h64v-622h94v-211z" />
    <glyph glyph-name="uni042A" unicode="&#x42a;" horiz-adv-x="638" 
d="M532 200q0 33 -10.5 59.5t-32.5 45.5t-56.5 29.5t-82.5 10.5q-31 0 -55 -0.5t-34 -0.5v-293q42 -2 87 -2q47 0 81.5 10.5t57.5 30t34 47.5t11 63zM261 395q11 1 37 1.5t59 0.5q61 0 107 -14t75.5 -39.5t44 -60t14.5 -76.5q0 -49 -17.5 -88t-51 -66.5t-80.5 -41.5
t-106 -14q-40 0 -88 1.5t-58 1.5v623h-178v52h242v-280z" />
    <glyph glyph-name="uni042B" unicode="&#x42b;" horiz-adv-x="787" 
d="M434 200q0 33 -10.5 59.5t-33 45.5t-57.5 29.5t-83 10.5q-31 0 -55.5 -0.5t-34.5 -0.5v-293q11 0 35 -1t53 -1q94 0 140 39.5t46 111.5zM500 207q0 -49 -17.5 -88t-51.5 -66.5t-81 -41.5t-106 -14q-23 0 -47.5 0.5t-44.5 1t-37.5 1t-18.5 0.5v675h64v-280q11 1 38 1.5
t59 0.5q61 0 107 -14t76.5 -39.5t45 -60t14.5 -76.5zM627 0v675h64v-675h-64z" />
    <glyph glyph-name="uni042C" unicode="&#x42c;" horiz-adv-x="539" 
d="M434 200q0 33 -10.5 59.5t-33 45.5t-57.5 29.5t-83 10.5q-31 0 -55.5 -0.5t-34.5 -0.5v-293q11 0 35 -1t53 -1q94 0 140 39.5t46 111.5zM500 207q0 -49 -17.5 -88t-51.5 -66.5t-81 -41.5t-106 -14q-23 0 -47.5 0.5t-44.5 1t-37.5 1t-18.5 0.5v675h64v-280q11 1 38 1.5
t59 0.5q61 0 107 -14t76.5 -39.5t45 -60t14.5 -76.5z" />
    <glyph glyph-name="uni042D" unicode="&#x42d;" horiz-adv-x="595" 
d="M547 338q0 -79 -22.5 -143t-65.5 -109t-103.5 -69t-133.5 -24q-43 0 -85.5 7.5t-78.5 20.5v63q40 -16 85.5 -26t84.5 -10q59 0 105.5 19.5t78.5 56.5t48.5 87.5t16.5 110.5h-344v52h343q-7 122 -71.5 188t-175.5 66q-42 0 -82 -8t-79 -23v57q40 13 82 20t88 7
q149 0 229 -88.5t80 -254.5z" />
    <glyph glyph-name="uni042E" unicode="&#x42e;" horiz-adv-x="926" 
d="M811 332q0 139 -56 218t-167 79q-48 0 -89 -18t-70.5 -54t-46 -89.5t-16.5 -123.5q0 -69 13.5 -123.5t40.5 -94t69.5 -60t98.5 -20.5q49 0 89.5 18t70.5 54t46.5 90t16.5 124zM878 345q0 -86 -22.5 -152.5t-63 -111t-94 -67t-116.5 -22.5q-69 0 -122 23t-87.5 66
t-52.5 104t-19 138h-141v-323h-64v675h64v-301h143q6 73 29.5 130.5t62 97.5t90 60.5t112.5 20.5q70 0 123 -23t88 -67.5t52.5 -106.5t17.5 -141z" />
    <glyph glyph-name="uni042F" unicode="&#x42f;" horiz-adv-x="576" 
d="M415 0v305h-102l-192 -305h-78l206 313q-74 11 -115 55t-41 116q0 90 64 142t178 52q33 0 66.5 -1t77.5 -4v-673h-64zM415 623q-18 1 -42 2t-48 1q-83 0 -124 -36t-41 -98q0 -136 165 -136h90v267z" />
    <glyph glyph-name="uni0430" unicode="&#x430;" horiz-adv-x="519" 
d="M359 230h-68q-49 0 -82.5 -7t-53.5 -19.5t-29 -30t-9 -40.5q0 -39 24 -64t63 -25q34 0 62.5 15t49.5 40.5t32 57.5t11 65v8zM358 0q0 29 2 56t6 49l-2 1q-19 -50 -65 -82t-107 -32q-62 0 -100.5 35.5t-38.5 96.5q0 37 14.5 65t44.5 48t75.5 30t107.5 10h64v40
q0 70 -27 103.5t-95 33.5q-35 0 -75.5 -8.5t-76.5 -23.5v54q36 13 77.5 21t80.5 8q50 0 84.5 -12.5t55 -36.5t30 -57t9.5 -75v-108v-108v-108h-64z" />
    <glyph glyph-name="uni0431" unicode="&#x431;" horiz-adv-x="547" 
d="M436 259q0 91 -36 141t-108 50q-36 0 -66 -17t-50.5 -45t-31.5 -61t-11 -64q0 -106 40.5 -162.5t112.5 -56.5q32 0 59 12.5t47.5 39t32 67.5t11.5 96zM502 264q0 -58 -15 -108t-44 -87t-71.5 -57t-96.5 -20q-47 0 -85 17t-66 52.5t-43.5 91.5t-15.5 132v8q0 59 6 113.5
t17.5 101.5t29 83.5t39.5 58.5q33 33 73.5 48t87.5 19.5t84.5 8t58.5 13.5v-58q-23 -11 -62.5 -15t-75.5 -7t-68 -13.5t-57 -35.5q-14 -13 -25 -30.5t-20.5 -43.5t-17 -64.5t-13.5 -92.5h1q10 26 26.5 48t39 38.5t51.5 26t62 9.5q42 0 78 -12.5t63.5 -40.5t43 -74t15.5 -110
z" />
    <glyph glyph-name="uni0432" unicode="&#x432;" horiz-adv-x="529" 
d="M398 141q0 26 -11 44.5t-31.5 30t-47.5 16.5t-60 5h-90v-184q20 -5 46 -8t49 -3q38 0 66 7.5t45.5 21.5t25.5 31.5t8 38.5zM380 370q0 18 -7 33t-22.5 27t-43 18.5t-66.5 6.5q-25 0 -46 -1.5t-37 -3.5v-165h90q132 0 132 85zM463 147q0 -31 -12.5 -58.5t-39 -49
t-68.5 -34t-98 -12.5q-36 0 -76.5 3t-72.5 8v491q37 4 77 6.5t80 2.5q54 0 91 -9.5t58.5 -27t31 -40t9.5 -49.5q0 -39 -21.5 -67.5t-65.5 -43.5v-1q55 -12 81 -42.5t26 -76.5z" />
    <glyph glyph-name="uni0433" unicode="&#x433;" horiz-adv-x="373" 
d="M159 446v-446h-63v497h248v-51h-185z" />
    <glyph glyph-name="uni0434" unicode="&#x434;" horiz-adv-x="581" 
d="M543 -148h-57v148h-410v-148h-58v199h59q22 30 35.5 67.5t20.5 90t9 122.5t2 166h330v-446h69v-199zM411 446h-208q0 -74 -2 -134.5t-8 -109t-18 -86t-33 -65.5h269v395z" />
    <glyph glyph-name="uni0435" unicode="&#x435;" horiz-adv-x="503" 
d="M431 18q-36 -12 -77 -19t-82 -7q-112 0 -169 63.5t-57 195.5q0 54 14.5 100.5t42 81t68 53.5t90.5 19q49 0 85 -16t59.5 -44t34.5 -65t11 -81q0 -23 -3 -52h-337q0 -102 42 -152.5t126 -50.5q37 0 75.5 7t76.5 20v-53zM386 295q4 77 -31.5 118.5t-97.5 41.5
q-58 0 -98.5 -41.5t-45.5 -118.5h273z" />
    <glyph glyph-name="uni0436" unicode="&#x436;" horiz-adv-x="665" 
d="M553 0l-189 257v-257h-63v257l-192 -257h-80l204 265l-193 232h75l186 -233v233h63v-233l188 233h72l-193 -231l205 -266h-83z" />
    <glyph glyph-name="uni0437" unicode="&#x437;" horiz-adv-x="436" 
d="M386 147q0 -31 -13 -59t-38.5 -49.5t-64.5 -34t-89 -12.5q-36 0 -70 4t-63 11v57q31 -10 68.5 -16t71.5 -6q64 0 98 27.5t34 71.5q0 48 -40.5 71.5t-117.5 23.5h-51v49h51q140 0 140 88q0 38 -31 60.5t-93 22.5q-25 0 -57.5 -6t-60.5 -15v52q31 9 64 13.5t66 4.5
q46 0 80 -10t55 -27.5t31 -40t10 -47.5q0 -39 -24 -70.5t-66 -42.5v-1q55 -12 82.5 -41.5t27.5 -77.5z" />
    <glyph glyph-name="uni0438" unicode="&#x438;" horiz-adv-x="567" 
d="M408 0v308q0 29 1.5 58t3.5 53h-1q-12 -25 -28.5 -55t-32.5 -56l-191 -308h-64v497h63v-296q0 -36 -1 -65.5t-3 -48.5h1q14 25 31 54t34 55l186 301h64v-497h-63z" />
    <glyph glyph-name="uni0439" unicode="&#x439;" horiz-adv-x="567" 
d="M408 0v308q0 29 1.5 58t3.5 53h-1q-12 -25 -28.5 -55t-32.5 -56l-191 -308h-64v497h63v-296q0 -36 -1 -65.5t-3 -48.5h1q14 25 31 54t34 55l186 301h64v-497h-63zM429 715q0 -25 -8.5 -46.5t-26 -38t-45.5 -26t-65 -9.5q-35 0 -62 8.5t-45 24t-27.5 38t-9.5 49.5h59
q0 -38 21.5 -57.5t65.5 -19.5q42 0 63 20.5t21 56.5h59z" />
    <glyph glyph-name="uni043A" unicode="&#x43a;" horiz-adv-x="473" 
d="M360 0l-201 258v-258h-63v497h63v-232l201 232h74l-206 -230l216 -267h-84z" />
    <glyph glyph-name="uni043B" unicode="&#x43b;" horiz-adv-x="543" 
d="M384 0v446h-203q0 -139 -10.5 -227t-31 -136t-51 -67t-78.5 -22v57q31 4 50 21.5t32 62.5t20 132.5t7 229.5h328v-497h-63z" />
    <glyph glyph-name="uni043C" unicode="&#x43c;" horiz-adv-x="722" 
d="M606 0l-53 306q-6 39 -10 67t-7 54h-1q-3 -20 -8.5 -40t-12.5 -39l-122 -348h-66l-115 327q-11 34 -18.5 56.5t-12.5 43.5h-1q-2 -26 -5.5 -56.5t-10.5 -67.5l-50 -303h-62l88 497h78l117 -336q8 -23 15 -46.5t11 -46.5h1q6 22 13 46t18 55l116 328h76l87 -497h-65z" />
    <glyph glyph-name="uni043D" unicode="&#x43d;" horiz-adv-x="579" 
d="M420 0v232h-261v-232h-63v497h63v-213h261v213h63v-497h-63z" />
    <glyph glyph-name="uni043E" unicode="&#x43e;" horiz-adv-x="540" 
d="M430 249q0 97 -42 151t-117 54q-37 0 -66.5 -13t-50.5 -39t-32.5 -65t-11.5 -89q0 -97 42 -150.5t117 -53.5q35 0 64 12t51 37.5t34 64.5t12 91zM495 253q0 -55 -15 -102.5t-44.5 -83t-73.5 -55.5t-100 -20q-101 0 -159 63.5t-58 188.5q0 55 15 102.5t44.5 83t73.5 55.5
t100 20q50 0 89.5 -15.5t68.5 -47t44 -79t15 -110.5z" />
    <glyph glyph-name="uni043F" unicode="&#x43f;" horiz-adv-x="574" 
d="M415 0v446h-256v-446h-63v497h382v-497h-63z" />
    <glyph glyph-name="uni0440" unicode="&#x440;" horiz-adv-x="558" 
d="M444 265q0 91 -31.5 140t-96.5 49q-38 0 -68 -20t-49.5 -52t-29.5 -69.5t-10 -72.5v-181q23 -8 48 -11.5t56 -3.5q85 0 133 54t48 167zM510 271q0 -66 -17.5 -118t-51 -87t-80 -53t-103.5 -18q-30 0 -51.5 1t-47.5 5v-252h-63v748h64q0 -13 -0.5 -28t-1.5 -30.5t-3 -30
t-4 -25.5l2 -1q21 57 67 90t106 33q89 0 136.5 -59.5t47.5 -174.5z" />
    <glyph glyph-name="uni0441" unicode="&#x441;" horiz-adv-x="434" 
d="M398 14q-39 -11 -70 -15.5t-66 -4.5q-48 0 -86.5 12.5t-67.5 40t-45.5 74.5t-16.5 114q0 62 15 111.5t44.5 84.5t73 53.5t98.5 18.5q57 0 117 -19v-58q-34 13 -62.5 19.5t-58.5 6.5q-38 0 -68.5 -14.5t-51 -42t-30.5 -66.5t-10 -85q0 -44 7.5 -79.5t25.5 -62t48.5 -41
t75.5 -14.5q33 0 62 5t66 15v-53z" />
    <glyph glyph-name="uni0442" unicode="&#x442;" horiz-adv-x="390" 
d="M226 445v-445h-63v445h-151v52h367v-52h-153z" />
    <glyph glyph-name="uni0443" unicode="&#x443;" horiz-adv-x="464" 
d="M254 -30q-25 -66 -49.5 -119.5t-49.5 -101.5h-71q31 54 58 108.5t48 108.5l14 34l-192 497h74l112 -307q13 -35 21.5 -61.5t16.5 -53.5h1q7 22 20.5 63t29.5 87l96 272h69z" />
    <glyph glyph-name="uni0444" unicode="&#x444;" horiz-adv-x="657" 
d="M297 454q-39 -3 -73 -17t-60.5 -39.5t-41 -62.5t-14.5 -83q0 -92 49 -146.5t140 -61.5v410zM549 246q0 92 -49 146.5t-140 61.5v-410q39 3 73.5 17t60.5 39.5t40.5 62t14.5 83.5zM614 251q0 -48 -16.5 -93t-49 -80.5t-80.5 -57.5t-108 -26v-245h-63v244
q-58 3 -104.5 19.5t-80 48t-51.5 78.5t-18 108q0 48 17 93t49.5 80.5t80 57.5t107.5 26v171h63v-170q58 -3 104.5 -19.5t80 -48t51.5 -78.5t18 -108z" />
    <glyph glyph-name="uni0445" unicode="&#x445;" horiz-adv-x="512" 
d="M399 0l-146 208l-146 -208h-80l191 248l-181 249h80l141 -203l145 203h73l-183 -245l191 -252h-85z" />
    <glyph glyph-name="uni0446" unicode="&#x446;" horiz-adv-x="585" 
d="M555 -148h-57v148h-402v497h63v-446h256v446h63v-446h77v-199z" />
    <glyph glyph-name="uni0447" unicode="&#x447;" horiz-adv-x="524" 
d="M365 0v221q-33 -18 -70 -27t-80 -9q-46 0 -77.5 12.5t-50 35t-26.5 51.5t-8 64v149h63v-134q0 -32 5 -55.5t17.5 -39.5t34 -24.5t53.5 -8.5q36 0 70.5 9t68.5 28v225h63v-497h-63z" />
    <glyph glyph-name="uni0448" unicode="&#x448;" horiz-adv-x="810" 
d="M96 0v497h63v-446h217v446h62v-446h213v446h63v-497h-618z" />
    <glyph glyph-name="uni0449" unicode="&#x449;" horiz-adv-x="821" 
d="M791 -148h-57v148h-638v497h63v-446h217v446h62v-446h213v446h63v-446h77v-199z" />
    <glyph glyph-name="uni044A" unicode="&#x44a;" horiz-adv-x="538" 
d="M444 152q0 23 -7.5 42.5t-24 34t-45 22.5t-68.5 8q-21 0 -44.5 -2t-39.5 -4v-197q18 -6 43 -9t51 -3q65 0 100 30t35 78zM510 160q0 -35 -14 -65.5t-42 -53t-68.5 -35t-91.5 -12.5q-31 0 -71 3.5t-71 8.5v440h-151v51h214v-193q22 2 48.5 3.5t49.5 1.5q52 0 89.5 -11
t61.5 -31t35 -47t11 -60z" />
    <glyph glyph-name="uni044B" unicode="&#x44b;" horiz-adv-x="709" 
d="M388 152q0 23 -7.5 42.5t-24 34t-45 22.5t-68.5 8q-22 0 -45.5 -2t-38.5 -4v-197q18 -6 43 -9t51 -3q65 0 100 30t35 78zM454 160q0 -35 -14.5 -65.5t-42 -53t-68 -35t-91.5 -12.5q-31 0 -71 3.5t-71 8.5v491h63v-193q21 2 48 3.5t50 1.5q52 0 89.5 -11t61.5 -31t35 -47
t11 -60zM550 0v497h63v-497h-63z" />
    <glyph glyph-name="uni044C" unicode="&#x44c;" horiz-adv-x="482" 
d="M388 152q0 23 -7.5 42.5t-24 34t-45 22.5t-68.5 8q-22 0 -45.5 -2t-38.5 -4v-197q18 -6 43 -9t51 -3q65 0 100 30t35 78zM454 160q0 -35 -14.5 -65.5t-42 -53t-68 -35t-91.5 -12.5q-31 0 -71 3.5t-71 8.5v491h63v-193q21 2 48 3.5t50 1.5q52 0 89.5 -11t61.5 -31t35 -47
t11 -60z" />
    <glyph glyph-name="uni044D" unicode="&#x44d;" horiz-adv-x="460" 
d="M415 249q0 -58 -17 -105.5t-49.5 -81t-77.5 -51t-100 -17.5q-29 0 -63 5.5t-58 15.5v58q29 -13 62.5 -20.5t63.5 -7.5q41 0 73.5 13.5t54.5 38.5t33.5 59.5t11.5 75.5h-243v49h242q-6 84 -51 128.5t-122 44.5q-29 0 -59 -5.5t-58 -15.5v51q27 10 58.5 15t65.5 5
q111 0 172 -65.5t61 -189.5z" />
    <glyph glyph-name="uni044E" unicode="&#x44e;" horiz-adv-x="741" 
d="M631 249q0 96 -41 150.5t-109 54.5q-33 0 -61 -13.5t-48 -39.5t-30.5 -65t-10.5 -88q0 -96 40.5 -150t109.5 -54q34 0 61.5 13t47.5 39.5t30.5 65t10.5 87.5zM696 253q0 -55 -14.5 -102.5t-43 -83t-70.5 -55.5t-94 -20q-93 0 -148 61.5t-58 178.5h-109v-232h-63v497h63
v-215h110q4 45 19.5 84.5t42.5 71t66.5 49.5t90.5 18q47 0 85 -15.5t65.5 -47t42.5 -79t15 -110.5z" />
    <glyph glyph-name="uni044F" unicode="&#x44f;" horiz-adv-x="499" 
d="M340 0v216h-82l-154 -216h-77l125 171q9 12 20.5 26.5t21.5 24.5q-63 11 -95.5 44t-32.5 90q0 71 50 109t150 38q31 0 66.5 -1.5t70.5 -4.5v-497h-63zM340 450q-21 2 -42.5 3.5t-41.5 1.5q-65 0 -94.5 -25.5t-29.5 -70.5t30.5 -69.5t95.5 -24.5h82v185z" />
    <glyph glyph-name="uni0450" unicode="&#x450;" horiz-adv-x="503" 
d="M431 18q-36 -12 -77 -19t-82 -7q-112 0 -169 63.5t-57 195.5q0 54 14.5 100.5t42 81t68 53.5t90.5 19q49 0 85 -16t59.5 -44t34.5 -65t11 -81q0 -23 -3 -52h-337q0 -102 42 -152.5t126 -50.5q37 0 75.5 7t76.5 20v-53zM386 295q4 77 -31.5 118.5t-97.5 41.5
q-58 0 -98.5 -41.5t-45.5 -118.5h273zM261 576l-125 128l44 39l116 -136z" />
    <glyph glyph-name="uni0451" unicode="&#x451;" horiz-adv-x="503" 
d="M209 658q0 -18 -12 -30.5t-31 -12.5q-18 0 -30.5 12.5t-12.5 30.5q0 19 12.5 31t30.5 12q19 0 31 -12t12 -31zM394 658q0 -18 -12.5 -30.5t-30.5 -12.5t-30.5 12.5t-12.5 30.5q0 19 12.5 31t30.5 12t30.5 -12t12.5 -31zM431 18q-36 -12 -77 -19t-82 -7q-112 0 -169 63.5
t-57 195.5q0 54 14.5 100.5t42 81t68 53.5t90.5 19q49 0 85 -16t59.5 -44t34.5 -65t11 -81q0 -23 -3 -52h-337q0 -102 42 -152.5t126 -50.5q37 0 75.5 7t76.5 20v-53zM386 295q4 77 -31.5 118.5t-97.5 41.5q-58 0 -98.5 -41.5t-45.5 -118.5h273z" />
    <glyph glyph-name="uni0452" unicode="&#x452;" horiz-adv-x="579" 
d="M489 207q0 -91 -4 -150t-12 -96t-20.5 -59t-31.5 -41q-20 -20 -47.5 -33t-69.5 -24l-14 48q31 8 51.5 18t34.5 24t23 31.5t15 47t9 79t3 127.5v20q0 76 -6.5 125t-20.5 77t-35.5 40t-52.5 12q-32 0 -59.5 -15.5t-48 -43.5t-32 -64t-11.5 -76v-254h-63v594h-97v50h97v86
h63v-86h146v-50h-146v-114q0 -26 -2 -52.5t-6 -43.5h1q10 27 26.5 49t39 38t49.5 25t57 9q45 0 75.5 -15t50.5 -48.5t29 -87t9 -132.5v-15z" />
    <glyph glyph-name="uni0453" unicode="&#x453;" horiz-adv-x="373" 
d="M159 446v-446h-63v497h248v-51h-185zM205 576l-35 31l116 136l44 -39z" />
    <glyph glyph-name="uni0454" unicode="&#x454;" horiz-adv-x="445" 
d="M411 19q-30 -13 -64 -19t-70 -6q-51 0 -92 12.5t-72 40.5t-49 75.5t-18 117.5q0 59 15 107t45 83t74.5 54t101.5 19q35 0 66 -5.5t56 -13.5v-57q-28 12 -61 19.5t-69 7.5t-65 -12.5t-49.5 -36t-32 -55.5t-14.5 -69h240v-49h-241q0 -42 10.5 -76t31.5 -58.5t54.5 -38.5
t80.5 -14q27 0 57.5 6.5t64.5 20.5v-53z" />
    <glyph glyph-name="uni0455" unicode="&#x455;" horiz-adv-x="431" 
d="M375 135q0 -29 -12 -55.5t-37 -46.5t-61 -30.5t-80 -10.5q-32 0 -62 3.5t-60 9.5v61q31 -9 64 -15t65 -6q57 0 87.5 22t30.5 63q0 28 -15 45.5t-35.5 27.5t-69 26t-74.5 32t-42.5 42t-16.5 66q0 61 48.5 98.5t134.5 37.5q23 0 47.5 -2t52.5 -6v-57q-25 6 -53.5 10
t-52.5 4q-55 0 -84 -21t-29 -59q0 -26 13.5 -42.5t33.5 -26.5t71.5 -27.5t78 -34t42 -42.5t15.5 -66z" />
    <glyph glyph-name="uni0456" unicode="&#x456;" horiz-adv-x="255" 
d="M172 658q0 -18 -13 -31.5t-32 -13.5q-18 0 -31.5 13t-13.5 32t13.5 32t31.5 13q19 0 32 -13t13 -32zM96 0v497h63v-497h-63z" />
    <glyph glyph-name="uni0457" unicode="&#x457;" horiz-adv-x="255" 
d="M87 658q0 -18 -12.5 -30.5t-30.5 -12.5q-19 0 -31 12.5t-12 30.5q0 19 12 31t31 12q18 0 30.5 -12t12.5 -31zM254 658q0 -18 -12.5 -30.5t-30.5 -12.5t-30.5 12.5t-12.5 30.5q0 19 12.5 31t30.5 12q19 0 31 -12t12 -31zM96 0v497h63v-497h-63z" />
    <glyph glyph-name="uni0458" unicode="&#x458;" horiz-adv-x="255" 
d="M173 658q0 -18 -13 -31.5t-32 -13.5t-32.5 13t-13.5 32t13.5 32t32.5 13t32 -12.5t13 -32.5zM159 -44q0 -42 -8 -73t-24 -56t-39.5 -45t-54.5 -40l-30 43q25 17 42.5 33t29 35.5t16.5 44t5 58.5v541h63v-541z" />
    <glyph glyph-name="uni0459" unicode="&#x459;" horiz-adv-x="761" 
d="M375 446h-194q0 -131 -9.5 -217t-28.5 -137t-50 -73t-83 -25v57q32 4 51 22.5t32 63.5t19.5 131.5t6.5 228.5h319v-193q21 2 48 3.5t50 1.5q51 0 88.5 -11t61.5 -30.5t35.5 -47t11.5 -60.5q0 -35 -14.5 -65.5t-42.5 -53t-68.5 -35t-90.5 -12.5q-31 0 -71 3.5t-71 8.5v440
zM438 56q18 -6 43 -9t51 -3q64 0 99.5 29.5t35.5 78.5q0 24 -7.5 43t-24.5 33.5t-45 22.5t-68 8q-21 0 -44.5 -2t-39.5 -4v-197z" />
    <glyph glyph-name="uni045A" unicode="&#x45a;" horiz-adv-x="797" 
d="M702 152q0 23 -7.5 42.5t-24 34t-44.5 22.5t-68 8q-22 0 -45.5 -2t-38.5 -4v-197q18 -6 43 -9t51 -3q64 0 99 30t35 78zM474 304q21 2 48 3.5t50 1.5q51 0 89 -11t61.5 -31t35 -47t11.5 -60q0 -35 -14.5 -65.5t-42 -53t-68 -35t-91.5 -12.5q-32 0 -72 3.5t-70 8.5v226
h-252v-232h-63v497h63v-213h252v213h63v-193z" />
    <glyph glyph-name="uni045B" unicode="&#x45b;" horiz-adv-x="580" 
d="M421 0v322q0 66 -22.5 98.5t-78.5 32.5q-35 0 -64.5 -16t-51 -45t-33 -69t-11.5 -86v-237h-63v594h-97v50h97v86h63v-86h146v-50h-146v-117q0 -26 -2 -52.5t-6 -44.5l1 -1q22 59 69 92.5t112 33.5q41 0 70.5 -12t47 -33.5t25 -50.5t7.5 -64v-345h-63z" />
    <glyph glyph-name="uni045C" unicode="&#x45c;" horiz-adv-x="473" 
d="M360 0l-201 258v-258h-63v497h63v-232l201 232h74l-206 -230l216 -267h-84zM250 576l-35 31l116 136l44 -39z" />
    <glyph glyph-name="uni045D" unicode="&#x45d;" horiz-adv-x="567" 
d="M408 0v308q0 29 1.5 58t3.5 53h-1q-12 -25 -28.5 -55t-32.5 -56l-191 -308h-64v497h63v-296q0 -36 -1 -65.5t-3 -48.5h1q14 25 31 54t34 55l186 301h64v-497h-63zM293 576l-125 128l44 39l116 -136z" />
    <glyph glyph-name="uni045E" unicode="&#x45e;" horiz-adv-x="464" 
d="M254 -30q-25 -66 -49.5 -119.5t-49.5 -101.5h-71q31 54 58 108.5t48 108.5l14 34l-192 497h74l112 -307q13 -35 21.5 -61.5t16.5 -53.5h1q7 22 20.5 63t29.5 87l96 272h69zM380 715q0 -25 -8.5 -46.5t-26 -38t-45.5 -26t-65 -9.5q-35 0 -62 8.5t-45 24t-27.5 38
t-9.5 49.5h59q0 -38 21.5 -57.5t65.5 -19.5q42 0 63 20.5t21 56.5h59z" />
    <glyph glyph-name="uni045F" unicode="&#x45f;" horiz-adv-x="574" 
d="M316 0v-148h-57v148h-163v497h63v-446h256v446h63v-497h-162z" />
    <glyph glyph-name="uni0462" unicode="&#x462;" horiz-adv-x="657" 
d="M254 395h100q61 0 106.5 -14.5t75 -40t44 -60t14.5 -74.5q0 -100 -68.5 -154.5t-187.5 -54.5q-24 0 -49.5 0.5t-47 1t-35.5 1t-16 0.5v537h-171v51h171v117h64v-117h214v-51h-214v-142zM254 51q1 0 28 -1t62 -1q95 0 139.5 40t44.5 109q0 32 -10 58.5t-32 45.5t-57 29.5
t-84 10.5h-91v-291z" />
    <glyph glyph-name="uni0463" unicode="&#x463;" horiz-adv-x="506" 
d="M183 448v-147q21 2 48 3.5t50 1.5q53 0 90.5 -11t61 -31t34.5 -47t11 -59q0 -35 -14 -64.5t-41.5 -52t-68 -35t-92.5 -12.5q-32 0 -71.5 3.5t-70.5 8.5v442h-114v49h114v168l63 17v-185h153v-49h-153zM183 55q19 -6 43.5 -9t50.5 -3q67 0 101 30.5t34 77.5q0 22 -7 41
t-24 33.5t-44.5 23t-69.5 8.5q-23 0 -46.5 -2t-37.5 -4v-196z" />
    <glyph glyph-name="uni0472" unicode="&#x472;" horiz-adv-x="707" 
d="M659 344q0 -86 -25 -151.5t-68 -110t-100 -67.5t-121 -23q-73 0 -128.5 24.5t-93 69.5t-56.5 107.5t-19 137.5q0 85 25 151t68 110.5t100 67.5t121 23q70 0 125 -23.5t93.5 -67.5t58.5 -106.5t20 -141.5zM591 375q-11 122 -72.5 188t-165.5 66q-47 0 -88.5 -17
t-73.5 -49.5t-51.5 -79.5t-23.5 -108h475zM115 324q2 -62 18 -113t46 -87.5t73.5 -57t100.5 -20.5q49 0 92 18t75 53.5t51.5 87t20.5 119.5h-477z" />
    <glyph glyph-name="uni0473" unicode="&#x473;" horiz-adv-x="540" 
d="M495 253q0 -54 -15 -102t-44 -83t-73 -55.5t-101 -20.5q-49 0 -89 15.5t-68.5 46.5t-44 78.5t-15.5 111.5q0 54 15 102t44 83t73 55.5t101 20.5q49 0 89 -15.5t68.5 -46.5t44 -78.5t15.5 -111.5zM429 279q-3 39 -14 71t-31 55.5t-48 36.5t-65 13q-73 0 -113.5 -47.5
t-46.5 -128.5h318zM110 232q3 -89 44 -139t115 -50q68 0 112.5 46t48.5 143h-320z" />
    <glyph glyph-name="uni0474" unicode="&#x474;" horiz-adv-x="604" 
d="M266 0l-250 675h74l165 -462q11 -31 23.5 -69t23.5 -74h1q8 33 20 72.5t23 78.5l77 252q17 58 32 97t34.5 63t45.5 34.5t66 10.5q13 0 37 -2v-56q-24 2 -41 2q-19 0 -32.5 -6t-25.5 -24.5t-24.5 -52t-30.5 -88.5l-145 -451h-73z" />
    <glyph glyph-name="uni0475" unicode="&#x475;" horiz-adv-x="490" 
d="M503 444q-8 2 -18 3t-21 1q-13 0 -22.5 -4.5t-17.5 -16.5t-16.5 -33t-20.5 -54l-116 -340h-73l-186 497h72l113 -319q9 -26 19.5 -58t18.5 -60h1q8 29 16 56.5t17 56.5l57 178q12 40 23.5 68.5t26.5 47t36 27.5t54 9q17 0 37 -3v-56z" />
    <glyph glyph-name="uni0490" unicode="&#x490;" horiz-adv-x="425" 
d="M160 622v-622h-64v675h264v129h58v-182h-258z" />
    <glyph glyph-name="uni0491" unicode="&#x491;" horiz-adv-x="373" 
d="M159 446v-446h-63v497h191v125h57v-176h-185z" />
    <glyph glyph-name="uni0492" unicode="&#x492;" horiz-adv-x="465" 
d="M106 675h332v-53h-267v-249h206v-52h-206v-321h-65v321h-85v52h85v302z" />
    <glyph glyph-name="uni0493" unicode="&#x493;" horiz-adv-x="383" 
d="M106 497h248v-51h-185v-165h125v-52h-125v-229h-63v229h-83v52h83v216z" />
    <glyph glyph-name="uni0496" unicode="&#x496;" horiz-adv-x="840" 
d="M828 -158h-58v158h-64l-276 342v-342h-65v342l-278 -342h-84l294 345l-285 330h79l274 -327v327h65v-327l275 327h76l-283 -326l254 -296h76v-211z" />
    <glyph glyph-name="uni0497" unicode="&#x497;" horiz-adv-x="687" 
d="M614 -148v148h-60l-190 257v-257h-63v257l-192 -257h-80l203 265l-192 232h76l185 -233v233h63v-233l187 233h74l-193 -231l167 -215h72v-199h-57z" />
    <glyph glyph-name="uni0498" unicode="&#x498;" horiz-adv-x="522" 
d="M52 71q35 -11 76 -18t88 -7q54 0 89 12t55.5 31.5t29 45t8.5 53.5q0 41 -17.5 67.5t-47 42.5t-69.5 22t-85 6h-41v50h42q94 0 145.5 33.5t51.5 98.5q0 22 -6 44t-23 40t-47.5 29t-78.5 11q-36 0 -73 -7t-69 -18v54q33 9 69.5 15.5t82.5 6.5q56 0 95.5 -13t65 -35.5
t37.5 -52t12 -63.5q0 -57 -32.5 -99.5t-94.5 -60.5v-1q39 -7 67.5 -22.5t46.5 -37.5t27 -48.5t9 -55.5q0 -32 -10.5 -64t-34 -59.5t-61.5 -47.5t-94 -27v-154h-59v151q-42 0 -81 4.5t-73 14.5v59z" />
    <glyph glyph-name="uni0499" unicode="&#x499;" horiz-adv-x="436" 
d="M48 64q32 -11 70 -16.5t70 -5.5q69 0 100.5 29t31.5 70q0 51 -43 73t-115 22h-51v49h51q140 0 140 88q0 33 -27.5 58t-96.5 25q-25 0 -57 -5.5t-61 -15.5v52q63 18 130 18q49 0 82.5 -10.5t54.5 -28t30 -40t9 -46.5q0 -37 -22.5 -69.5t-67.5 -43.5v-1q54 -12 82 -40.5
t28 -78.5q0 -26 -9.5 -51t-28.5 -45.5t-48.5 -35t-68.5 -20.5v-143h-58v140q-34 1 -65 4t-60 11v57z" />
    <glyph glyph-name="uni049A" unicode="&#x49a;" horiz-adv-x="599" 
d="M587 -158h-59v158h-64l-304 342v-342h-64v675h64v-327l304 327h79l-311 -326l278 -296h77v-211z" />
    <glyph glyph-name="uni049B" unicode="&#x49b;" horiz-adv-x="485" 
d="M473 -148h-57v148h-56l-201 258v-258h-63v497h63v-232l201 232h74l-206 -231l176 -215h69v-199z" />
    <glyph glyph-name="uni049C" unicode="&#x49c;" horiz-adv-x="675" 
d="M655 0h-86l-258 328h-26v-141h-50v141h-75v-328h-64v675h64v-295h75v135h50v-135h26l257 295h76l-283 -317z" />
    <glyph glyph-name="uni049D" unicode="&#x49d;" horiz-adv-x="580" 
d="M289 235h-35v-105h-47v105h-48v-235h-63v497h63v-211h48v100h47v-100h35l170 211h73l-192 -230l209 -267h-81z" />
    <glyph glyph-name="uni04A0" unicode="&#x4a0;" horiz-adv-x="676" 
d="M564 0l-303 342v-342h-64v622h-178v53h242v-327l304 327h79l-311 -326l323 -349h-92z" />
    <glyph glyph-name="uni04A1" unicode="&#x4a1;" horiz-adv-x="529" 
d="M284 266l216 -266h-84l-201 258v-258h-63v446h-151v51h214v-232l201 232h74z" />
    <glyph glyph-name="uni04A2" unicode="&#x4a2;" horiz-adv-x="715" 
d="M686 53v-211h-59v158h-100v324h-367v-324h-64v675h64v-298h367v298h65v-622h94z" />
    <glyph glyph-name="uni04A3" unicode="&#x4a3;" horiz-adv-x="590" 
d="M560 51v-199h-57v148h-83v232h-261v-232h-63v497h63v-213h261v213h63v-446h77z" />
    <glyph glyph-name="uni04AA" unicode="&#x4aa;" horiz-adv-x="595" 
d="M541 22q-37 -11 -80 -19t-91 -10v-151h-59v153q-127 13 -193 98t-66 231q0 75 18.5 140.5t57 114t98.5 76t143 27.5q42 0 84 -7t80 -20v-64q-89 37 -178 37q-62 0 -106 -23.5t-73 -64t-42.5 -93.5t-13.5 -113q0 -137 61 -211.5t180 -74.5q40 0 88.5 8.5t91.5 22.5v-57z
" />
    <glyph glyph-name="uni04AB" unicode="&#x4ab;" horiz-adv-x="434" 
d="M398 14q-29 -8 -55 -13t-57 -7v-142h-58v144q-35 3 -68 16t-58.5 40.5t-40.5 72t-15 110.5q0 131 61.5 199.5t169.5 68.5q32 0 61.5 -5.5t55.5 -13.5v-58q-31 12 -60 19t-61 7q-78 0 -119 -55.5t-41 -152.5q0 -40 7 -76t24.5 -63t48 -42.5t77.5 -15.5q35 0 65.5 6
t62.5 14v-53z" />
    <glyph glyph-name="uni04AE" unicode="&#x4ae;" horiz-adv-x="519" 
d="M291 267v-267h-64v267l-222 408h72l130 -242q16 -29 28 -55t26 -57h1q16 35 29.5 62.5t26.5 50.5l128 241h68z" />
    <glyph glyph-name="uni04AF" unicode="&#x4af;" horiz-adv-x="469" 
d="M264 0v-251h-63v251l-189 497h73l122 -341q8 -23 14.5 -43t12.5 -42h1q6 20 13 41.5t14 41.5l124 343h70z" />
    <glyph glyph-name="uni04B0" unicode="&#x4b0;" horiz-adv-x="531" 
d="M295 247h168v-51h-168v-196h-64v196h-168v51h168l-211 428h71l120 -250q15 -31 28 -61t26 -61h1q13 32 28 65.5t32 66.5l117 240h67z" />
    <glyph glyph-name="uni04B1" unicode="&#x4b1;" horiz-adv-x="469" 
d="M413 50v-50h-149v-251h-63v251h-150v50h148l-187 447h73l119 -301q19 -45 30 -89h2q6 23 14 45.5t16 41.5l121 303h70l-191 -447h147z" />
    <glyph glyph-name="uni04B2" unicode="&#x4b2;" horiz-adv-x="610" 
d="M598 53v-211h-58v158h-64l-191 301l-189 -301h-74l226 349l-212 326h75l175 -275l173 275h73l-209 -320l199 -302h76z" />
    <glyph glyph-name="uni04B3" unicode="&#x4b3;" horiz-adv-x="537" 
d="M399 0l-146 208l-146 -208h-80l191 248l-181 249h80l141 -203l145 203h73l-183 -245l154 -201h75v-199h-57v148h-66z" />
    <glyph glyph-name="uni04B6" unicode="&#x4b6;" horiz-adv-x="644" 
d="M615 -158h-58v158h-100v298q-37 -14 -80 -22.5t-92 -8.5q-71 0 -115 17.5t-69 46.5t-34 67.5t-9 79.5v197h65v-184q0 -38 7 -69t25.5 -54t51.5 -35.5t85 -12.5q47 0 87.5 8.5t77.5 22.5v324h64v-622h94v-211z" />
    <glyph glyph-name="uni04B7" unicode="&#x4b7;" horiz-adv-x="535" 
d="M447 -148v148h-82v221q-32 -17 -69 -26.5t-81 -9.5q-47 0 -78.5 13t-50 35.5t-26 52t-7.5 62.5v149h63v-134q0 -31 5 -54.5t17 -40t33.5 -25t54.5 -8.5q35 0 69.5 8.5t69.5 28.5v225h63v-446h76v-199h-57z" />
    <glyph glyph-name="uni04B8" unicode="&#x4b8;" horiz-adv-x="627" 
d="M467 0v298q-37 -14 -71.5 -21t-74.5 -10v-131h-50v132q-65 2 -106.5 19.5t-65 46t-32.5 66t-9 78.5v197h65v-184q0 -37 6.5 -67t23 -51.5t45.5 -34.5t73 -16v142h50v-144q38 2 73.5 9.5t72.5 21.5v324h64v-675h-64z" />
    <glyph glyph-name="uni04B9" unicode="&#x4b9;" horiz-adv-x="540" 
d="M381 0v221q-54 -28 -110 -33v-95h-47v92q-50 0 -83 13.5t-52.5 36t-27.5 52t-8 63.5v147h63v-133q0 -30 4.5 -53.5t16.5 -40t33 -25t54 -9.5v111h47v-110q29 2 56 11.5t54 23.5v225h63v-497h-63z" />
    <glyph glyph-name="uni04BA" unicode="&#x4ba;" horiz-adv-x="652" 
d="M494 0v206q0 37 -7 69t-26 54.5t-51.5 35.5t-84.5 13q-47 0 -88 -9t-77 -23v-346h-64v675h64v-276q37 14 80 22.5t92 8.5q70 0 114.5 -17.5t69 -47t33.5 -67.5t9 -79v-219h-64z" />
    <glyph glyph-name="uni04BB" unicode="&#x4bb;" horiz-adv-x="579" 
d="M420 0v322q0 66 -22.5 99t-78.5 33q-35 0 -64.5 -16t-51 -45.5t-33 -69t-11.5 -86.5v-237h-63v730h63v-251q0 -29 -2 -55.5t-6 -43.5l2 -1q22 59 69 92.5t111 33.5q42 0 71 -12t46.5 -33.5t25 -50t7.5 -63.5v-346h-63z" />
    <glyph glyph-name="uni04C1" unicode="&#x4c1;" horiz-adv-x="797" 
d="M365 675h65v-327l275 327h76l-283 -326l296 -349h-88l-276 342v-342h-65v342l-278 -342h-84l294 345l-285 330h79l274 -327v327zM544 842q0 -24 -8.5 -45.5t-26 -38t-45.5 -26t-65 -9.5q-69 0 -106.5 32t-37.5 87h59q0 -37 21.5 -56t65.5 -19q42 0 63 20t21 55h59z" />
    <glyph glyph-name="uni04C2" unicode="&#x4c2;" horiz-adv-x="665" 
d="M553 0l-189 257v-257h-63v257l-192 -257h-80l204 265l-193 232h75l186 -233v233h63v-233l188 233h72l-193 -231l205 -266h-83zM479 715q0 -25 -8.5 -46.5t-26 -38t-45.5 -26t-65 -9.5q-35 0 -62 8.5t-45 24t-27.5 38t-9.5 49.5h59q0 -38 21.5 -57.5t65.5 -19.5
q42 0 63 20.5t21 56.5h59z" />
    <glyph glyph-name="uni04D8" unicode="&#x4d8;" horiz-adv-x="601" 
d="M483 372q-4 64 -22 112.5t-49 80.5t-73.5 47.5t-94.5 15.5q-46 0 -90 -11.5t-81 -27.5v57q38 16 83 26t99 10q69 0 124 -21.5t94 -65t59.5 -108.5t20.5 -149q0 -80 -18.5 -144t-54 -109.5t-86 -69t-112.5 -23.5q-64 0 -111 21.5t-76 61t-43 94.5t-14 124q0 12 1 33.5
t3 45.5h441zM107 320v-24q0 -65 12 -112.5t35.5 -77.5t57 -44t75.5 -14q49 0 86 19.5t61.5 56t37 86t12.5 110.5h-377z" />
    <glyph glyph-name="uni04D9" unicode="&#x4d9;" horiz-adv-x="497" 
d="M385 280q-6 90 -49.5 132.5t-121.5 42.5q-37 0 -72.5 -7.5t-66.5 -21.5v54q22 9 63.5 17t84.5 8q111 0 170 -63t59 -192q0 -58 -15 -106.5t-42 -82t-67.5 -51.5t-92.5 -18q-51 0 -86.5 16.5t-58 46.5t-33.5 71.5t-11 91.5q0 31 3 62h336zM112 232q-1 -8 -1 -12v-8
q0 -88 35.5 -128t96.5 -40q35 0 61.5 14t45 39t27.5 60t9 75h-274z" />
    <glyph glyph-name="uni04E2" unicode="&#x4e2;" horiz-adv-x="694" 
d="M534 0v484q0 56 6 107h-1q-11 -20 -23 -40.5t-25 -40.5l-332 -510h-63v675h64v-498q0 -19 -1 -41t-3 -46h1q9 18 20 37.5t23 37.5l332 510h66v-675h-64zM216 753v48h264v-48h-264z" />
    <glyph glyph-name="uni04E3" unicode="&#x4e3;" horiz-adv-x="567" 
d="M408 0v308q0 29 1.5 58t3.5 53h-1q-12 -25 -28.5 -55t-32.5 -56l-191 -308h-64v497h63v-296q0 -36 -1 -65.5t-3 -48.5h1q14 25 31 54t34 55l186 301h64v-497h-63zM164 629v48h240v-48h-240z" />
    <glyph glyph-name="uni04E8" unicode="&#x4e8;" horiz-adv-x="707" 
d="M659 344q0 -86 -25 -151.5t-68 -110t-100 -67.5t-121 -23q-73 0 -128.5 24.5t-93 69.5t-56.5 107.5t-19 137.5q0 85 25 151t68 110.5t100 67.5t121 23q70 0 125 -23.5t93.5 -67.5t58.5 -106.5t20 -141.5zM591 375q-11 122 -72.5 188t-165.5 66q-47 0 -88.5 -17
t-73.5 -49.5t-51.5 -79.5t-23.5 -108h475zM115 324q2 -62 18 -113t46 -87.5t73.5 -57t100.5 -20.5q49 0 92 18t75 53.5t51.5 87t20.5 119.5h-477z" />
    <glyph glyph-name="uni04E9" unicode="&#x4e9;" horiz-adv-x="540" 
d="M495 253q0 -54 -15 -102t-44 -83t-73 -55.5t-101 -20.5q-49 0 -89 15.5t-68.5 46.5t-44 78.5t-15.5 111.5q0 54 15 102t44 83t73 55.5t101 20.5q49 0 89 -15.5t68.5 -46.5t44 -78.5t15.5 -111.5zM429 279q-3 39 -14 71t-31 55.5t-48 36.5t-65 13q-73 0 -113.5 -47.5
t-46.5 -128.5h318zM110 232q3 -89 44 -139t115 -50q68 0 112.5 46t48.5 143h-320z" />
    <glyph glyph-name="uni04EE" unicode="&#x4ee;" horiz-adv-x="552" 
d="M320 146q-17 -43 -35.5 -72.5t-39.5 -47t-45 -26t-53 -8.5q-13 0 -30 2.5t-31 6.5v59q34 -13 65 -13q20 0 34.5 4.5t27 15t24.5 30t26 49.5l-235 529h72l147 -342q31 -76 34.5 -84.5t10.5 -33.5l1 -1q6 16 24 63t29 73l123 325h67zM151 753v48h264v-48h-264z" />
    <glyph glyph-name="uni04EF" unicode="&#x4ef;" horiz-adv-x="464" 
d="M254 -30q-25 -66 -49.5 -119.5t-49.5 -101.5h-71q31 54 58 108.5t48 108.5l14 34l-192 497h74l112 -307q13 -35 21.5 -61.5t16.5 -53.5h1q7 22 20.5 63t29.5 87l96 272h69zM112 629v48h240v-48h-240z" />
    <glyph glyph-name="uni1E02" unicode="&#x1e02;" horiz-adv-x="563" 
d="M439 189q0 34 -11.5 59t-36.5 42t-64 25.5t-94 8.5h-42t-31 -1v-268q15 -2 44.5 -4t52.5 -2q47 0 81.5 10.5t57 30t33 44.5t10.5 55zM415 505q0 27 -7.5 48.5t-25.5 38t-49.5 26t-77.5 9.5q-17 0 -40.5 -1t-54.5 -2v-250q15 -1 30 -1h47q87 0 132.5 34t45.5 98zM506 195
q0 -33 -12.5 -67t-42 -64t-80 -48.5t-122.5 -18.5q-30 0 -91.5 1.5l-61.5 1.5v675q21 1 68.5 2t99.5 1q111 0 164.5 -43.5t53.5 -118.5q0 -56 -32.5 -99t-89.5 -61v-1q33 -5 60 -18t46 -33.5t29.5 -47.5t10.5 -61zM310 779q0 -18 -13 -31.5t-32 -13.5q-18 0 -31.5 13
t-13.5 32t13.5 32t31.5 13q19 0 32 -13t13 -32z" />
    <glyph glyph-name="uni1E03" unicode="&#x1e03;" horiz-adv-x="558" 
d="M444 265q0 91 -31.5 140t-96.5 49q-38 0 -68 -20t-49.5 -52t-29.5 -69.5t-10 -72.5v-181q12 -4 40 -9.5t64 -5.5q85 0 133 54t48 167zM510 271q0 -66 -18 -118t-51.5 -87.5t-80 -53.5t-103.5 -18q-54 0 -98 7t-63 11v718h63v-261q0 -22 -2.5 -47t-6.5 -43l2 -1
q21 60 67.5 93.5t106.5 33.5q89 0 136.5 -59.5t47.5 -174.5zM173 849q0 -18 -13 -31.5t-32 -13.5q-18 0 -31.5 13t-13.5 32t13.5 32t31.5 13q19 0 32 -13t13 -32z" />
    <glyph glyph-name="uni1E0A" unicode="&#x1e0a;" horiz-adv-x="686" 
d="M567 339q0 143 -73.5 215t-216.5 72q-48 0 -117 -3v-566q53 -7 103 -7q69 0 124.5 17.5t96 53t62 90.5t21.5 128zM634 343q0 -85 -27.5 -150.5t-78.5 -109t-120.5 -65t-153.5 -21.5q-33 0 -84.5 2t-73.5 1v675q24 0 89 1.5t100 1.5q84 0 148.5 -20.5t109.5 -62t68 -104.5
t23 -148zM350 779q0 -18 -13 -31.5t-32 -13.5q-18 0 -31.5 13t-13.5 32t13.5 32t31.5 13q19 0 32 -13t13 -32z" />
    <glyph glyph-name="uni1E0B" unicode="&#x1e0b;" horiz-adv-x="558" 
d="M399 440q-52 13 -104 13q-88 0 -134 -56t-46 -165q0 -92 32 -140.5t95 -48.5q34 0 63.5 17.5t50.5 49t32 72t11 82.5v176zM398 0q0 13 0.5 28.5t2 31t3 29.5t3.5 25l-2 1q-21 -57 -67.5 -90t-105.5 -33q-90 0 -137 60.5t-47 173.5q0 65 17.5 117t51 88t80.5 54t104 18
q44 0 98 -6v233h63v-730h-64zM475 849q0 -18 -13 -31.5t-32 -13.5q-18 0 -31.5 13t-13.5 32t13.5 32t31.5 13q19 0 32 -13t13 -32z" />
    <glyph glyph-name="uni1E1E" unicode="&#x1e1e;" horiz-adv-x="500" 
d="M160 623v-251h283v-51h-283v-321h-64v675h365v-52h-301zM328 779q0 -18 -13 -31.5t-32 -13.5q-18 0 -31.5 13t-13.5 32t13.5 32t31.5 13q19 0 32 -13t13 -32z" />
    <glyph glyph-name="uni1E1F" unicode="&#x1e1f;" horiz-adv-x="346" 
d="M375 673q-14 3 -37 6.5t-47 3.5q-60 0 -84 -34.5t-24 -108.5v-43h153v-50h-153v-447h-63v447h-114v50h114v41q0 101 43.5 149t132.5 48q42 0 79 -8v-54zM302 849q0 -18 -13 -31.5t-32 -13.5q-18 0 -31.5 13t-13.5 32t13.5 32t31.5 13q19 0 32 -13t13 -32z" />
    <glyph glyph-name="uni1E40" unicode="&#x1e40;" horiz-adv-x="892" 
d="M767 0l-62 439q-9 62 -14.5 106t-6.5 72h-2q-5 -18 -12.5 -42t-23.5 -70l-179 -505h-58l-169 476q-24 67 -32 90.5t-15 50.5h-1q-2 -37 -6 -79t-11 -105l-51 -433h-66l91 675h88l171 -481q10 -25 18.5 -53t14.5 -55h1q6 28 14 56t17 52l172 481h93l96 -675h-67zM489 779
q0 -18 -13 -31.5t-32 -13.5q-18 0 -31.5 13t-13.5 32t13.5 32t31.5 13q19 0 32 -13t13 -32z" />
    <glyph glyph-name="uni1E41" unicode="&#x1e41;" horiz-adv-x="888" 
d="M729 0v322q0 32 -4.5 56t-15 41t-29.5 26t-47 9q-31 0 -59.5 -15t-50.5 -43.5t-35 -69.5t-13 -91v-235h-63v323q0 30 -4 52.5t-14 40.5t-29 28t-49 10q-32 0 -61 -16t-50.5 -45.5t-33.5 -70t-12 -87.5v-235h-63v497h64q0 -28 -2.5 -60.5t-6.5 -55.5l2 -1q21 58 68.5 91.5
t109.5 33.5q41 0 69 -13t43 -33t20.5 -40t5.5 -37q7 20 21.5 41t36 39.5t51.5 30.5t67 12q72 0 109.5 -39t37.5 -121v-345h-63zM488 659q0 -18 -13 -31.5t-32 -13.5q-18 0 -31.5 13t-13.5 32t13.5 32t31.5 13q19 0 32 -13t13 -32z" />
    <glyph glyph-name="uni1E56" unicode="&#x1e56;" horiz-adv-x="548" 
d="M443 462q0 75 -48.5 119.5t-146.5 44.5q-42 0 -88 -2v-324q47 -6 91 -6q93 0 142.5 47.5t49.5 120.5zM509 473q0 -50 -18.5 -92.5t-53.5 -74t-84.5 -48.5t-108.5 -17q-40 0 -84 4v-245h-64v675q95 3 165 3q63 0 110.5 -16.5t78 -45t45 -65.5t14.5 -78zM309 779
q0 -18 -13 -31.5t-32 -13.5q-18 0 -31.5 13t-13.5 32t13.5 32t31.5 13q19 0 32 -13t13 -32z" />
    <glyph glyph-name="uni1E57" unicode="&#x1e57;" horiz-adv-x="558" 
d="M444 265q0 91 -31.5 140t-96.5 49q-38 0 -68 -20t-49.5 -52t-29.5 -69.5t-10 -72.5v-181q23 -8 48 -11.5t56 -3.5q85 0 133 54t48 167zM510 271q0 -66 -17.5 -118t-51 -87t-80 -53t-103.5 -18q-30 0 -51.5 1t-47.5 5v-252h-63v748h64q0 -13 -0.5 -28t-1.5 -30.5t-3 -30
t-4 -25.5l2 -1q21 57 67 90t106 33q89 0 136.5 -59.5t47.5 -174.5zM354 659q0 -18 -13 -31.5t-32 -13.5q-18 0 -31.5 13t-13.5 32t13.5 32t31.5 13q19 0 32 -13t13 -32z" />
    <glyph glyph-name="uni1E60" unicode="&#x1e60;" horiz-adv-x="504" 
d="M446 181q0 -41 -15.5 -76t-45.5 -60.5t-74 -39t-97 -13.5q-41 0 -80 5t-69 14v64q35 -13 75.5 -20.5t78.5 -7.5q34 0 63.5 7t52 23t34.5 41.5t12 58.5q0 36 -18 62t-47.5 43.5t-90.5 42.5t-94 47t-53 55.5t-20 81.5q0 36 15 68.5t44 56t70.5 36.5t93.5 13q30 0 61.5 -3.5
t55.5 -8.5v-59q-29 8 -61.5 13t-59.5 5q-75 0 -115 -31t-40 -87q0 -34 16.5 -57t43 -39.5t95 -44.5t101.5 -53t50.5 -58t17.5 -79zM297 780q0 -18 -13 -31.5t-32 -13.5q-18 0 -31.5 13t-13.5 32t13.5 32t31.5 13q19 0 32 -13t13 -32z" />
    <glyph glyph-name="uni1E61" unicode="&#x1e61;" horiz-adv-x="431" 
d="M375 135q0 -29 -12 -55.5t-37 -46.5t-61 -30.5t-80 -10.5q-32 0 -62 3.5t-60 9.5v61q31 -9 64 -15t65 -6q57 0 87.5 22t30.5 63q0 28 -15 45.5t-35.5 27.5t-69 26t-74.5 32t-42.5 42t-16.5 66q0 61 48.5 98.5t134.5 37.5q23 0 47.5 -2t52.5 -6v-57q-25 6 -53.5 10
t-52.5 4q-55 0 -84 -21t-29 -59q0 -26 13.5 -42.5t33.5 -26.5t71.5 -27.5t78 -34t42 -42.5t15.5 -66zM260 659q0 -18 -13 -31.5t-32 -13.5q-18 0 -31.5 13t-13.5 32t13.5 32t31.5 13q19 0 32 -13t13 -32z" />
    <glyph glyph-name="uni1E6A" unicode="&#x1e6a;" horiz-adv-x="520" 
d="M292 622v-622h-64v622h-209v53h482v-53h-209zM305 779q0 -18 -13 -31.5t-32 -13.5q-18 0 -31.5 13t-13.5 32t13.5 32t31.5 13q19 0 32 -13t13 -32z" />
    <glyph glyph-name="uni1E6B" unicode="&#x1e6b;" horiz-adv-x="369" 
d="M331 2q-22 -4 -44 -6.5t-42 -2.5q-37 0 -61.5 8.5t-39 25.5t-21 44.5t-6.5 66.5v309h-111v50h111v168l63 17v-185h151v-50h-151v-289q0 -33 3.5 -54t12 -33t23.5 -17.5t38 -5.5q41 0 74 9v-55zM193 779q0 -18 -13 -31.5t-32 -13.5q-18 0 -31.5 13t-13.5 32t13.5 32
t31.5 13q19 0 32 -13t13 -32z" />
    <glyph glyph-name="Wgrave" unicode="&#x1e80;" horiz-adv-x="954" 
d="M725 0h-81l-146 497q-7 22 -12.5 45.5t-9.5 44.5h-2q-5 -27 -9.5 -48.5t-10.5 -41.5l-142 -497h-83l-188 675h69l135 -487q9 -38 16 -68.5t13 -60.5h1q7 35 14 65.5t15 58.5l141 492h65l148 -501q8 -27 15.5 -57t12.5 -58h1q8 38 12 58t10 42l140 516h63zM511 732
l-172 58l23 54l164 -74z" />
    <glyph glyph-name="wgrave" unicode="&#x1e81;" horiz-adv-x="791" 
d="M607 0h-76l-117 345q-14 41 -27 91h-1q-7 -27 -14 -50.5t-23 -74.5l-97 -311h-77l-155 497h72l92 -322q7 -24 18.5 -63.5t14.5 -51.5h1q7 26 15.5 56t17.5 60l102 321h77l105 -321q5 -17 12 -39t10.5 -34.5t6.5 -23t6 -20.5h1q5 21 18.5 66t15.5 50l97 322h68zM403 576
l-125 128l44 39l116 -136z" />
    <glyph glyph-name="Wacute" unicode="&#x1e82;" horiz-adv-x="954" 
d="M725 0h-81l-146 497q-7 22 -12.5 45.5t-9.5 44.5h-2q-5 -27 -9.5 -48.5t-10.5 -41.5l-142 -497h-83l-188 675h69l135 -487q9 -38 16 -68.5t13 -60.5h1q7 35 14 65.5t15 58.5l141 492h65l148 -501q8 -27 15.5 -57t12.5 -58h1q8 38 12 58t10 42l140 516h63zM439 732l-15 38
l164 74l23 -54z" />
    <glyph glyph-name="wacute" unicode="&#x1e83;" horiz-adv-x="791" 
d="M607 0h-76l-117 345q-14 41 -27 91h-1q-7 -27 -14 -50.5t-23 -74.5l-97 -311h-77l-155 497h72l92 -322q7 -24 18.5 -63.5t14.5 -51.5h1q7 26 15.5 56t17.5 60l102 321h77l105 -321q5 -17 12 -39t10.5 -34.5t6.5 -23t6 -20.5h1q5 21 18.5 66t15.5 50l97 322h68zM371 576
l-35 31l116 136l44 -39z" />
    <glyph glyph-name="Wdieresis" unicode="&#x1e84;" horiz-adv-x="954" 
d="M725 0h-81l-146 497q-7 22 -12.5 45.5t-9.5 44.5h-2q-5 -27 -9.5 -48.5t-10.5 -41.5l-142 -497h-83l-188 675h69l135 -487q9 -38 16 -68.5t13 -60.5h1q7 35 14 65.5t15 58.5l141 492h65l148 -501q8 -27 15.5 -57t12.5 -58h1q8 38 12 58t10 42l140 516h63zM414 778
q0 -19 -12 -31t-31 -12q-18 0 -30.5 12t-12.5 31q0 18 12.5 30.5t30.5 12.5q19 0 31 -12.5t12 -30.5zM627 778q0 -19 -12.5 -31t-30.5 -12t-30.5 12t-12.5 31q0 18 12.5 30.5t30.5 12.5t30.5 -12.5t12.5 -30.5z" />
    <glyph glyph-name="wdieresis" unicode="&#x1e85;" horiz-adv-x="791" 
d="M607 0h-76l-117 345q-14 41 -27 91h-1q-7 -27 -14 -50.5t-23 -74.5l-97 -311h-77l-155 497h72l92 -322q7 -24 18.5 -63.5t14.5 -51.5h1q7 26 15.5 56t17.5 60l102 321h77l105 -321q5 -17 12 -39t10.5 -34.5t6.5 -23t6 -20.5h1q5 21 18.5 66t15.5 50l97 322h68zM341 658
q0 -18 -12 -30.5t-31 -12.5q-18 0 -30.5 12.5t-12.5 30.5q0 19 12.5 31t30.5 12q19 0 31 -12t12 -31zM526 658q0 -18 -12.5 -30.5t-30.5 -12.5t-30.5 12.5t-12.5 30.5q0 19 12.5 31t30.5 12t30.5 -12t12.5 -31z" />
    <glyph glyph-name="uni1E9E" unicode="&#x1e9e;" horiz-adv-x="684" 
d="M382 376q117 -2 181 -50.5t64 -137.5q0 -39 -15.5 -74t-45.5 -63t-73.5 -43.5t-97.5 -15.5q-28 0 -58 3.5t-64 9.5v60q31 -9 65.5 -14.5t65.5 -5.5q71 0 113.5 37t42.5 101q0 68 -49.5 104.5t-147.5 36.5h-52v44l195 252q-41 5 -77 8t-72 3q-99 0 -148 -49t-49 -146v-436
h-64v436q0 123 67.5 185.5t197.5 62.5q49 0 102 -4t113 -12v-44z" />
    <glyph glyph-name="Ygrave" unicode="&#x1ef2;" horiz-adv-x="519" 
d="M291 267v-267h-64v267l-222 408h72l130 -242q16 -29 28 -55t26 -57h1q16 35 29.5 62.5t26.5 50.5l128 241h68zM249 732l-172 58l23 54l164 -74z" />
    <glyph glyph-name="ygrave" unicode="&#x1ef3;" horiz-adv-x="464" 
d="M254 -30q-25 -66 -49.5 -119.5t-49.5 -101.5h-71q31 54 58 108.5t48 108.5l14 34l-192 497h74l112 -307q13 -35 21.5 -61.5t16.5 -53.5h1q7 22 20.5 63t29.5 87l96 272h69zM214 576l-125 128l44 39l116 -136z" />
    <glyph glyph-name="endash" unicode="&#x2013;" 
d="M0 271v54h550v-54h-550z" />
    <glyph glyph-name="emdash" unicode="&#x2014;" horiz-adv-x="1000" 
d="M123 271v54h754v-54h-754z" />
    <glyph glyph-name="uni2015" unicode="&#x2015;" horiz-adv-x="1000" 
d="M123 271v54h754v-54h-754z" />
    <glyph glyph-name="quoteleft" unicode="&#x2018;" horiz-adv-x="227" 
d="M183 720q-22 -24 -34.5 -45t-16.5 -38t-2 -30.5t9 -22.5q8 -11 8.5 -23t-4.5 -22.5t-14.5 -16.5t-21.5 -6q-23 0 -36.5 18.5t-11.5 50.5t25.5 74t70.5 87z" />
    <glyph glyph-name="quoteright" unicode="&#x2019;" horiz-adv-x="227" 
d="M119 740q22 0 35.5 -18.5t11.5 -50.5t-25 -73.5t-70 -86.5l-29 25q22 24 34.5 45t17 38.5t2 31t-9.5 22.5q-8 11 -8.5 22.5t4.5 22t15 16.5t22 6z" />
    <glyph glyph-name="quotesinglbase" unicode="&#x201a;" horiz-adv-x="227" 
d="M119 88q22 0 35.5 -18.5t11.5 -50.5t-25 -73.5t-70 -86.5l-29 25q22 24 34.5 45t17 38.5t2 31t-9.5 22.5q-8 11 -8.5 22.5t4.5 22t15 16.5t22 6z" />
    <glyph glyph-name="quotedblleft" unicode="&#x201c;" horiz-adv-x="397" 
d="M183 720q-22 -24 -34.5 -45t-16.5 -38t-2 -30.5t9 -22.5q8 -11 8.5 -23t-4.5 -22.5t-14.5 -16.5t-21.5 -6q-23 0 -36.5 18.5t-11.5 50.5t25.5 74t70.5 87zM353 720q-22 -24 -34.5 -45t-17 -38t-2.5 -30.5t9 -22.5q8 -11 9 -23t-4 -22.5t-15 -16.5t-22 -6
q-22 0 -35.5 18.5t-11.5 50.5t25 74t70 87z" />
    <glyph glyph-name="quotedblright" unicode="&#x201d;" horiz-adv-x="397" 
d="M119 740q22 0 35.5 -18.5t11.5 -50.5t-25 -73.5t-70 -86.5l-29 25q22 24 34.5 45t17 38.5t2 31t-9.5 22.5q-8 11 -8.5 22.5t4.5 22t15 16.5t22 6zM288 740q23 0 36.5 -18.5t11.5 -50.5t-25.5 -73.5t-70.5 -86.5l-28 25q22 24 34.5 45t16.5 38.5t2 31t-9 22.5
q-8 10 -8.5 22t4.5 22.5t14.5 16.5t21.5 6z" />
    <glyph glyph-name="quotedblbase" unicode="&#x201e;" horiz-adv-x="397" 
d="M119 88q22 0 35.5 -18.5t11.5 -50.5t-25 -73.5t-70 -86.5l-29 25q22 24 34.5 45t17 38.5t2 31t-9.5 22.5q-8 11 -8.5 22.5t4.5 22t15 16.5t22 6zM288 88q23 0 36.5 -18t11.5 -50.5t-25.5 -74t-70.5 -86.5l-28 25q22 24 34.5 45t16.5 38.5t2 31t-9 22.5q-8 10 -8.5 22
t4.5 22.5t14.5 16.5t21.5 6z" />
    <glyph glyph-name="dagger" unicode="&#x2020;" horiz-adv-x="442" 
d="M245 574l14 -105l-16 -248h-44l-15 248l13 105h-144v49h144l-13 138h75l-14 -138h144v-49h-144z" />
    <glyph glyph-name="daggerdbl" unicode="&#x2021;" horiz-adv-x="442" 
d="M246 302l13 -136h-76l14 136h-144v49h144l-13 112l13 113h-144v49h144l-13 136h75l-13 -136h143v-49h-143l13 -113l-13 -112h143v-49h-143z" />
    <glyph glyph-name="bullet" unicode="&#x2022;" horiz-adv-x="419" 
d="M311 297q0 -21 -8 -39.5t-22 -32t-32.5 -21.5t-39.5 -8t-39.5 8t-32 21.5t-21.5 32t-8 39.5t8 39.5t21.5 32t32 21.5t39.5 8t39.5 -8t32.5 -21.5t22 -32t8 -39.5z" />
    <glyph glyph-name="perthousand" unicode="&#x2030;" horiz-adv-x="1007" 
d="M314 541q0 -37 -10.5 -66t-29 -49.5t-43.5 -31t-53 -10.5q-59 0 -92.5 34.5t-33.5 108.5q0 36 10.5 65.5t29.5 49.5t43.5 30.5t52.5 10.5q29 0 51.5 -8t39.5 -25t26 -44t9 -65zM259 534q0 52 -17.5 77t-57.5 25q-36 0 -56 -28t-20 -75q0 -52 17.5 -77.5t56.5 -25.5
q36 0 56.5 28t20.5 76zM95 -14l-40 31l533 672l41 -32zM632 149q0 -37 -10.5 -66.5t-29 -49.5t-43.5 -30.5t-53 -10.5q-59 0 -92.5 34t-33.5 108q0 36 10.5 65.5t29.5 49.5t43.5 30.5t52.5 10.5q29 0 51.5 -8t39.5 -25t26 -44t9 -64zM576 142q0 51 -17.5 76.5t-56.5 25.5
q-36 0 -56 -28t-20 -75q0 -52 17 -77.5t57 -25.5q36 0 56 28t20 76zM944 149q0 -37 -10.5 -66.5t-29 -49.5t-43.5 -30.5t-53 -10.5q-59 0 -92.5 34t-33.5 108q0 36 10.5 65.5t29.5 49.5t43.5 30.5t52.5 10.5q29 0 51.5 -8t39.5 -25t26 -44t9 -64zM889 142q0 51 -18 76.5
t-57 25.5q-36 0 -56 -28t-20 -75q0 -52 17.5 -77.5t56.5 -25.5q36 0 56.5 28t20.5 76z" />
    <glyph glyph-name="guilsinglleft" unicode="&#x2039;" horiz-adv-x="314" 
d="M184 125l-121 169l122 171l45 -29l-102 -141l102 -139z" />
    <glyph glyph-name="guilsinglright" unicode="&#x203a;" horiz-adv-x="314" 
d="M127 125l-44 30l103 141l-101 139l45 30l121 -168z" />
    <glyph glyph-name="fraction" unicode="&#x2044;" horiz-adv-x="198" 
d="M-205 -132l-44 31l631 905l44 -31z" />
    <glyph glyph-name="fraction" unicode="&#x2215;" horiz-adv-x="198" 
d="M-205 -132l-44 31l631 905l44 -31z" />
    <glyph glyph-name="zero.superior" unicode="&#x2070;" horiz-adv-x="456" 
d="M404 576q0 -105 -45.5 -168.5t-135.5 -63.5t-130.5 59.5t-40.5 164.5t45 168.5t136 63.5q90 0 130.5 -59.5t40.5 -164.5zM342 570q0 80 -26.5 130.5t-87.5 50.5q-59 0 -86.5 -50t-27.5 -127q0 -51 10.5 -91.5t36 -65t67.5 -24.5q59 0 86.5 50t27.5 127z" />
    <glyph glyph-name="four.superior" unicode="&#x2074;" horiz-adv-x="401" 
d="M298 455v-104h-60v104h-210l-5 41l188 296h87v-285h76v-52h-76zM238 743l-152 -239q14 1 34.5 1.5t42 1t39 0.5h36.5v236z" />
    <glyph glyph-name="five.superior" unicode="&#x2075;" horiz-adv-x="360" 
d="M62 407q45 -15 90 -15q47 0 73.5 24.5t26.5 66.5q0 43 -31 65.5t-95 22.5q-25 0 -52 -3v224h215v-53h-159v-120h18q78 0 122.5 -34t44.5 -94q0 -32 -11.5 -59.5t-34 -47t-54 -30t-70.5 -10.5q-44 0 -83 9v54z" />
    <glyph glyph-name="six.superior" unicode="&#x2076;" horiz-adv-x="423" 
d="M374 496q0 -35 -12 -63t-33 -47.5t-50 -30.5t-64 -11q-36 0 -66.5 12.5t-52 38t-30.5 64t-9 86.5q0 56 12 101t39 80t71 54.5t101 19.5q25 0 56 -4v-49q-33 5 -59 5q-68 0 -109 -39q-17 -17 -27.5 -39.5t-15 -50t-8.5 -45.5q15 24 46.5 38t64.5 14q65 0 105.5 -36
t40.5 -98zM313 488q0 44 -26.5 69.5t-67.5 25.5q-20 0 -38 -6t-31.5 -18.5t-21 -30t-7.5 -37.5q0 -23 7 -40.5t19.5 -31t31 -20.5t40.5 -7q28 0 49 13t33 34t12 49z" />
    <glyph glyph-name="seven.superior" unicode="&#x2077;" horiz-adv-x="342" 
d="M307 744q-20 -42 -39.5 -91t-37.5 -101t-33 -103.5t-25 -97.5h-69q14 53 32.5 109.5t38.5 110t39.5 97.5t35.5 73q-13 -1 -37 -1.5t-54.5 -0.5h-59h-67.5v53h276v-48z" />
    <glyph glyph-name="eight.superior" unicode="&#x2078;" horiz-adv-x="418" 
d="M367 463q0 -55 -41 -87.5t-121 -32.5q-77 0 -115.5 30t-38.5 82q0 40 27 67.5t74 52.5q-44 21 -68 46.5t-24 66.5q0 51 39 82t114 31q72 0 108.5 -28.5t36.5 -76.5q0 -36 -24.5 -62t-68.5 -50q49 -22 75.5 -49.5t26.5 -71.5zM297 693q0 30 -22 46t-66 16t-66 -17t-22 -45
q0 -30 23.5 -49t68.5 -38q40 20 62 40t22 47zM306 458q0 33 -25.5 53t-76.5 42q-45 -22 -68.5 -43.5t-23.5 -50.5q0 -34 24.5 -51.5t72.5 -17.5q49 0 73 18t24 50z" />
    <glyph glyph-name="nine.superior" unicode="&#x2079;" horiz-adv-x="423" 
d="M365 598q0 -58 -13 -104t-41 -80.5t-70.5 -52t-98.5 -17.5q-21 0 -37 1.5t-32 4.5v51q19 -4 37.5 -6.5t35.5 -2.5q64 0 103.5 34t49.5 106q2 11 3 18t4 16q-16 -23 -45 -37t-66 -14q-66 0 -106 36t-40 97q0 35 12 63t34 48t50 30.5t63 10.5q36 0 64.5 -12t45.5 -29
q28 -29 37.5 -69t9.5 -92zM302 653q0 43 -28 71t-70 28q-42 -1 -68 -28.5t-26 -67.5q0 -43 26 -69t68 -26q43 0 70.5 26t27.5 66z" />
    <glyph glyph-name="uni207A" unicode="&#x207a;" horiz-adv-x="450" 
d="M254 525v-133h-58v133h-136v49h136v134h58v-134h136v-49h-136z" />
    <glyph glyph-name="uni207B" unicode="&#x207b;" horiz-adv-x="450" 
d="M60 525v49h330v-49h-330z" />
    <glyph glyph-name="uni207C" unicode="&#x207c;" horiz-adv-x="450" 
d="M60 444v48h330v-48h-330zM60 608v48h330v-48h-330z" />
    <glyph glyph-name="parenleft.superior" unicode="&#x207d;" horiz-adv-x="292" 
d="M181 191q-51 90 -76 179.5t-25 189.5q0 197 102 374l55 -16q-94 -166 -94 -354q0 -96 24 -184.5t71 -173.5z" />
    <glyph glyph-name="parenright.superior" unicode="&#x207e;" horiz-adv-x="292" 
d="M212 564q0 -197 -102 -373l-55 15q94 166 94 355q0 95 -24 183.5t-71 173.5l57 16q51 -90 76 -180t25 -190z" />
    <glyph glyph-name="zero.inferior" unicode="&#x2080;" horiz-adv-x="456" 
d="M404 105q0 -105 -45.5 -168.5t-135.5 -63.5t-130.5 59.5t-40.5 164.5t45 168.5t136 63.5q90 0 130.5 -59.5t40.5 -164.5zM342 99q0 80 -26.5 130.5t-87.5 50.5q-59 0 -86.5 -50t-27.5 -127q0 -51 10.5 -91.5t36 -65t67.5 -24.5q59 0 86.5 50t27.5 127z" />
    <glyph glyph-name="one.inferior" unicode="&#x2081;" horiz-adv-x="283" 
d="M134 -120v383l-107 -36v51l120 43h48v-441h-61z" />
    <glyph glyph-name="two.inferior" unicode="&#x2082;" horiz-adv-x="374" 
d="M46 -120v47l120 126q41 42 59.5 76t18.5 66q0 39 -22 61.5t-63 22.5q-27 0 -51 -7t-51 -20v51q26 12 54.5 19t58.5 7q64 0 100.5 -33.5t36.5 -89.5q0 -44 -22.5 -85.5t-71.5 -91.5l-94 -97q32 1 78 1.5t134 0.5v-54h-285z" />
    <glyph glyph-name="three.inferior" unicode="&#x2083;" horiz-adv-x="362" 
d="M307 13q0 -31 -12 -57t-35 -44.5t-56 -28.5t-73 -10q-19 0 -41 2t-41 5v54q20 -6 43 -9.5t45 -3.5q52 0 80 23t28 62q0 46 -42 66.5t-128 13.5v47q82 0 118 20t36 61q0 31 -21.5 49.5t-61.5 18.5q-18 0 -42.5 -5.5t-47.5 -13.5v48q49 18 103 18q62 0 96.5 -28t34.5 -80
q0 -75 -81 -102q47 -9 72.5 -37.5t25.5 -68.5z" />
    </font>
</defs>
</svg>
