<?xml version="1.0" standalone="no"?>
<!DOCTYPE svg PUBLIC "-//W3C//DTD SVG 1.1//EN" "http://www.w3.org/Graphics/SVG/1.1/DTD/svg11.dtd" >
<svg xmlns="http://www.w3.org/2000/svg" xmlns:xlink="http://www.w3.org/1999/xlink" version="1.1">
<metadata>
Created by FontForge 20170731 at Sun Nov 15 17:46:03 2015
 By Aleksey,,,
VWAG TheSans was created exclusively for Volkswagen AG in cooperation with MetaDesign AG. Copyright 1994-2015 Luc(as) de Groot. All rights reserved.
</metadata>
<defs>
<font id="VWAGTheSans-Regular" horiz-adv-x="550" >
  <font-face 
    font-family="VWAG TheSans"
    font-weight="400"
    font-stretch="normal"
    units-per-em="1000"
    panose-1="2 11 5 2 5 3 2 2 2 3"
    ascent="740"
    descent="-260"
    x-height="497"
    cap-height="675"
    bbox="-367 -320 1305 980"
    underline-thickness="72"
    underline-position="-286"
    unicode-range="U+000D-FB04"
  />
<missing-glyph 
d="M450 100v350h-350v-350h350zM250 350v50h150v-250h-50v100h-100v50h100v50h-100zM50 50v450h450v-450h-450zM150 150v250h50v-200h100v-50h-150z" />
    <glyph glyph-name="ellipsis" unicode="&#x2e;&#x2e;&#x2e;" horiz-adv-x="665" 
d="M173 51q0 -25 -17.5 -42.5t-42.5 -17.5q-26 0 -43.5 17.5t-17.5 42.5q0 26 17.5 43.5t43.5 17.5q25 0 42.5 -17.5t17.5 -43.5zM388 51q0 -25 -17.5 -42.5t-43.5 -17.5q-25 0 -42.5 17.5t-17.5 42.5q0 26 17.5 43.5t42.5 17.5q26 0 43.5 -17.5t17.5 -43.5zM603 51
q0 -25 -17.5 -42.5t-43.5 -17.5q-25 0 -42.5 17.5t-17.5 42.5q0 26 17.5 43.5t42.5 17.5q26 0 43.5 -17.5t17.5 -43.5z" />
    <glyph glyph-name="f_f" unicode="ff" horiz-adv-x="652" 
d="M640 497v-70h-138v-427h-90v427h-213v-427h-90v427h-102v70h102v39q0 104 47 152t139 48q22 0 51 -3v-75q-29 5 -52 5q-52 0 -73.5 -28t-21.5 -96v-42h213v39q0 105 46.5 152.5t139.5 47.5q36 0 76 -7v-76q-43 10 -78 10q-53 0 -73.5 -28t-20.5 -96v-42h138z" />
    <glyph glyph-name="f_i" unicode="fi" horiz-adv-x="590" 
d="M520 653q0 -24 -17 -40.5t-41 -16.5t-41 16.5t-17 40.5t17 40.5t41 16.5t41 -16.5t17 -40.5zM415 0v427h-216v-427h-90v427h-102v70h102v39q0 107 47.5 153.5t138.5 46.5q21 0 51 -3v-75q-32 5 -52 5q-53 0 -74 -28t-21 -96v-42h306v-497h-90z" />
    <glyph glyph-name="f_dotlessi" unicode="f&#x131;" horiz-adv-x="590" 
d="M7 497h102v38q0 50 12.5 88t36.5 63t58.5 37.5t78.5 12.5q16 0 31.5 -1.5t24.5 -2.5v-75q-9 2 -25.5 4t-33.5 2q-24 0 -41.5 -7.5t-29 -22.5t-17 -38t-5.5 -54v-44h306v-497h-90v427h-216v-427h-90v427h-102v70z" />
    <glyph glyph-name="f_f_i" unicode="ffi" horiz-adv-x="891" 
d="M823 653q0 -24 -17 -40.5t-41 -16.5q-25 0 -42 16.5t-17 40.5t17 40.5t42 16.5q24 0 41 -16.5t17 -40.5zM808 497v-497h-90v427h-216v-427h-90v427h-213v-427h-90v427h-102v70h102v39q0 107 47.5 153.5t138.5 46.5q23 0 51 -3v-75q-31 5 -52 5q-53 0 -74 -28t-21 -96v-42
h213v39q0 107 47.5 153.5t138.5 46.5q23 0 50 -3v-75q-31 5 -52 5q-53 0 -73.5 -28t-20.5 -96v-42h306z" />
    <glyph glyph-name="f_l" unicode="fl" horiz-adv-x="590" 
d="M415 0v656q-46 8 -93 8q-63 0 -93 -30.5t-30 -97.5v-39h128v-70h-128v-427h-90v427h-102v70h102v35q0 102 54.5 153t170.5 51q50 0 99 -5t72 -8v-723h-90z" />
    <glyph glyph-name="f_f_l" unicode="ffl" horiz-adv-x="891" 
d="M629 427h-127v-427h-90v427h-213v-427h-90v427h-102v70h102v39q0 107 47.5 153.5t138.5 46.5q20 0 51 -3v-75q-31 5 -52 5q-53 0 -74 -28t-21 -96v-42h213v35q0 100 53 152t171 52q70 0 172 -13v-723h-90v656q-56 8 -93 8q-63 0 -93 -29.5t-30 -98.5v-39h127v-70z" />
    <glyph glyph-name=".notdef" 
d="M450 100v350h-350v-350h350zM250 350v50h150v-250h-50v100h-100v50h100v50h-100zM50 50v450h450v-450h-450zM150 150v250h50v-200h100v-50h-150z" />
    <glyph glyph-name=".null" horiz-adv-x="0" 
 />
    <glyph glyph-name=".null" horiz-adv-x="0" 
 />
    <glyph glyph-name="nonmarkingreturn" unicode="&#xd;" horiz-adv-x="500" 
 />
    <glyph glyph-name="space" unicode=" " horiz-adv-x="218" 
 />
    <glyph glyph-name="exclam" unicode="!" horiz-adv-x="320" 
d="M229 50q0 -25 -17.5 -42t-42.5 -17q-26 0 -43.5 17t-17.5 42t17.5 42t43.5 17q25 0 42.5 -17t17.5 -42zM207 168h-75l-16 535h106z" />
    <glyph glyph-name="quotedbl" unicode="&#x22;" horiz-adv-x="366" 
d="M133 469h-67l-14 230h95zM300 469h-67l-14 230h95z" />
    <glyph glyph-name="numbersign" unicode="#" horiz-adv-x="577" 
d="M448 429l-19 -177h91v-62h-98l-20 -190h-72l19 190h-153l-20 -190h-72l20 190h-92v62h98l20 177h-93v62h98l20 184h73l-20 -184h153l20 184h73l-20 -184h90v-62h-96zM222 429l-19 -177h153l19 177h-153z" />
    <glyph glyph-name="dollar" unicode="$" horiz-adv-x="489" 
d="M435 208q0 -34 -11.5 -64t-33 -54.5t-53 -41t-70.5 -23.5v-130h-67v126q-36 1 -65 4t-56 10v85q13 -5 30 -9t35 -7t35.5 -5t32.5 -2q28 0 52 6t41 18t26.5 31t9.5 44q0 30 -16.5 49t-38 30.5t-77 34t-85.5 43.5t-48 52.5t-18 76.5q0 32 11.5 60.5t32.5 50.5t50.5 36.5
t65.5 20.5v105h67v-101q27 -1 53 -4t50 -8v-80q-29 8 -59.5 13t-56.5 5q-32 0 -56 -7t-39 -19t-21.5 -27.5t-6.5 -33.5q0 -29 16.5 -47.5t38 -30t78 -35t87 -44.5t48.5 -52.5t18 -75.5z" />
    <glyph glyph-name="percent" unicode="%" horiz-adv-x="750" 
d="M261 528q0 50 -17.5 73.5t-54.5 23.5q-32 0 -51.5 -25.5t-19.5 -68.5q0 -99 74 -99q30 0 49.5 26.5t19.5 69.5zM632 146q0 50 -17.5 73.5t-54.5 23.5q-32 0 -51.5 -25.5t-19.5 -68.5q0 -98 74 -98q30 0 49.5 26t19.5 69zM335 534q0 -35 -10.5 -65t-30.5 -51.5t-48 -33.5
t-61 -12q-71 0 -106 39.5t-35 113.5q0 34 10.5 63.5t30.5 51t47.5 33.5t61.5 12q70 0 105.5 -38.5t35.5 -112.5zM154 -21l-58 42l497 673l58 -41zM706 153q0 -35 -10.5 -65t-30.5 -52t-48 -34t-61 -12q-71 0 -106 40t-35 113q0 34 10.5 63.5t30.5 51t47.5 33.5t61.5 12
q70 0 105.5 -38.5t35.5 -111.5z" />
    <glyph glyph-name="ampersand" unicode="&#x26;" horiz-adv-x="795" 
d="M479 135q-34 27 -67 54.5t-64 54.5t-58.5 52.5t-49.5 48.5q-49 -42 -70.5 -76.5t-21.5 -73.5q0 -26 9.5 -49.5t28 -41.5t46.5 -27.5t61 -9.5q56 0 104.5 20t81.5 48zM350 592q0 33 -20 54t-58 21q-35 0 -58 -22.5t-23 -56.5q0 -28 14 -59t54 -78q43 33 67 68t24 73z
M682 -20l-74 55.5t-67 50.5q-50 -43 -117.5 -69.5t-145.5 -26.5q-54 0 -97.5 15t-71 41.5t-40.5 61.5t-13 76q0 64 36 116t99 98q-27 32 -43.5 57t-26.5 47.5t-14.5 42t-4.5 39.5q0 31 11.5 58t34 48t56 33.5t76.5 12.5q74 0 117 -37t43 -99q0 -54 -31 -101t-101 -100
q23 -23 50 -47t57 -49.5t61.5 -51.5t62.5 -49v0q32 46 50 108.5t15 137.5h90q2 -85 -22 -161t-69 -135q38 -29 73 -55t62 -46z" />
    <glyph glyph-name="quotesingle" unicode="'" horiz-adv-x="199" 
d="M133 469h-67l-14 230h95z" />
    <glyph glyph-name="parenleft" unicode="(" horiz-adv-x="303" 
d="M216 -209q-43 68 -71.5 133t-45 126t-23 118t-6.5 116q0 58 7.5 117t24.5 121.5t45.5 128t69.5 130.5l65 -31q-61 -104 -92.5 -221.5t-31.5 -239.5q0 -255 125 -465z" />
    <glyph glyph-name="parenright" unicode=")" horiz-adv-x="303" 
d="M238 289q0 -58 -7.5 -117t-24 -122t-45.5 -128.5t-70 -130.5l-65 32q61 104 92.5 221t31.5 239q0 128 -31 244t-94 222l68 32q42 -68 71 -132.5t45 -125.5t22.5 -118t6.5 -116z" />
    <glyph glyph-name="asterisk" unicode="*" horiz-adv-x="374" 
d="M296 477l-90 66l11 -112h-67l11 112l-90 -66l-33 58l103 45l-103 46l34 58l90 -66l-11 112h67l-12 -112l91 66l33 -58l-103 -45l103 -46z" />
    <glyph glyph-name="plus" unicode="+" 
d="M318 260v-201h-86v201h-190v75h190v200h86v-200h190v-75h-190z" />
    <glyph glyph-name="comma" unicode="," horiz-adv-x="228" 
d="M112 113q28 0 45 -21t17 -55q0 -25 -9.5 -52t-25 -51.5t-35.5 -47t-40 -40.5l-38 34q22 23 39 51t17 54q0 15 -4 23.5t-9.5 16t-8.5 15.5t-3 18q0 22 15.5 38.5t39.5 16.5z" />
    <glyph glyph-name="hyphen" unicode="-" horiz-adv-x="330" 
d="M47 250v74h236v-74h-236z" />
    <glyph glyph-name="hyphen" unicode="&#xad;" horiz-adv-x="330" 
d="M47 250v74h236v-74h-236z" />
    <glyph glyph-name="period" unicode="." horiz-adv-x="228" 
d="M176 53q0 -25 -18 -43.5t-44 -18.5t-44 18.5t-18 43.5q1 28 19.5 45t42.5 17q26 0 44 -18.5t18 -43.5z" />
    <glyph glyph-name="slash" unicode="/" horiz-adv-x="438" 
d="M150 0h-86l258 675h86z" />
    <glyph glyph-name="zero" unicode="0" 
d="M406 338q0 74 -8 126t-24.5 84t-41 46.5t-58.5 14.5q-28 0 -51.5 -14.5t-41.5 -46t-27.5 -82t-9.5 -120.5q0 -146 29.5 -212.5t100.5 -66.5q63 0 97.5 68.5t34.5 202.5zM503 344q0 -92 -19 -160t-52 -111t-75 -63t-88 -20q-55 0 -96 19t-69 60.5t-42.5 108.5t-14.5 162
q0 86 17 151t48.5 108t74 64t94.5 21q51 0 91 -17.5t69.5 -57t45.5 -105.5t16 -160z" />
    <glyph glyph-name="one" unicode="1" 
d="M71 0v81h177v501l-167 -58v85l189 66h71v-594h156v-81h-426z" />
    <glyph glyph-name="two" unicode="2" 
d="M58 0v72l143 149q50 52 81 88.5t49 65t25 53.5t7 53q0 53 -34.5 88t-94.5 35q-41 0 -81.5 -15t-77.5 -37v85q30 17 76.5 32t97.5 15q52 0 92 -14.5t66.5 -40.5t40 -60.5t13.5 -74.5q0 -35 -7.5 -65.5t-26 -63.5t-49 -71t-78.5 -86l-122 -123l-2 -2q41 1 108.5 2t199.5 1
v-86h-426z" />
    <glyph glyph-name="three" unicode="3" 
d="M474 206q0 -48 -18 -87.5t-52.5 -68t-83.5 -43.5t-108 -15q-41 0 -74 4.5t-56 10.5v84q68 -22 140 -22t113 33t41 92q0 58 -42 90t-120 32q-30 0 -52.5 -1t-45.5 -4v74h23q109 0 166.5 31.5t57.5 93.5q0 46 -33 72t-90 26q-38 0 -75 -9.5t-72 -28.5v83q38 15 78.5 23
t84.5 8q96 0 149 -43t53 -117q0 -58 -32.5 -98.5t-91.5 -59.5l-1 -1q30 -5 56 -18t45.5 -34t29.5 -48.5t10 -58.5z" />
    <glyph glyph-name="four" unicode="4" 
d="M333 585h-1l-217 -345q27 1 68.5 2t78 1h71.5v342zM421 161v-161h-89v161h-302l-7 73l276 441h122v-432h107v-82h-107z" />
    <glyph glyph-name="five" unicode="5" 
d="M475 215q0 -49 -17.5 -90.5t-51.5 -71.5t-82.5 -46t-105.5 -16q-74 0 -132 14v83q30 -9 67.5 -14.5t70.5 -5.5q74 0 114 36.5t40 99.5t-44 97t-122 34q-32 0 -62 -2t-50 -6v348h351v-86h-267v-182q15 1 30 1.5t26 0.5q56 0 100 -14.5t74.5 -41t45.5 -62t15 -76.5z" />
    <glyph glyph-name="six" unicode="6" 
d="M411 215q0 62 -35 99t-97 37q-29 0 -53.5 -11.5t-42 -30.5t-26.5 -42.5t-9 -45.5q0 -32 9 -60t26 -49.5t42.5 -33t57.5 -11.5q59 0 93.5 40.5t34.5 107.5zM502 230q0 -53 -16 -97.5t-46.5 -76.5t-72.5 -49t-92 -17q-106 0 -166 75.5t-60 210.5q0 104 24 181.5t68.5 127.5
t105 74t134.5 24q16 0 32 -1t27 -2v-80q-18 3 -33.5 4t-33.5 1q-94 0 -150.5 -54t-76.5 -161q-2 -7 -4 -19.5t-5 -31.5h1q24 41 65.5 64t91.5 23q48 0 87 -14.5t66 -41.5t40.5 -63t13.5 -77z" />
    <glyph glyph-name="seven" unicode="7" 
d="M495 597q-75 -140 -141.5 -294.5t-114.5 -302.5h-102q53 156 118 307.5t136 281.5q-14 -1 -72 -1.5t-122 -0.5h-141v88h439v-78z" />
    <glyph glyph-name="eight" unicode="8" 
d="M402 162q0 43 -32 75t-107 67q-59 -35 -86.5 -67.5t-27.5 -69.5q0 -46 33 -74t94 -28q27 0 50 6.5t40 19t26.5 31t9.5 40.5zM384 524q0 42 -30 66t-81 24q-26 0 -47 -7.5t-35.5 -20.5t-22.5 -30.5t-8 -36.5q0 -36 26 -64.5t89 -61.5q60 36 84.5 66.5t24.5 64.5zM496 174
q0 -42 -17 -76t-48.5 -58.5t-74 -37t-91.5 -12.5q-51 0 -91 12.5t-66.5 35.5t-40 53.5t-13.5 67.5q0 23 6.5 44.5t21.5 44t41.5 46t65.5 47.5q-64 37 -91.5 77t-27.5 92q0 38 15 70.5t43 56.5t66.5 37t85.5 13q45 0 82 -11.5t62.5 -32.5t39 -49.5t13.5 -62.5
q0 -49 -29.5 -90t-99.5 -85q80 -41 114 -84.5t34 -97.5z" />
    <glyph glyph-name="nine" unicode="9" 
d="M393 456q0 68 -34.5 110.5t-94.5 42.5q-29 0 -52.5 -11t-40.5 -31t-26 -46t-9 -56q0 -64 33 -102t91 -38q31 0 56 10.5t42 29t26 42t9 49.5zM495 403q0 -107 -23.5 -185.5t-68 -128.5t-106.5 -74t-141 -24q-20 0 -39.5 1.5t-38.5 5.5v82q21 -5 44.5 -7.5t46.5 -2.5
q93 0 148.5 51.5t70.5 150.5q3 16 5 28t3 20h-1q-23 -36 -63.5 -55.5t-91.5 -19.5q-46 0 -82.5 15t-61.5 42t-38 65t-13 84q0 52 16.5 95.5t47 74.5t72 47.5t90.5 16.5q50 0 91 -16.5t71 -50.5t46 -88t16 -127z" />
    <glyph glyph-name="colon" unicode=":" horiz-adv-x="286" 
d="M220 53q0 -26 -18 -44t-44 -18t-44 18t-18 44t18 44t44 18t44 -18t18 -44zM220 394q0 -26 -18 -44t-44 -18t-44 18t-18 44t18 44t44 18t44 -18t18 -44z" />
    <glyph glyph-name="semicolon" unicode=";" horiz-adv-x="286" 
d="M157 113q28 0 45 -21t17 -55q-1 -50 -32.5 -100t-77.5 -91l-38 34q22 23 39 51t17 54q0 15 -4 23.5t-9.5 16t-8.5 15.5t-3 18q0 22 15.5 38.5t39.5 16.5zM220 394q0 -26 -18 -44t-44 -18t-44 18t-18 44t18 44t44 18t44 -18t18 -44z" />
    <glyph glyph-name="less" unicode="&#x3c;" 
d="M388 19l-316 283l316 284l58 -58l-259 -225l259 -222z" />
    <glyph glyph-name="equal" unicode="=" 
d="M56 175v74h438v-74h-438zM56 345v75h438v-75h-438z" />
    <glyph glyph-name="greater" unicode="&#x3e;" 
d="M162 19l-58 58l259 225l-259 222l58 62l316 -283z" />
    <glyph glyph-name="question" unicode="?" horiz-adv-x="445" 
d="M252 50q0 -25 -17.5 -42t-43.5 -17q-25 0 -42.5 17t-17.5 42t17.5 42t42.5 17q26 0 43.5 -17t17.5 -42zM385 516q0 -35 -13 -64t-31 -49.5t-48 -50t-45 -52.5t-20.5 -56t7.5 -76h-88q-15 47 -12 83t18 63t40 53.5t46 47.5t34 44t13 50q0 45 -30.5 72t-78.5 36.5t-100 9.5
v83q81 0 140.5 -16t96 -42.5t54 -61t17.5 -74.5z" />
    <glyph glyph-name="at" unicode="@" horiz-adv-x="1024" 
d="M596 426q-26 7 -62 7q-35 0 -62 -18.5t-45 -49t-26.5 -66t-8.5 -68.5q0 -93 54 -93q20 0 40.5 15t39.5 44.5t34.5 73t25.5 98.5zM940 366q0 -69 -18 -125.5t-51 -96.5t-76.5 -60.5t-93.5 -20.5q-32 0 -56 10t-38.5 27t-20.5 39t-4 46h-2q-10 -23 -24.5 -44.5t-34.5 -39
t-45 -28t-53 -10.5q-55 0 -87 40t-32 113q0 59 16 111t47.5 92.5t78.5 63t107 22.5q56 -1 91 -6.5t52 -9.5l-42 -222q-13 -63 3 -96t57 -33q30 0 56.5 15t46 44t30.5 70.5t11 92.5q0 55 -17.5 106t-55 91.5t-97 64t-139.5 23.5q-79 0 -149.5 -30t-123.5 -85t-82.5 -130
t-29.5 -162q0 -76 21.5 -137t64 -104t106 -66t146.5 -23q45 0 92 7t94 20l11 -69q-47 -14 -102.5 -22t-104.5 -8q-97 0 -173.5 27.5t-129 79t-80 124t-27.5 161.5q0 105 36.5 195t102 156t151.5 101.5t181 35.5q94 0 167.5 -27.5t122 -76.5t73 -112t24.5 -134z" />
    <glyph glyph-name="A" unicode="A" horiz-adv-x="615" 
d="M333 493q-7 21 -14.5 46t-14.5 49h-1q-5 -20 -11.5 -41t-16.5 -53l-92 -260h242zM502 0l-55 161h-287l-56 -161h-94l242 675h112l241 -675h-103z" />
    <glyph glyph-name="B" unicode="B" horiz-adv-x="571" 
d="M424 194q0 29 -10 51t-31.5 37t-56 23t-81.5 8h-24.5t-24 -0.5t-19.5 -0.5v-236q30 -5 87 -5q80 0 120 34t40 89zM402 498q0 24 -7 43t-23.5 34t-44 23t-67.5 8q-15 0 -36.5 -1t-46.5 -2v-220q9 0 18.5 -0.5t20 -0.5h30.5q77 0 116.5 30t39.5 86zM521 200
q0 -36 -14 -71.5t-45 -65.5t-82.5 -48t-122.5 -18q-27 0 -89 1.5t-83 1.5v675q24 1 76 2.5t108 1.5q115 0 172 -44t57 -123q0 -53 -29.5 -94.5t-82.5 -60.5v-1q31 -6 56 -19t42.5 -33t27 -46.5t9.5 -57.5z" />
    <glyph glyph-name="C" unicode="C" horiz-adv-x="583" 
d="M531 19q-45 -13 -91 -20t-92 -7q-76 0 -134 23.5t-95.5 68t-55 105t-17.5 133.5q0 77 20 143.5t60.5 114.5t102.5 74.5t142 26.5q41 0 81.5 -6.5t70.5 -16.5v-91q-48 19 -85.5 27t-78.5 8q-53 0 -94 -20t-67.5 -56.5t-39.5 -84.5t-13 -109q0 -123 55 -190.5t165 -67.5
q41 0 81 7.5t85 19.5v-82z" />
    <glyph glyph-name="D" unicode="D" horiz-adv-x="678" 
d="M535 339q0 130 -63.5 197t-193.5 67q-22 0 -55 -1t-46 -2v-520q18 -3 42.5 -4.5t46.5 -1.5q60 0 109.5 16t85 48.5t55 83t19.5 117.5zM632 345q0 -85 -27 -150.5t-77.5 -110t-119.5 -66.5t-152 -22q-36 0 -92 2t-79 2v674q55 1 106 2.5t96 1.5q82 0 146 -19.5
t108.5 -60.5t67.5 -104t23 -149z" />
    <glyph glyph-name="E" unicode="E" horiz-adv-x="536" 
d="M85 0v675h382v-76h-290v-214h266v-74h-266v-234h294v-77h-386z" />
    <glyph glyph-name="F" unicode="F" horiz-adv-x="500" 
d="M177 599v-220h270v-74h-270v-305h-92v675h379v-76h-287z" />
    <glyph glyph-name="G" unicode="G" horiz-adv-x="682" 
d="M601 30q-50 -19 -108.5 -29t-114.5 -10q-78 0 -140.5 23t-106 66.5t-66 105t-22.5 138.5q0 79 23.5 145t69.5 114t114 74.5t156 26.5q42 0 86.5 -6.5t85.5 -17.5v-90q-42 17 -89.5 26t-91.5 9q-66 0 -115 -21.5t-80 -59t-46 -85.5t-15 -102q0 -63 17 -112.5t49 -83.5
t78.5 -52t105.5 -18q32 0 61 4.5t58 13.5v255h91v-314z" />
    <glyph glyph-name="H" unicode="H" horiz-adv-x="698" 
d="M521 0v311h-344v-311h-92v675h92v-286h344v286h92v-675h-92z" />
    <glyph glyph-name="I" unicode="I" horiz-adv-x="262" 
d="M85 0v675h92v-675h-92z" />
    <glyph glyph-name="J" unicode="J" horiz-adv-x="262" 
d="M-3 -134q26 15 43 29.5t27 32.5t14 41.5t4 55.5v650h92v-645q0 -41 -6 -72.5t-22 -58t-42.5 -48.5t-67.5 -43z" />
    <glyph glyph-name="K" unicode="K" horiz-adv-x="586" 
d="M458 0l-281 334v-334h-92v675h92v-318l271 318h111l-283 -323l300 -352h-118z" />
    <glyph glyph-name="L" unicode="L" horiz-adv-x="454" 
d="M85 0v675h92v-597h270v-78h-362z" />
    <glyph glyph-name="M" unicode="M" horiz-adv-x="894" 
d="M752 0l-53 394q-8 63 -13 112t-6 84h-2q-7 -29 -17 -64.5t-24 -79.5l-156 -446h-84l-148 423q-15 44 -28.5 89t-21.5 78h-1q-1 -41 -5.5 -91t-10.5 -109l-44 -390h-91l87 675h126l150 -426q11 -33 19.5 -63t13.5 -58h1q7 32 15 63t17 58l150 426h130l91 -675h-95z" />
    <glyph glyph-name="N" unicode="N" horiz-adv-x="686" 
d="M506 0l-250 396q-16 25 -28.5 46t-23 39t-19 34.5t-17.5 35.5h-2q2 -29 3.5 -73t3 -98t2 -101.5t0.5 -89.5v-189h-90v675h105l236 -372q19 -30 33 -53t24.5 -42t18 -33.5t16.5 -32.5h2q-2 33 -3.5 76t-3 93.5t-2 99t-0.5 94.5v170h90v-675h-95z" />
    <glyph glyph-name="O" unicode="O" horiz-adv-x="709" 
d="M570 333q0 126 -56 198.5t-159 72.5q-46 0 -85 -17t-68.5 -50.5t-45.5 -83t-16 -111.5q0 -61 13.5 -111t40.5 -86t67.5 -55t93.5 -19q46 0 85 17t68.5 50.5t45.5 83t16 111.5zM667 347q0 -84 -25 -151t-69.5 -113t-102.5 -69.5t-124 -23.5q-73 0 -129.5 23.5t-95 67.5
t-58.5 106.5t-20 140.5q0 84 25 151t69.5 113t102.5 69.5t124 23.5q73 0 129.5 -23.5t95 -67.5t58.5 -106.5t20 -140.5z" />
    <glyph glyph-name="P" unicode="P" 
d="M518 469q0 -51 -18.5 -94.5t-54 -76t-85.5 -50t-112 -17.5q-22 0 -42 1t-29 2v-234h-92v675q24 1 75 2.5t102 1.5q126 0 191 -59t65 -151zM423 456q0 68 -43 108t-129 40q-22 0 -43 -0.5t-31 -1.5v-290q10 -1 32 -3.5t46 -2.5q81 0 124.5 41.5t43.5 108.5z" />
    <glyph glyph-name="Q" unicode="Q" horiz-adv-x="709" 
d="M570 333q0 125 -55 198t-160 73q-46 0 -85 -17t-68.5 -50.5t-45.5 -83t-16 -111.5q0 -61 13.5 -111t40.5 -86t67.5 -55t93.5 -19q46 0 85 17t68.5 50.5t45.5 83t16 111.5zM707 -67q-40 -5 -71.5 -3t-55.5 8t-45 13.5t-49.5 18t-55 15.5t-59.5 5h-25q-73 0 -129.5 23.5
t-95 67.5t-58.5 106.5t-20 140.5q0 84 25 151t69.5 113t102.5 69.5t124 23.5q73 0 129.5 -23.5t95 -67.5t58.5 -106.5t20 -140.5q0 -44 -7 -84t-21 -75t-34 -63.5t-45.5 -50t-55.5 -33.5q20 0 44 -7t46 -13.5t49.5 -9.5t63.5 1v-79z" />
    <glyph glyph-name="R" unicode="R" horiz-adv-x="567" 
d="M402 484q0 58 -38.5 89t-110.5 31q-23 0 -44.5 -0.5t-31.5 -1.5v-240q10 0 30.5 -0.5t41.5 -0.5q73 0 113 32.5t40 90.5zM430 0l-204 292h-49v-292h-92v674q22 1 72 3t104 2t97.5 -11t74.5 -33.5t48 -57.5t17 -82q0 -43 -13.5 -76.5t-38 -57t-56.5 -38t-69 -19.5
q7 -9 23 -29t32 -43l168 -232h-114z" />
    <glyph glyph-name="S" unicode="S" horiz-adv-x="504" 
d="M456 188q0 -43 -16 -79t-47.5 -63t-77 -41t-102.5 -14q-41 0 -81 5t-71 13v90q34 -14 76.5 -21.5t80.5 -7.5q32 0 58 6.5t45 20t29 35t10 49.5q0 34 -18 56.5t-42.5 36.5t-84.5 39.5t-92 47.5t-52 56t-20 83q0 41 16 74.5t47 58.5t75 38t99 13q31 0 60.5 -3t55.5 -8v-83
q-29 8 -62 13t-60 5q-66 0 -101.5 -26.5t-35.5 -74.5q0 -31 16.5 -51.5t40 -34t87.5 -41t97 -51.5t51.5 -58.5t18.5 -82.5z" />
    <glyph glyph-name="T" unicode="T" horiz-adv-x="516" 
d="M304 598v-598h-92v598h-194v77h481v-77h-195z" />
    <glyph glyph-name="U" unicode="U" horiz-adv-x="693" 
d="M607 258q0 -132 -68 -200t-201 -68q-79 0 -128.5 20t-77 53.5t-37.5 75.5t-10 88v448h92v-441q0 -35 7 -65.5t25.5 -53.5t51 -36t83.5 -13q88 -1 130.5 41t42.5 144v424h90v-417v0z" />
    <glyph glyph-name="V" unicode="V" horiz-adv-x="618" 
d="M364 0h-112l-241 675h103l151 -439q11 -30 23 -69.5t22 -77.5h1q11 37 23 76.5t24 74.5l152 435h96z" />
    <glyph glyph-name="W" unicode="W" horiz-adv-x="955" 
d="M742 0h-115l-128 444q-6 22 -11.5 47.5t-10.5 56.5h-2q-7 -52 -20 -104l-125 -444h-116l-180 675h98l116 -438q10 -40 17 -75t12 -70h2q16 88 30 141l125 442h92l130 -448q10 -34 18 -69t13 -66h1q7 40 12 68.5t12 56.5l119 458h90z" />
    <glyph glyph-name="X" unicode="X" horiz-adv-x="599" 
d="M467 0l-172 279l-171 -279h-107l222 348l-208 327h106l160 -258l157 258h104l-205 -324l229 -351h-115z" />
    <glyph glyph-name="Y" unicode="Y" horiz-adv-x="537" 
d="M313 259v-259h-91v259l-220 416h101l116 -220q27 -54 50 -111h2q13 32 29 65t25 50l112 216h98z" />
    <glyph glyph-name="Z" unicode="Z" horiz-adv-x="539" 
d="M46 0v68l283 446q23 34 32.5 48.5t22.5 32.5q-29 -1 -64.5 -1.5t-83.5 -0.5h-180v82h435v-70l-298 -464q-12 -17 -22.5 -32.5t-17.5 -26.5q14 1 51 1.5t117 0.5h174v-84h-449z" />
    <glyph glyph-name="bracketleft" unicode="[" horiz-adv-x="322" 
d="M86 -199v970h198v-69h-114v-830h114v-71h-198z" />
    <glyph glyph-name="backslash" unicode="\" horiz-adv-x="442" 
d="M300 0l-258 675h87l258 -675h-87z" />
    <glyph glyph-name="bracketright" unicode="]" horiz-adv-x="322" 
d="M38 -199v71h114v830h-114v69h198v-970h-198z" />
    <glyph glyph-name="asciicircum" unicode="^" 
d="M408 343l-144 265l-138 -265l-62 33l165 299h73l172 -298z" />
    <glyph glyph-name="underscore" unicode="_" 
d="M0 -249v71h550v-71h-550z" />
    <glyph glyph-name="grave" unicode="`" horiz-adv-x="350" 
d="M223 569l-140 128l55 54l129 -139z" />
    <glyph glyph-name="a" unicode="a" horiz-adv-x="521" 
d="M345 223h-59q-36 0 -64 -4.5t-47.5 -14.5t-29.5 -25.5t-10 -38.5q0 -34 21 -56t55 -22q28 0 53.5 12.5t44 35.5t27.5 49.5t9 54.5v9zM348 0q0 29 2 52.5t5 42.5h-2q-19 -47 -63.5 -75.5t-101.5 -28.5q-64 0 -103 37.5t-39 99.5q0 77 61.5 117t182.5 40h55v33
q0 63 -26.5 90.5t-84.5 27.5q-34 0 -74.5 -8.5t-77.5 -23.5v74q32 11 75.5 19.5t86.5 8.5q55 0 91.5 -13t57.5 -35.5t31.5 -54t10.5 -77.5v-183v-74.5v-68.5h-87z" />
    <glyph glyph-name="b" unicode="b" horiz-adv-x="558" 
d="M421 264q0 82 -27.5 125t-82.5 43q-32 0 -58 -17t-43 -45t-26 -62t-9 -67v-164q10 -3 33.5 -8t54.5 -5q36 0 65 11.5t50 35.5t32 62.5t11 90.5zM515 272q0 -65 -18 -116.5t-51.5 -88t-81.5 -55.5t-108 -19q-57 0 -104 7.5t-67 12.5v717h90v-241q0 -23 -2.5 -49t-6.5 -44
l2 -1q20 52 63.5 81.5t100.5 29.5q88 0 135.5 -60t47.5 -174z" />
    <glyph glyph-name="c" unicode="c" horiz-adv-x="427" 
d="M392 11q-37 -10 -67 -14.5t-64 -4.5q-50 0 -89.5 13t-69 41.5t-45.5 75t-16 112.5q0 60 15 110t45.5 86.5t76 55.5t103.5 19q27 0 53.5 -4.5t53.5 -12.5v-83q-28 12 -54.5 18t-55.5 6q-34 0 -61 -12.5t-45.5 -37.5t-27 -59.5t-8.5 -75.5q0 -39 7 -70t23 -54.5t43.5 -36.5
t67.5 -13q55 0 115 17v-76z" />
    <glyph glyph-name="d" unicode="d" horiz-adv-x="558" 
d="M384 422q-24 5 -46 8t-43 3q-36 0 -65 -11.5t-49.5 -35.5t-31.5 -62t-11 -91q0 -82 27 -125t82 -43q33 0 58.5 17t43 45.5t26.5 62t9 67.5v165zM386 0q0 25 2 53t6 48l-2 1q-21 -51 -64.5 -81t-101.5 -30q-91 0 -137 61.5t-46 172.5q0 65 18 116.5t51.5 88t81 55.5
t106.5 19q19 0 38.5 -1t45.5 -4v231h89v-730h-87z" />
    <glyph glyph-name="e" unicode="e" horiz-adv-x="508" 
d="M371 298q3 68 -27.5 104t-84.5 36q-51 0 -85.5 -36.5t-39.5 -103.5h237zM461 297q0 -29 -3 -62h-325q1 -86 38.5 -129t114.5 -43q37 0 76 7t77 19v-73q-37 -11 -79.5 -18t-83.5 -7q-116 0 -175.5 63t-59.5 195q0 55 15 101.5t43.5 81.5t70.5 54.5t94 19.5q50 0 87.5 -16
t62 -44.5t36 -66t11.5 -82.5z" />
    <glyph glyph-name="f" unicode="f" horiz-adv-x="350" 
d="M371 653q-9 3 -30.5 6.5t-46.5 3.5q-52 0 -73.5 -28t-21.5 -96v-42h138v-70h-138v-427h-90v427h-102v70h102v39q0 104 47 152t139 48q40 0 76 -7v-76z" />
    <glyph glyph-name="g" unicode="g" horiz-adv-x="533" 
d="M262 506q36 0 71 -9h167v-70h-74q9 -11 18 -34.5t9 -54.5q0 -40 -13.5 -73.5t-38.5 -58t-63 -39t-88 -14.5q-29 0 -53 5q-29 -20 -29 -41q0 -16 17.5 -26t60.5 -11l80 -3q90 -3 135 -41t45 -105q0 -40 -18 -74.5t-51.5 -59.5t-81.5 -39t-107 -14q-99 0 -155.5 38.5
t-56.5 108.5q0 22 6.5 41t18.5 36.5t27 31.5t33 26q-18 9 -31 25.5t-14 46.5q0 25 14 46.5t41 38.5q-17 10 -34 28.5t-28 47.5t-11 62q0 39 13 73t38.5 58.5t63.5 39t89 14.5zM145 -40q-17 -25 -17 -53q0 -44 35 -69t98 -25q74 0 113.5 29t39.5 77q0 38 -26 59t-86 23l-83 3
q-14 1 -26 2q-32 -21 -48 -46zM366 329q0 48 -29 79t-81 31t-81.5 -31t-29.5 -79t29.5 -79t81.5 -31t81 31t29 79z" />
    <glyph glyph-name="h" unicode="h" horiz-adv-x="575" 
d="M401 0v320q0 56 -19 84t-66 28q-30 0 -56 -14.5t-45 -41t-29.5 -62t-10.5 -76.5v-238h-90v730h90v-236q0 -28 -2 -54t-7 -45l2 -1q22 52 67 82t106 30q41 0 70.5 -12t47 -33.5t25 -50t7.5 -63.5v-347h-90z" />
    <glyph glyph-name="i" unicode="i" horiz-adv-x="260" 
d="M85 0v497h90v-497h-90zM190 654q0 -24 -17.5 -41t-42.5 -17t-42.5 16.5t-17.5 41.5t17.5 42t42.5 17t42.5 -17t17.5 -42z" />
    <glyph glyph-name="j" unicode="j" horiz-adv-x="260" 
d="M190 654q0 -24 -17.5 -41t-42.5 -17t-42.5 16.5t-17.5 41.5t17.5 42t42.5 17t42.5 -17t17.5 -42zM175 -34q0 -43 -8 -76t-25 -59t-43.5 -47t-62.5 -40l-40 61q24 15 40.5 29t27.5 32t16 42t5 58v531h90v-531z" />
    <glyph glyph-name="k" unicode="k" horiz-adv-x="493" 
d="M359 0l-184 256v-256h-90v730h90v-451l175 218h105l-188 -223l207 -274h-115z" />
    <glyph glyph-name="l" unicode="l" horiz-adv-x="260" 
d="M85 0v730h90v-730h-90z" />
    <glyph glyph-name="m" unicode="m" horiz-adv-x="879" 
d="M704 0v319q0 56 -17.5 84.5t-63.5 28.5q-27 0 -52 -13.5t-44.5 -39.5t-31 -62.5t-11.5 -80.5v-236h-89v319q0 26 -3.5 46t-12 35t-24.5 23.5t-41 8.5q-28 0 -53.5 -14.5t-44.5 -41t-30 -62.5t-11 -78v-236h-90v497h87q0 -25 -2 -54.5t-5 -50.5l1 -1q22 53 68 84t105 31
q37 0 63.5 -11t42 -28.5t22.5 -36.5t9 -37q9 20 23 39t35 36t49.5 27.5t62.5 10.5q72 0 110 -40t38 -123v-343h-90z" />
    <glyph glyph-name="n" unicode="n" horiz-adv-x="575" 
d="M401 0v320q0 56 -19 84t-66 28q-30 0 -56 -14.5t-45 -41t-29.5 -62t-10.5 -76.5v-238h-90v497h87q0 -26 -2 -55t-6 -50h2q22 53 67.5 83.5t107.5 30.5q41 0 70.5 -12t47 -33.5t25 -50t7.5 -63.5v-347h-90z" />
    <glyph glyph-name="o" unicode="o" horiz-adv-x="545" 
d="M412 249q0 87 -36.5 134.5t-101.5 47.5q-32 0 -58 -11.5t-44.5 -34.5t-28.5 -57.5t-10 -79.5q0 -87 36.5 -134t102.5 -47q30 0 55.5 11t44.5 33.5t29.5 57t10.5 80.5zM505 256q0 -56 -15.5 -104.5t-46.5 -84.5t-76.5 -56t-102.5 -20q-51 0 -92.5 15.5t-71 46.5t-45 78
t-15.5 110q0 56 15.5 104.5t46.5 84.5t76.5 56t103.5 20q51 0 92 -15.5t70.5 -46.5t45 -78t15.5 -110z" />
    <glyph glyph-name="p" unicode="p" horiz-adv-x="558" 
d="M421 264q0 82 -27.5 125t-82.5 43q-32 0 -58 -17t-43 -45.5t-26 -62t-9 -67.5v-164q39 -12 88 -12q36 0 65 11.5t50 35.5t32 62.5t11 90.5zM515 272q0 -132 -67.5 -205t-188.5 -73q-25 0 -44.5 1t-39.5 5v-247h-90v744h87q0 -25 -2 -53.5t-6 -47.5l2 -1q21 52 64.5 81.5
t102.5 29.5q87 0 134.5 -60.5t47.5 -173.5z" />
    <glyph glyph-name="q" unicode="q" horiz-adv-x="558" 
d="M384 423q-43 10 -89 10q-74 0 -115.5 -48.5t-41.5 -151.5q0 -82 27 -125t82 -43q32 0 58 17t43.5 45.5t26.5 62.5t9 68v165zM384 -247v258q0 22 1.5 45.5t5.5 43.5l-2 1q-20 -51 -63.5 -80.5t-98.5 -29.5q-89 0 -136.5 59t-47.5 174q0 131 69.5 206t192.5 75
q42 0 84 -3.5t84 -10.5v-738h-89z" />
    <glyph glyph-name="r" unicode="r" horiz-adv-x="355" 
d="M332 417q-79 13 -118 -42t-39 -175v-200h-90v497h87q0 -26 -2.5 -57.5t-8.5 -60.5h2q8 28 22 52t34.5 42t49 27.5t63.5 5.5v-89z" />
    <glyph glyph-name="s" unicode="s" horiz-adv-x="425" 
d="M376 142q0 -32 -12.5 -59t-37.5 -48t-62.5 -32.5t-86.5 -11.5q-33 0 -62.5 3.5t-56.5 9.5v80q29 -9 61.5 -15t63.5 -6q50 0 75 18.5t25 52.5q0 26 -15 41t-32 23t-60.5 23.5t-68.5 31.5t-41 42t-16 67q0 63 50 103.5t144 40.5q24 0 49 -2t46 -6v-76q-21 7 -48.5 10.5
t-52.5 3.5q-47 0 -71.5 -17.5t-24.5 -48.5q0 -25 15.5 -41t48 -28.5t60.5 -22.5t53 -26t41 -42.5t16 -67.5z" />
    <glyph glyph-name="t" unicode="t" horiz-adv-x="371" 
d="M335 2q-24 -5 -47 -7.5t-45 -2.5q-39 0 -65 8.5t-41.5 26t-22.5 46t-7 70.5v284h-100v70h100v161l90 25v-186h138v-70h-138v-262q0 -29 3 -47.5t11 -29.5t20.5 -15.5t32.5 -4.5q33 0 71 9v-75z" />
    <glyph glyph-name="u" unicode="u" horiz-adv-x="575" 
d="M403 0q0 26 2 55t6 50h-2q-22 -53 -67.5 -83.5t-107.5 -30.5q-41 0 -70 12t-46.5 33.5t-25 50t-7.5 63.5v347h89v-320q0 -56 19 -84t66 -28q30 0 56 14.5t45 41t29.5 62t10.5 76.5v238h90v-497h-87z" />
    <glyph glyph-name="v" unicode="v" horiz-adv-x="486" 
d="M293 0h-103l-181 497h100l105 -304q10 -31 16.5 -54.5t12.5 -46.5h2q6 24 13 48.5t15 50.5l107 306h96z" />
    <glyph glyph-name="w" unicode="w" horiz-adv-x="793" 
d="M617 0h-103l-98 295q-8 26 -15 52t-13 50h-1q-7 -30 -15.5 -61.5t-18.5 -66.5l-83 -269h-102l-152 497h100l78 -274q9 -33 18.5 -68.5t14.5 -58.5h1q7 30 15.5 63t17.5 65l86 273h97l87 -273q7 -23 12.5 -41t9.5 -33t7.5 -28t6.5 -27h1q5 25 13 53.5t20 74.5l81 274h95z
" />
    <glyph glyph-name="x" unicode="x" horiz-adv-x="518" 
d="M381 0l-125 191l-126 -191h-109l182 249l-173 248h110l123 -187l125 187h102l-172 -245l180 -252h-117z" />
    <glyph glyph-name="y" unicode="y" horiz-adv-x="480" 
d="M278 -25q-23 -65 -48 -119.5t-51 -102.5h-99q31 54 58.5 108.5t47.5 108.5l11 30l-188 497h103l94 -260q12 -36 21 -66.5t18 -60.5h1q7 27 20 67.5t28 86.5l80 233h97z" />
    <glyph glyph-name="z" unicode="z" horiz-adv-x="447" 
d="M48 0v64l238 355q-23 -1 -58 -1.5t-73 -0.5h-102v80h338v-63l-235 -353q13 0 37 0.5t50.5 1t47.5 0.5h105v-83h-348z" />
    <glyph glyph-name="braceleft" unicode="{" horiz-adv-x="341" 
d="M286 -199q-84 0 -120 47.5t-36 147.5v175q0 59 -24 83t-82 27v71q31 2 51 7.5t32 17.5t17.5 32t5.5 51v117q0 45 8 80t26 60.5t48.5 39.5t73.5 14h18v-69q-27 0 -44 -6t-27.5 -20t-15 -37t-4.5 -59v-116q0 -66 -23.5 -102t-69.5 -44v-2q45 -7 69 -44.5t24 -103.5v-174
q0 -36 4.5 -59t15 -37t27.5 -20t44 -6v-71h-18z" />
    <glyph glyph-name="bar" unicode="|" horiz-adv-x="285" 
d="M106 -247v1000h71v-1000h-71z" />
    <glyph glyph-name="braceright" unicode="}" horiz-adv-x="341" 
d="M317 281q-58 -3 -81.5 -27t-23.5 -83v-175q0 -100 -36.5 -147.5t-119.5 -47.5h-19v71q27 0 44 6t27.5 20t15 37t4.5 59v174q0 66 24 103.5t69 44.5v2q-93 12 -93 142v120q0 36 -4.5 59t-15 37t-27.5 20t-44 6v69h19q43 0 73.5 -14t48.5 -39.5t26 -60.5t8 -80v-113
q0 -32 5.5 -53t17.5 -33.5t31.5 -18t50.5 -7.5v-71z" />
    <glyph glyph-name="asciitilde" unicode="~" 
d="M497 564q0 -65 -36 -105.5t-97 -40.5q-37 0 -61 14.5t-48 43.5t-37 40.5t-36 11.5q-30 0 -45 -23.5t-16 -65.5h-67v10q0 66 36.5 106.5t97.5 40.5q26 0 45.5 -7.5t33 -19.5t24.5 -25t24.5 -28.5t26 -23t28.5 -7.5q30 0 44.5 23.5t15.5 65.5h67v-10z" />
    <glyph glyph-name="uni00A0" unicode="&#xa0;" horiz-adv-x="218" 
 />
    <glyph glyph-name="exclamdown" unicode="&#xa1;" horiz-adv-x="320" 
d="M97 -206l15 535h76l16 -535h-107zM211 447q0 -25 -17.5 -42t-42.5 -17t-42.5 17t-17.5 42t17.5 42t42.5 17t42.5 -17t17.5 -42z" />
    <glyph glyph-name="cent" unicode="&#xa2;" horiz-adv-x="455" 
d="M409 129q-23 -8 -49.5 -14t-52.5 -8v-132h-71v132q-46 4 -81.5 22t-59.5 48t-36 71.5t-12 93.5q0 48 12.5 89t37 73.5t60 52.5t79.5 27v113h71v-109q24 -1 49.5 -5t49.5 -11v-79q-68 22 -115 22q-72 0 -111.5 -44t-39.5 -124q0 -36 8 -65.5t25.5 -52t46.5 -34.5t69 -12
q30 0 59 6.5t61 17.5v-78z" />
    <glyph glyph-name="sterling" unicode="&#xa3;" horiz-adv-x="471" 
d="M42 0v63q29 22 48 42.5t30.5 41.5t16.5 44.5t5 53.5q0 15 -1 33t-4 43h-107v70h97q-6 47 -8.5 71.5t-2.5 43.5q0 86 49.5 132t139.5 46q25 0 50 -2.5t47 -7.5v-80q-24 7 -50 12t-47 5q-47 0 -73 -25.5t-26 -73.5q0 -17 3 -48t9 -73h151v-70h-142q2 -19 3 -35t1 -32
q0 -31 -4.5 -55t-13.5 -45t-25 -40t-40 -40q19 2 48 3.5t54 1.5h192v-79h-400z" />
    <glyph glyph-name="currency" unicode="&#xa4;" 
d="M376 334q0 53 -25 83.5t-79 30.5q-42 0 -70 -32t-28 -85q0 -26 5.5 -47.5t18 -38t32 -25.5t47.5 -9q41 0 70 33.5t29 89.5zM435 60l-80 108q-39 -24 -88 -24q-37 0 -68 13l-72 -97l-67 49l73 90q-19 22 -29.5 55t-10.5 75q0 77 45 125l-78 96l66 48l74 -101q17 9 38 13.5
t44 4.5q21 0 41.5 -4t38.5 -13l75 101l64 -49l-77 -97q16 -20 24.5 -50t8.5 -68q0 -35 -10.5 -66t-29.5 -55l84 -104z" />
    <glyph glyph-name="yen" unicode="&#xa5;" horiz-adv-x="591" 
d="M340 83v-83h-91v83h-165v60h165v86h-165v60h165v22l-214 364h104l104 -187q13 -23 28 -52.5t25 -52.5h1q14 29 28 56t30 55l101 181h99l-215 -364v-22h165v-60h-165v-86h165v-60h-165z" />
    <glyph glyph-name="brokenbar" unicode="&#xa6;" horiz-adv-x="285" 
d="M106 -247v378h71v-378h-71zM106 385v368h71v-368h-71z" />
    <glyph glyph-name="section" unicode="&#xa7;" horiz-adv-x="520" 
d="M349 223q0 27 -12.5 52.5t-32 48.5t-56.5 59.5t-48 47.5q-22 -16 -32.5 -37t-10.5 -44q0 -26 11.5 -50.5t31.5 -48t47.5 -50.5t59.5 -58q21 15 31.5 36t10.5 44zM434 235q0 -41 -20.5 -77t-58.5 -64q19 -25 29 -50.5t10 -54.5q0 -30 -11.5 -58t-35 -49.5t-59.5 -34
t-83 -12.5q-17 0 -38.5 3t-40.5 8l7 76q21 -7 38.5 -9.5t36.5 -2.5q43 0 67 21t24 55q0 25 -15 49t-47 55t-59 56.5t-51 54.5t-39.5 64t-15.5 74q0 41 20 76.5t59 65.5q-19 25 -29 50t-10 53q0 32 11 59.5t33 48.5t56.5 32.5t79.5 11.5q17 0 37.5 -2t37.5 -6l-6 -76
q-36 10 -70 10q-41 0 -62.5 -19t-21.5 -53q0 -24 15 -48t47 -55.5t59 -58t51 -55.5t39.5 -64t15.5 -74z" />
    <glyph glyph-name="dieresis" unicode="&#xa8;" horiz-adv-x="465" 
d="M191 654q0 -23 -16 -38.5t-38 -15.5q-23 0 -38.5 16t-15.5 38q0 23 16 38.5t38 15.5q23 0 38.5 -16t15.5 -38zM383 654q0 -23 -16 -38.5t-38 -15.5q-23 0 -38.5 16t-15.5 38q0 23 16 38.5t38 15.5q23 0 38.5 -16t15.5 -38z" />
    <glyph glyph-name="copyright" unicode="&#xa9;" horiz-adv-x="756" 
d="M470 173q-48 -15 -96 -15q-40 0 -70 11.5t-49.5 34.5t-28 54.5t-8.5 70.5q0 38 10 71t30.5 58.5t53 40t75.5 14.5q21 0 41 -2.5t39 -7.5v-67q-40 16 -80 16q-24 0 -41.5 -9t-28.5 -24.5t-16 -37t-5 -48.5q0 -56 22 -83.5t69 -27.5q36 0 83 14v-63zM641 334q0 53 -20 102
t-57 86.5t-85.5 58t-102.5 20.5q-53 0 -101.5 -20t-85.5 -57t-57 -85.5t-20 -102.5t20 -103t57 -86.5t85.5 -58t101.5 -20.5q54 0 102.5 20.5t85.5 57.5t57 85.5t20 102.5zM712 336q0 -68 -25.5 -129.5t-72.5 -108.5t-108.5 -72.5t-129.5 -25.5q-69 0 -131 25.5t-108 71.5
t-71.5 107.5t-25.5 129.5t25.5 129.5t72.5 108t108.5 72t129.5 25.5t130 -25.5t108.5 -71.5t72 -107t25.5 -129z" />
    <glyph glyph-name="ordfeminine" unicode="&#xaa;" horiz-adv-x="389" 
d="M246 343q0 13 1.5 27t4.5 27h-1q-13 -28 -40.5 -44t-62.5 -16q-47 0 -73.5 26t-26.5 67q0 28 11.5 50t34 36.5t54.5 21.5t72 7h25v15q0 14 -3 25t-10.5 19.5t-21 14t-33.5 5.5q-25 0 -52 -6.5t-52 -17.5v63q22 9 53 14.5t61 5.5q39 0 64 -9t40 -24t22 -35.5t7 -46.5v-138
v-87h-74zM50 211v68h288v-68h-288zM245 492h-27q-21 0 -39 -2.5t-31 -8.5t-19 -16.5t-6 -26.5q0 -19 11.5 -30.5t31.5 -11.5q19 0 33.5 8t25 22t15.5 29.5t5 28.5v8z" />
    <glyph glyph-name="guillemotleft" unicode="&#xab;" horiz-adv-x="509" 
d="M167 114l-113 179l114 182l68 -35l-92 -146l93 -144zM369 116l-122 177l123 180l66 -35l-100 -144l101 -142z" />
    <glyph glyph-name="logicalnot" unicode="&#xac;" 
d="M403 103v157h-361v75h440v-232h-79z" />
    <glyph glyph-name="registered" unicode="&#xae;" horiz-adv-x="562" 
d="M312 578q0 14 -7.5 21t-27.5 7h-21v-63h14q23 0 32.5 11t9.5 24zM313 416l-53 95h-4v-95h-49v228h79q42 0 60 -16.5t18 -43.5q0 -29 -14.5 -45t-38.5 -21q4 -4 9 -12t10 -17l43 -73h-60zM441 527q0 33 -12.5 63t-34 52.5t-51 35.5t-62.5 13t-62.5 -12.5t-51 -34.5
t-34 -51.5t-12.5 -62.5t12.5 -63t34 -52.5t51 -35.5t62.5 -13t62.5 13t51 34.5t34 51t12.5 62.5zM501 529q0 -45 -17.5 -85t-47.5 -69.5t-70 -47t-85 -17.5q-47 0 -87 17t-70 46.5t-47 69.5t-17 86q0 45 17.5 85t47.5 69.5t70 46.5t86 17t86 -17t70 -46t47 -69t17 -86z" />
    <glyph glyph-name="macron" unicode="&#xaf;" horiz-adv-x="418" 
d="M83 616v68h252v-68h-252z" />
    <glyph glyph-name="macron" unicode="&#x2c9;" horiz-adv-x="418" 
d="M83 616v68h252v-68h-252z" />
    <glyph glyph-name="degree" unicode="&#xb0;" horiz-adv-x="376" 
d="M249 610q0 16 -4.5 28.5t-12.5 21.5t-19.5 13.5t-25.5 4.5q-27 0 -45 -19t-18 -49q0 -32 17 -50t45 -18q27 0 45 19t18 49zM319 612q0 -30 -11 -54.5t-30 -41t-43.5 -25t-50.5 -8.5q-61 0 -96 34t-35 91q0 30 11 54.5t30 41t43.5 25t51.5 8.5q30 0 54 -8.5t41 -25t26 -40
t9 -51.5z" />
    <glyph glyph-name="plusminus" unicode="&#xb1;" 
d="M44 0v75h462v-75h-462zM318 336v-197h-86v197h-190v74h190v196h86v-196h190v-74h-190z" />
    <glyph glyph-name="twosuperior" unicode="&#xb2;" horiz-adv-x="379" 
d="M42 350v65l110 113q41 41 58.5 72t17.5 60q0 33 -19.5 52.5t-55.5 19.5q-24 0 -48 -6.5t-52 -19.5v69q28 12 58 19t61 7q69 0 107.5 -34.5t38.5 -92.5q0 -45 -22.5 -85.5t-70.5 -87.5l-80 -81q35 1 87 2t107 1v-73h-297z" />
    <glyph glyph-name="threesuperior" unicode="&#xb3;" horiz-adv-x="369" 
d="M319 485q0 -32 -13 -58.5t-37.5 -45.5t-59.5 -29t-79 -10q-21 0 -44 2t-42 5v68q20 -6 43.5 -9.5t44.5 -3.5q50 0 74.5 20.5t24.5 53.5q0 40 -39 58t-123 11v60q78 0 113 19t35 55q0 27 -19 42.5t-56 15.5q-18 0 -43.5 -5t-48.5 -13v61q24 9 53 14t57 5q67 0 104.5 -28.5
t37.5 -81.5q0 -38 -20 -62.5t-56 -38.5q45 -10 69 -38.5t24 -66.5z" />
    <glyph glyph-name="acute" unicode="&#xb4;" horiz-adv-x="350" 
d="M127 569l-44 43l129 139l55 -53z" />
    <glyph glyph-name="mu1" unicode="&#xb5;" horiz-adv-x="586" 
d="M550 -4q-19 -4 -38 -4q-55 0 -78 28.5t-21 82.5l-1 1q-20 -52 -62.5 -82t-100.5 -30q-27 0 -48.5 9t-34.5 26l11 -274h-92v744h90v-328q0 -53 20.5 -78.5t63.5 -25.5q31 0 57 14t45 40.5t29.5 62.5t10.5 78v237h90v-325q0 -34 2.5 -54t9 -31t17.5 -15.5t30 -4.5v-71z" />
    <glyph glyph-name="paragraph" unicode="&#xb6;" horiz-adv-x="576" 
d="M289 247q-57 0 -99 17.5t-69.5 47t-41 68.5t-13.5 83q0 46 16 85t45.5 67t70.5 44t91 16v-428v0zM445 605v-701h-154v70h73v701h152v-70h-71z" />
    <glyph glyph-name="periodcentered" unicode="&#xb7;" horiz-adv-x="234" 
d="M181 297q0 -26 -18.5 -45t-45.5 -19t-45.5 19t-18.5 45q0 27 18.5 46t45.5 19t45.5 -19t18.5 -46z" />
    <glyph glyph-name="periodcentered" unicode="&#x2219;" horiz-adv-x="234" 
d="M181 297q0 -26 -18.5 -45t-45.5 -19t-45.5 19t-18.5 45q0 27 18.5 46t45.5 19t45.5 -19t18.5 -46z" />
    <glyph glyph-name="cedilla" unicode="&#xb8;" horiz-adv-x="291" 
d="M177 -40q37 -51 29.5 -98.5t-50.5 -96.5h-73q19 24 31 45t14.5 40.5t-4 38.5t-24.5 41l77 30v0z" />
    <glyph glyph-name="onesuperior" unicode="&#xb9;" horiz-adv-x="292" 
d="M213 350h-85v366l-103 -35v70l118 41h70v-442z" />
    <glyph glyph-name="ordmasculine" unicode="&#xba;" horiz-adv-x="419" 
d="M291 510q0 26 -5.5 46t-16 34t-25.5 21t-34 7q-38 0 -60 -27.5t-22 -80.5q0 -26 5.5 -46t16 -34t25.5 -21t34 -7q38 0 60 28t22 80zM64 211v68h292v-68h-292zM370 515q0 -38 -11 -70.5t-32 -56.5t-52.5 -37.5t-71.5 -13.5q-35 0 -63.5 10t-48.5 31t-31 53t-11 74
q0 38 11 70.5t32.5 57t52.5 38t71 13.5q35 0 63.5 -10t48.5 -31t31 -53t11 -75z" />
    <glyph glyph-name="guillemotright" unicode="&#xbb;" horiz-adv-x="509" 
d="M138 116l-66 35l101 144l-100 142l68 36l122 -177zM340 114l-67 35l92 146l-92 144l70 36l112 -179z" />
    <glyph glyph-name="onequarter" unicode="&#xbc;" horiz-adv-x="809" 
d="M213 350h-85v366l-103 -35v70l118 41h70v-442zM89 -135l-58 41l636 901l59 -41zM714 -21v-99h-84v99h-207l-6 57l174 286h123v-275h69v-68h-69zM630 264l-133 -219q12 1 30 1.5t37 0.5h34.5h31.5v217z" />
    <glyph glyph-name="onehalf" unicode="&#xbd;" horiz-adv-x="861" 
d="M89 -135l-58 41l636 901l59 -41zM213 350h-85v366l-103 -35v70l118 41h70v-442zM524 -120v65l110 113q41 41 58.5 72t17.5 60q0 33 -19.5 52.5t-55.5 19.5q-24 0 -48 -6.5t-52 -19.5v69q28 12 58 19t61 7q69 0 107.5 -34.5t38.5 -92.5q0 -45 -22.5 -85.5t-70.5 -87.5
l-80 -81q35 1 87 2t107 1v-73h-297z" />
    <glyph glyph-name="threequarters" unicode="&#xbe;" horiz-adv-x="864" 
d="M145 -135l-58 41l636 901l59 -41zM319 485q0 -32 -13 -58.5t-37.5 -45.5t-59.5 -29t-79 -10q-21 0 -44 2t-42 5v68q20 -6 43.5 -9.5t44.5 -3.5q50 0 74.5 20.5t24.5 53.5q0 40 -39 58t-123 11v60q78 0 113 19t35 55q0 27 -19 42.5t-56 15.5q-18 0 -43.5 -5t-48.5 -13v61
q24 9 53 14t57 5q67 0 104.5 -28.5t37.5 -81.5q0 -38 -20 -62.5t-56 -38.5q45 -10 69 -38.5t24 -66.5zM770 -21v-99h-84v99h-207l-6 57l174 286h123v-275h69v-68h-69zM686 264l-133 -219q12 1 30 1.5t37 0.5h34.5h31.5v217z" />
    <glyph glyph-name="questiondown" unicode="&#xbf;" horiz-adv-x="445" 
d="M368 -213q-86 1 -142 16t-93 41.5t-55 61t-18 72.5q0 39 13.5 67.5t28.5 46.5t48 50t48.5 55.5t20.5 56t-8 75.5h88q15 -47 12 -83t-18 -63t-40.5 -53t-46.5 -47.5t-34 -44t-13 -50.5q0 -40 24 -65.5t66 -38.5t119 -14v-83zM314 447q0 -25 -17.5 -42t-42.5 -17t-42.5 17
t-17.5 42t17.5 42t42.5 17t42.5 -17t17.5 -42z" />
    <glyph glyph-name="Agrave" unicode="&#xc0;" horiz-adv-x="615" 
d="M333 493q-7 21 -14.5 46t-14.5 49h-1q-5 -20 -11.5 -41t-16.5 -53l-92 -260h242zM502 0l-55 161h-287l-56 -161h-94l242 675h112l241 -675h-103zM354 725l-190 56l26 70l181 -74z" />
    <glyph glyph-name="Aacute" unicode="&#xc1;" horiz-adv-x="615" 
d="M333 493q-7 21 -14.5 46t-14.5 49h-1q-5 -20 -11.5 -41t-16.5 -53l-92 -260h242zM502 0l-55 161h-287l-56 -161h-94l242 675h112l241 -675h-103zM252 725l-17 52l182 74l25 -70z" />
    <glyph glyph-name="Acircumflex" unicode="&#xc2;" horiz-adv-x="615" 
d="M333 493q-7 21 -14.5 46t-14.5 49h-1q-5 -20 -11.5 -41t-16.5 -53l-92 -260h242zM502 0l-55 161h-287l-56 -161h-94l242 675h112l241 -675h-103zM440 724l-133 60l-135 -60l-24 50l160 83l158 -81z" />
    <glyph glyph-name="Atilde" unicode="&#xc3;" horiz-adv-x="615" 
d="M333 493q-7 21 -14.5 46t-14.5 49h-1q-5 -20 -11.5 -41t-16.5 -53l-92 -260h242zM502 0l-55 161h-287l-56 -161h-94l242 675h112l241 -675h-103zM485 808q-20 -35 -48.5 -54t-63.5 -19q-26 0 -43.5 8t-32 18t-27.5 18t-29 8q-36 0 -63 -45l-46 33q20 35 48.5 54.5
t63.5 19.5q25 0 43 -8t32.5 -18t27.5 -18t29 -8q34 0 63 44l46 -33v0z" />
    <glyph glyph-name="Adieresis" unicode="&#xc4;" horiz-adv-x="615" 
d="M333 493q-7 21 -14.5 46t-14.5 49h-1q-5 -20 -11.5 -41t-16.5 -53l-92 -260h242zM502 0l-55 161h-287l-56 -161h-94l242 675h112l241 -675h-103zM466 782q0 -22 -15.5 -38t-38.5 -16q-22 0 -37.5 15.5t-15.5 38.5t15.5 38.5t37.5 15.5q23 0 38.5 -16t15.5 -38zM253 782
q0 -22 -15.5 -38t-38.5 -16t-38.5 16t-15.5 38q0 23 16 38.5t38 15.5q23 0 38.5 -16t15.5 -38z" />
    <glyph glyph-name="Aring" unicode="&#xc5;" horiz-adv-x="615" 
d="M333 493q-7 21 -14.5 46t-14.5 49h-1q-5 -20 -11.5 -41t-16.5 -53l-92 -260h242zM502 0l-55 161h-287l-56 -161h-94l242 675h112l241 -675h-103zM427 821q0 -48 -33.5 -79t-88.5 -31q-53 0 -82.5 26.5t-29.5 77.5q0 47 33.5 78t87.5 31t83.5 -26t29.5 -77zM360 817
q0 57 -50 57q-22 0 -36.5 -14.5t-14.5 -41.5q0 -57 51 -57q22 0 36 14.5t14 41.5z" />
    <glyph glyph-name="AE" unicode="&#xc6;" horiz-adv-x="834" 
d="M385 600h-24q-14 -31 -29 -63t-38 -76l-122 -225h213v364zM385 0v163h-247l-85 -163h-96l359 675h449v-76h-290v-214h266v-74h-266v-234h294v-77h-384z" />
    <glyph glyph-name="Ccedilla" unicode="&#xc7;" horiz-adv-x="583" 
d="M531 19q-45 -13 -91 -20t-92 -7q-76 0 -134 23.5t-95.5 68t-55 105t-17.5 133.5q0 77 20 143.5t60.5 114.5t102.5 74.5t142 26.5q41 0 81.5 -6.5t70.5 -16.5v-91q-48 19 -85.5 27t-78.5 8q-53 0 -94 -20t-67.5 -56.5t-39.5 -84.5t-13 -109q0 -123 55 -190.5t165 -67.5
q41 0 81 7.5t85 19.5v-82zM358 -40q37 -51 29.5 -98.5t-50.5 -96.5h-73q19 24 31 45t14.5 40.5t-4 38.5t-24.5 41l77 30v0z" />
    <glyph glyph-name="Egrave" unicode="&#xc8;" horiz-adv-x="536" 
d="M85 0v675h382v-76h-290v-214h266v-74h-266v-234h294v-77h-386zM309 725l-190 56l26 70l181 -74z" />
    <glyph glyph-name="Eacute" unicode="&#xc9;" horiz-adv-x="536" 
d="M85 0v675h382v-76h-290v-214h266v-74h-266v-234h294v-77h-386zM219 725l-17 52l182 74l25 -70z" />
    <glyph glyph-name="Ecircumflex" unicode="&#xca;" horiz-adv-x="536" 
d="M85 0v675h382v-76h-290v-214h266v-74h-266v-234h294v-77h-386zM408 724l-133 60l-135 -60l-24 50l160 83l158 -81z" />
    <glyph glyph-name="Edieresis" unicode="&#xcb;" horiz-adv-x="536" 
d="M85 0v675h382v-76h-290v-214h266v-74h-266v-234h294v-77h-386zM435 782q0 -22 -15.5 -38t-38.5 -16q-22 0 -37.5 15.5t-15.5 38.5t15.5 38.5t37.5 15.5q23 0 38.5 -16t15.5 -38zM222 782q0 -22 -15.5 -38t-38.5 -16t-38.5 16t-15.5 38q0 23 16 38.5t38 15.5
q23 0 38.5 -16t15.5 -38z" />
    <glyph glyph-name="Igrave" unicode="&#xcc;" horiz-adv-x="262" 
d="M85 0v675h92v-675h-92zM178 725l-190 56l26 70l181 -74z" />
    <glyph glyph-name="Iacute" unicode="&#xcd;" horiz-adv-x="262" 
d="M85 0v675h92v-675h-92zM85 725l-17 52l182 74l25 -70z" />
    <glyph glyph-name="Icircumflex" unicode="&#xce;" horiz-adv-x="262" 
d="M85 0v675h92v-675h-92zM264 724l-133 60l-135 -60l-24 50l160 83l158 -81z" />
    <glyph glyph-name="Idieresis" unicode="&#xcf;" horiz-adv-x="262" 
d="M85 0v675h92v-675h-92zM283 782q0 -22 -15.5 -38t-38.5 -16t-38.5 16t-15.5 38q0 23 16 38.5t38 15.5q23 0 38.5 -16t15.5 -38zM87 782q0 -22 -15.5 -38t-38.5 -16t-38.5 16t-15.5 38q0 23 16 38.5t38 15.5q23 0 38.5 -16t15.5 -38z" />
    <glyph glyph-name="Eth" unicode="&#xd0;" horiz-adv-x="687" 
d="M544 339q0 130 -64 197t-194 67q-22 0 -55 -1t-46 -2v-217h143v-71h-143v-232q18 -3 42.5 -4.5t46.5 -1.5q61 0 110 16t85 48.5t55.5 83t19.5 117.5zM641 345q0 -84 -27 -149.5t-77 -109.5t-119.5 -67t-153.5 -23q-36 0 -92 2t-78 2v312h-91v71h91v291q55 1 106 2.5
t95 1.5q82 0 146 -19.5t109 -60.5t68 -104t23 -149z" />
    <glyph glyph-name="Ntilde" unicode="&#xd1;" horiz-adv-x="686" 
d="M506 0l-250 396q-16 25 -28.5 46t-23 39t-19 34.5t-17.5 35.5h-2q2 -29 3.5 -73t3 -98t2 -101.5t0.5 -89.5v-189h-90v675h105l236 -372q19 -30 33 -53t24.5 -42t18 -33.5t16.5 -32.5h2q-2 33 -3.5 76t-3 93.5t-2 99t-0.5 94.5v170h90v-675h-95zM525 808
q-20 -35 -48.5 -54t-63.5 -19q-26 0 -43.5 8t-32 18t-27.5 18t-29 8q-36 0 -63 -45l-46 33q20 35 48.5 54.5t63.5 19.5q25 0 43 -8t32.5 -18t27.5 -18t29 -8q34 0 63 44l46 -33v0z" />
    <glyph glyph-name="Ograve" unicode="&#xd2;" horiz-adv-x="709" 
d="M570 333q0 126 -56 198.5t-159 72.5q-46 0 -85 -17t-68.5 -50.5t-45.5 -83t-16 -111.5q0 -61 13.5 -111t40.5 -86t67.5 -55t93.5 -19q46 0 85 17t68.5 50.5t45.5 83t16 111.5zM667 347q0 -84 -25 -151t-69.5 -113t-102.5 -69.5t-124 -23.5q-73 0 -129.5 23.5t-95 67.5
t-58.5 106.5t-20 140.5q0 84 25 151t69.5 113t102.5 69.5t124 23.5q73 0 129.5 -23.5t95 -67.5t58.5 -106.5t20 -140.5zM397 725l-190 56l26 70l181 -74z" />
    <glyph glyph-name="Oacute" unicode="&#xd3;" horiz-adv-x="709" 
d="M570 333q0 126 -56 198.5t-159 72.5q-46 0 -85 -17t-68.5 -50.5t-45.5 -83t-16 -111.5q0 -61 13.5 -111t40.5 -86t67.5 -55t93.5 -19q46 0 85 17t68.5 50.5t45.5 83t16 111.5zM667 347q0 -84 -25 -151t-69.5 -113t-102.5 -69.5t-124 -23.5q-73 0 -129.5 23.5t-95 67.5
t-58.5 106.5t-20 140.5q0 84 25 151t69.5 113t102.5 69.5t124 23.5q73 0 129.5 -23.5t95 -67.5t58.5 -106.5t20 -140.5zM318 725l-17 52l182 74l25 -70z" />
    <glyph glyph-name="Ocircumflex" unicode="&#xd4;" horiz-adv-x="709" 
d="M570 333q0 126 -56 198.5t-159 72.5q-46 0 -85 -17t-68.5 -50.5t-45.5 -83t-16 -111.5q0 -61 13.5 -111t40.5 -86t67.5 -55t93.5 -19q46 0 85 17t68.5 50.5t45.5 83t16 111.5zM667 347q0 -84 -25 -151t-69.5 -113t-102.5 -69.5t-124 -23.5q-73 0 -129.5 23.5t-95 67.5
t-58.5 106.5t-20 140.5q0 84 25 151t69.5 113t102.5 69.5t124 23.5q73 0 129.5 -23.5t95 -67.5t58.5 -106.5t20 -140.5zM494 724l-133 60l-135 -60l-24 50l160 83l158 -81z" />
    <glyph glyph-name="Otilde" unicode="&#xd5;" horiz-adv-x="709" 
d="M570 333q0 126 -56 198.5t-159 72.5q-46 0 -85 -17t-68.5 -50.5t-45.5 -83t-16 -111.5q0 -61 13.5 -111t40.5 -86t67.5 -55t93.5 -19q46 0 85 17t68.5 50.5t45.5 83t16 111.5zM667 347q0 -84 -25 -151t-69.5 -113t-102.5 -69.5t-124 -23.5q-73 0 -129.5 23.5t-95 67.5
t-58.5 106.5t-20 140.5q0 84 25 151t69.5 113t102.5 69.5t124 23.5q73 0 129.5 -23.5t95 -67.5t58.5 -106.5t20 -140.5zM531 808q-20 -35 -48.5 -54t-63.5 -19q-26 0 -43.5 8t-32 18t-27.5 18t-29 8q-36 0 -63 -45l-46 33q20 35 48.5 54.5t63.5 19.5q25 0 43 -8t32.5 -18
t27.5 -18t29 -8q34 0 63 44l46 -33v0z" />
    <glyph glyph-name="Odieresis" unicode="&#xd6;" horiz-adv-x="709" 
d="M570 333q0 126 -56 198.5t-159 72.5q-46 0 -85 -17t-68.5 -50.5t-45.5 -83t-16 -111.5q0 -61 13.5 -111t40.5 -86t67.5 -55t93.5 -19q46 0 85 17t68.5 50.5t45.5 83t16 111.5zM667 347q0 -84 -25 -151t-69.5 -113t-102.5 -69.5t-124 -23.5q-73 0 -129.5 23.5t-95 67.5
t-58.5 106.5t-20 140.5q0 84 25 151t69.5 113t102.5 69.5t124 23.5q73 0 129.5 -23.5t95 -67.5t58.5 -106.5t20 -140.5zM518 782q0 -22 -15.5 -38t-38.5 -16q-22 0 -37.5 15.5t-15.5 38.5t15.5 38.5t37.5 15.5q23 0 38.5 -16t15.5 -38zM305 782q0 -22 -15.5 -38t-38.5 -16
t-38.5 16t-15.5 38q0 23 16 38.5t38 15.5q23 0 38.5 -16t15.5 -38z" />
    <glyph glyph-name="multiply" unicode="&#xd7;" 
d="M440 77l-168 168l-167 -168l-50 50l168 168l-168 167l55 55l167 -168l168 168l50 -50l-168 -167l168 -168z" />
    <glyph glyph-name="Oslash" unicode="&#xd8;" horiz-adv-x="709" 
d="M444 586q-19 10 -42 15t-47 5q-46 0 -86 -17t-69.5 -51t-46 -83.5t-16.5 -112.5q0 -75 19.5 -128.5t49.5 -86.5zM572 333q0 75 -19 129t-49 86l-238 -459q19 -9 42 -14.5t47 -5.5q46 0 86 17t69.5 51t45.5 83.5t16 112.5zM667 347q0 -84 -25 -151t-69.5 -113
t-102.5 -69.5t-124 -23.5t-119 22l-54 -104l-66 31l54 104q-56 41 -87 113t-31 172q0 84 25 151t69.5 113t102.5 69.5t124 23.5q32 0 62 -5.5t57 -16.5l54 104l65 -31l-54 -104q57 -41 88 -112.5t31 -172.5z" />
    <glyph glyph-name="Ugrave" unicode="&#xd9;" horiz-adv-x="693" 
d="M607 258q0 -132 -68 -200t-201 -68q-79 0 -128.5 20t-77 53.5t-37.5 75.5t-10 88v448h92v-441q0 -35 7 -65.5t25.5 -53.5t51 -36t83.5 -13q88 -1 130.5 41t42.5 144v424h90v-417v0zM377 725l-190 56l26 70l181 -74z" />
    <glyph glyph-name="Uacute" unicode="&#xda;" horiz-adv-x="693" 
d="M607 258q0 -132 -68 -200t-201 -68q-79 0 -128.5 20t-77 53.5t-37.5 75.5t-10 88v448h92v-441q0 -35 7 -65.5t25.5 -53.5t51 -36t83.5 -13q88 -1 130.5 41t42.5 144v424h90v-417v0zM329 725l-17 52l182 74l25 -70z" />
    <glyph glyph-name="Ucircumflex" unicode="&#xdb;" horiz-adv-x="693" 
d="M607 258q0 -132 -68 -200t-201 -68q-79 0 -128.5 20t-77 53.5t-37.5 75.5t-10 88v448h92v-441q0 -35 7 -65.5t25.5 -53.5t51 -36t83.5 -13q88 -1 130.5 41t42.5 144v424h90v-417v0zM482 724l-133 60l-135 -60l-24 50l160 83l158 -81z" />
    <glyph glyph-name="Udieresis" unicode="&#xdc;" horiz-adv-x="693" 
d="M607 258q0 -132 -68 -200t-201 -68q-79 0 -128.5 20t-77 53.5t-37.5 75.5t-10 88v448h92v-441q0 -35 7 -65.5t25.5 -53.5t51 -36t83.5 -13q88 -1 130.5 41t42.5 144v424h90v-417v0zM506 782q0 -22 -15.5 -38t-38.5 -16q-22 0 -37.5 15.5t-15.5 38.5t15.5 38.5t37.5 15.5
q23 0 38.5 -16t15.5 -38zM293 782q0 -22 -15.5 -38t-38.5 -16t-38.5 16t-15.5 38q0 23 16 38.5t38 15.5q23 0 38.5 -16t15.5 -38z" />
    <glyph glyph-name="Yacute" unicode="&#xdd;" horiz-adv-x="537" 
d="M313 259v-259h-91v259l-220 416h101l116 -220q27 -54 50 -111h2q13 32 29 65t25 50l112 216h98zM247 725l-17 52l182 74l25 -70z" />
    <glyph glyph-name="Thorn" unicode="&#xde;" horiz-adv-x="537" 
d="M423 357q0 68 -43 107.5t-129 39.5q-22 0 -43 -1.5t-31 -2.5v-289q10 -1 32 -3t46 -2q81 0 124.5 42t43.5 109zM518 369q0 -51 -18.5 -94.5t-54 -75.5t-85.5 -50t-112 -18q-22 0 -42 1t-29 2v-134h-92v675h92v-98q10 1 33.5 1.5t51.5 0.5q126 0 191 -58.5t65 -151.5z" />
    <glyph glyph-name="germandbls" unicode="&#xdf;" horiz-adv-x="593" 
d="M552 149q0 -34 -14 -63.5t-40.5 -51t-63.5 -33t-81 -11.5q-25 0 -49 3t-44 8v79q20 -7 44.5 -12t47.5 -5q51 0 79.5 20.5t28.5 54.5q0 22 -10.5 38t-25.5 27.5t-55.5 34t-61 41.5t-32.5 44.5t-12 59.5q0 26 8 46t22 35.5t41 35.5t38 31.5t18.5 26t7.5 34.5q0 35 -25.5 54
t-69.5 19q-64 0 -96 -39.5t-32 -120.5v-505h-90v500q0 61 16 106t46 73.5t70.5 42t90.5 13.5q84 0 133 -37t49 -98q0 -30 -8.5 -52t-23 -38t-42.5 -35.5t-38 -29t-17 -22t-7 -30.5q0 -21 10.5 -36.5t25.5 -27t55.5 -35t61.5 -42.5t33 -44t12 -59z" />
    <glyph glyph-name="agrave" unicode="&#xe0;" horiz-adv-x="521" 
d="M345 223h-59q-36 0 -64 -4.5t-47.5 -14.5t-29.5 -25.5t-10 -38.5q0 -34 21 -56t55 -22q28 0 53.5 12.5t44 35.5t27.5 49.5t9 54.5v9zM348 0q0 29 2 52.5t5 42.5h-2q-19 -47 -63.5 -75.5t-101.5 -28.5q-64 0 -103 37.5t-39 99.5q0 77 61.5 117t182.5 40h55v33
q0 63 -26.5 90.5t-84.5 27.5q-34 0 -74.5 -8.5t-77.5 -23.5v74q32 11 75.5 19.5t86.5 8.5q55 0 91.5 -13t57.5 -35.5t31.5 -54t10.5 -77.5v-183v-74.5v-68.5h-87zM268 569l-140 128l55 54l129 -139z" />
    <glyph glyph-name="aacute" unicode="&#xe1;" horiz-adv-x="521" 
d="M345 223h-59q-36 0 -64 -4.5t-47.5 -14.5t-29.5 -25.5t-10 -38.5q0 -34 21 -56t55 -22q28 0 53.5 12.5t44 35.5t27.5 49.5t9 54.5v9zM348 0q0 29 2 52.5t5 42.5h-2q-19 -47 -63.5 -75.5t-101.5 -28.5q-64 0 -103 37.5t-39 99.5q0 77 61.5 117t182.5 40h55v33
q0 63 -26.5 90.5t-84.5 27.5q-34 0 -74.5 -8.5t-77.5 -23.5v74q32 11 75.5 19.5t86.5 8.5q55 0 91.5 -13t57.5 -35.5t31.5 -54t10.5 -77.5v-183v-74.5v-68.5h-87zM249 569l-44 43l129 139l55 -53z" />
    <glyph glyph-name="acircumflex" unicode="&#xe2;" horiz-adv-x="521" 
d="M345 223h-59q-36 0 -64 -4.5t-47.5 -14.5t-29.5 -25.5t-10 -38.5q0 -34 21 -56t55 -22q28 0 53.5 12.5t44 35.5t27.5 49.5t9 54.5v9zM348 0q0 29 2 52.5t5 42.5h-2q-19 -47 -63.5 -75.5t-101.5 -28.5q-64 0 -103 37.5t-39 99.5q0 77 61.5 117t182.5 40h55v33
q0 63 -26.5 90.5t-84.5 27.5q-34 0 -74.5 -8.5t-77.5 -23.5v74q32 11 75.5 19.5t86.5 8.5q55 0 91.5 -13t57.5 -35.5t31.5 -54t10.5 -77.5v-183v-74.5v-68.5h-87zM359 570l-100 85l-102 -85l-37 43l140 131l138 -130z" />
    <glyph glyph-name="atilde" unicode="&#xe3;" horiz-adv-x="521" 
d="M345 223h-59q-36 0 -64 -4.5t-47.5 -14.5t-29.5 -25.5t-10 -38.5q0 -34 21 -56t55 -22q28 0 53.5 12.5t44 35.5t27.5 49.5t9 54.5v9zM348 0q0 29 2 52.5t5 42.5h-2q-19 -47 -63.5 -75.5t-101.5 -28.5q-64 0 -103 37.5t-39 99.5q0 77 61.5 117t182.5 40h55v33
q0 63 -26.5 90.5t-84.5 27.5q-34 0 -74.5 -8.5t-77.5 -23.5v74q32 11 75.5 19.5t86.5 8.5q55 0 91.5 -13t57.5 -35.5t31.5 -54t10.5 -77.5v-183v-74.5v-68.5h-87zM426 671q-20 -38 -47.5 -58t-61.5 -20q-22 0 -38.5 7.5t-36 21.5t-29.5 20t-24 6q-33 0 -59 -47l-45 35
q20 38 47.5 58t61.5 20q22 0 38.5 -7t36 -21t29.5 -20t24 -6q34 0 59 46z" />
    <glyph glyph-name="adieresis" unicode="&#xe4;" horiz-adv-x="521" 
d="M345 223h-59q-36 0 -64 -4.5t-47.5 -14.5t-29.5 -25.5t-10 -38.5q0 -34 21 -56t55 -22q28 0 53.5 12.5t44 35.5t27.5 49.5t9 54.5v9zM348 0q0 29 2 52.5t5 42.5h-2q-19 -47 -63.5 -75.5t-101.5 -28.5q-64 0 -103 37.5t-39 99.5q0 77 61.5 117t182.5 40h55v33
q0 63 -26.5 90.5t-84.5 27.5q-34 0 -74.5 -8.5t-77.5 -23.5v74q32 11 75.5 19.5t86.5 8.5q55 0 91.5 -13t57.5 -35.5t31.5 -54t10.5 -77.5v-183v-74.5v-68.5h-87zM215 654q0 -23 -16 -38.5t-38 -15.5q-23 0 -38.5 16t-15.5 38q0 23 16 38.5t38 15.5q23 0 38.5 -16t15.5 -38z
M407 654q0 -23 -16 -38.5t-38 -15.5q-23 0 -38.5 16t-15.5 38q0 23 16 38.5t38 15.5q23 0 38.5 -16t15.5 -38z" />
    <glyph glyph-name="aring" unicode="&#xe5;" horiz-adv-x="521" 
d="M345 223h-59q-36 0 -64 -4.5t-47.5 -14.5t-29.5 -25.5t-10 -38.5q0 -34 21 -56t55 -22q28 0 53.5 12.5t44 35.5t27.5 49.5t9 54.5v9zM348 0q0 29 2 52.5t5 42.5h-2q-19 -47 -63.5 -75.5t-101.5 -28.5q-64 0 -103 37.5t-39 99.5q0 77 61.5 117t182.5 40h55v33
q0 63 -26.5 90.5t-84.5 27.5q-34 0 -74.5 -8.5t-77.5 -23.5v74q32 11 75.5 19.5t86.5 8.5q55 0 91.5 -13t57.5 -35.5t31.5 -54t10.5 -77.5v-183v-74.5v-68.5h-87zM378 670q0 -49 -33.5 -81t-87.5 -32q-53 0 -82 27t-29 79q0 49 33 80.5t87 31.5q53 0 82.5 -26.5t29.5 -78.5z
M312 666q0 58 -50 58q-22 0 -36.5 -15t-14.5 -42q0 -58 50 -58q22 0 36.5 14.5t14.5 42.5z" />
    <glyph glyph-name="ae" unicode="&#xe6;" horiz-adv-x="807" 
d="M739 16q-35 -11 -77.5 -18t-85.5 -7q-44 0 -77.5 8.5t-57.5 23.5t-40 35.5t-25 44.5h-1q-25 -46 -71 -79t-112 -33q-68 0 -107 37t-39 100q0 78 62 117.5t182 39.5h55v33q0 57 -24 87.5t-87 30.5q-36 0 -76.5 -9t-75.5 -23v74q36 12 78 20t84 8q57 0 97.5 -17.5
t62.5 -59.5h1q23 33 63.5 55t95.5 22q52 0 89 -16.5t61 -44.5t35.5 -66.5t11.5 -81.5q0 -31 -3 -62h-325q1 -86 38 -129t115 -43q38 0 77 7t76 19v-73zM671 298q3 70 -28 105t-84 35q-49 0 -84.5 -35.5t-40.5 -104.5h237zM345 223h-59q-43 0 -72 -6t-46.5 -17t-25 -26
t-7.5 -34q0 -34 20.5 -56t55.5 -22q30 0 54.5 13t42.5 34.5t27.5 48.5t9.5 56v9z" />
    <glyph glyph-name="ccedilla" unicode="&#xe7;" horiz-adv-x="427" 
d="M392 11q-37 -10 -67 -14.5t-64 -4.5q-50 0 -89.5 13t-69 41.5t-45.5 75t-16 112.5q0 60 15 110t45.5 86.5t76 55.5t103.5 19q27 0 53.5 -4.5t53.5 -12.5v-83q-28 12 -54.5 18t-55.5 6q-34 0 -61 -12.5t-45.5 -37.5t-27 -59.5t-8.5 -75.5q0 -39 7 -70t23 -54.5t43.5 -36.5
t67.5 -13q55 0 115 17v-76zM274 -40q37 -51 29.5 -98.5t-50.5 -96.5h-73q19 24 31 45t14.5 40.5t-4 38.5t-24.5 41l77 30v0z" />
    <glyph glyph-name="egrave" unicode="&#xe8;" horiz-adv-x="508" 
d="M371 298q3 68 -27.5 104t-84.5 36q-51 0 -85.5 -36.5t-39.5 -103.5h237zM461 297q0 -29 -3 -62h-325q1 -86 38.5 -129t114.5 -43q37 0 76 7t77 19v-73q-37 -11 -79.5 -18t-83.5 -7q-116 0 -175.5 63t-59.5 195q0 55 15 101.5t43.5 81.5t70.5 54.5t94 19.5q50 0 87.5 -16
t62 -44.5t36 -66t11.5 -82.5zM270 569l-140 128l55 54l129 -139z" />
    <glyph glyph-name="eacute" unicode="&#xe9;" horiz-adv-x="508" 
d="M371 298q3 68 -27.5 104t-84.5 36q-51 0 -85.5 -36.5t-39.5 -103.5h237zM461 297q0 -29 -3 -62h-325q1 -86 38.5 -129t114.5 -43q37 0 76 7t77 19v-73q-37 -11 -79.5 -18t-83.5 -7q-116 0 -175.5 63t-59.5 195q0 55 15 101.5t43.5 81.5t70.5 54.5t94 19.5q50 0 87.5 -16
t62 -44.5t36 -66t11.5 -82.5zM252 569l-44 43l129 139l55 -53z" />
    <glyph glyph-name="ecircumflex" unicode="&#xea;" horiz-adv-x="508" 
d="M371 298q3 68 -27.5 104t-84.5 36q-51 0 -85.5 -36.5t-39.5 -103.5h237zM461 297q0 -29 -3 -62h-325q1 -86 38.5 -129t114.5 -43q37 0 76 7t77 19v-73q-37 -11 -79.5 -18t-83.5 -7q-116 0 -175.5 63t-59.5 195q0 55 15 101.5t43.5 81.5t70.5 54.5t94 19.5q50 0 87.5 -16
t62 -44.5t36 -66t11.5 -82.5zM362 570l-100 85l-102 -85l-37 43l140 131l138 -130z" />
    <glyph glyph-name="edieresis" unicode="&#xeb;" horiz-adv-x="508" 
d="M371 298q3 68 -27.5 104t-84.5 36q-51 0 -85.5 -36.5t-39.5 -103.5h237zM461 297q0 -29 -3 -62h-325q1 -86 38.5 -129t114.5 -43q37 0 76 7t77 19v-73q-37 -11 -79.5 -18t-83.5 -7q-116 0 -175.5 63t-59.5 195q0 55 15 101.5t43.5 81.5t70.5 54.5t94 19.5q50 0 87.5 -16
t62 -44.5t36 -66t11.5 -82.5zM220 654q0 -23 -16 -38.5t-38 -15.5q-23 0 -38.5 16t-15.5 38q0 23 16 38.5t38 15.5q23 0 38.5 -16t15.5 -38zM412 654q0 -23 -16 -38.5t-38 -15.5q-23 0 -38.5 16t-15.5 38q0 23 16 38.5t38 15.5q23 0 38.5 -16t15.5 -38z" />
    <glyph glyph-name="igrave" unicode="&#xec;" horiz-adv-x="260" 
d="M85 0v497h90v-497h-90zM119 564l-99 158l69 36l85 -165z" />
    <glyph glyph-name="iacute" unicode="&#xed;" horiz-adv-x="260" 
d="M85 0v497h90v-497h-90zM135 568l-52 35l104 152l64 -43z" />
    <glyph glyph-name="icircumflex" unicode="&#xee;" horiz-adv-x="260" 
d="M85 0v497h90v-497h-90zM216 570l-87 85l-88 -85l-37 42l126 131l125 -130z" />
    <glyph glyph-name="idieresis" unicode="&#xef;" horiz-adv-x="260" 
d="M85 0v497h90v-497h-90zM96 654q0 -22 -15.5 -38t-38.5 -16q-22 0 -38 16t-16 38q0 23 16 38.5t38 15.5q23 0 38.5 -15.5t15.5 -38.5zM271 654q0 -22 -15.5 -38t-38.5 -16q-22 0 -38 16t-16 38q0 23 16 38.5t38 15.5q23 0 38.5 -15.5t15.5 -38.5z" />
    <glyph glyph-name="eth" unicode="&#xf0;" horiz-adv-x="546" 
d="M410 261q0 79 -35.5 124.5t-102.5 45.5q-28 0 -53 -11t-44.5 -33.5t-30.5 -56.5t-11 -79q0 -88 38 -136t105 -48q29 0 53 11t42.5 35t28.5 61t10 87zM503 273q0 -70 -18 -123.5t-50 -88.5t-75 -52.5t-94 -17.5t-92.5 15.5t-71.5 47t-46 79.5t-16 111q0 55 16.5 103
t47.5 83.5t74.5 55t96.5 19.5q34 0 62.5 -11t42.5 -34q-7 13 -16 27.5t-14 23.5q-13 22 -28.5 43t-35.5 43l-102 -46l-38 47l94 42q-16 14 -34 28.5t-47 37.5l90 38q21 -17 39.5 -33.5t35.5 -34.5l100 44l39 -47l-97 -42q66 -80 101.5 -171t35.5 -187z" />
    <glyph glyph-name="ntilde" unicode="&#xf1;" horiz-adv-x="575" 
d="M401 0v320q0 56 -19 84t-66 28q-30 0 -56 -14.5t-45 -41t-29.5 -62t-10.5 -76.5v-238h-90v497h87q0 -26 -2 -55t-6 -50h2q22 53 67.5 83.5t107.5 30.5q41 0 70.5 -12t47 -33.5t25 -50t7.5 -63.5v-347h-90zM462 671q-20 -38 -47.5 -58t-61.5 -20q-22 0 -38.5 7.5t-36 21.5
t-29.5 20t-24 6q-33 0 -59 -47l-45 35q20 38 47.5 58t61.5 20q22 0 38.5 -7t36 -21t29.5 -20t24 -6q34 0 59 46z" />
    <glyph glyph-name="ograve" unicode="&#xf2;" horiz-adv-x="545" 
d="M412 249q0 87 -36.5 134.5t-101.5 47.5q-32 0 -58 -11.5t-44.5 -34.5t-28.5 -57.5t-10 -79.5q0 -87 36.5 -134t102.5 -47q30 0 55.5 11t44.5 33.5t29.5 57t10.5 80.5zM505 256q0 -56 -15.5 -104.5t-46.5 -84.5t-76.5 -56t-102.5 -20q-51 0 -92.5 15.5t-71 46.5t-45 78
t-15.5 110q0 56 15.5 104.5t46.5 84.5t76.5 56t103.5 20q51 0 92 -15.5t70.5 -46.5t45 -78t15.5 -110zM286 569l-140 128l55 54l129 -139z" />
    <glyph glyph-name="oacute" unicode="&#xf3;" horiz-adv-x="545" 
d="M412 249q0 87 -36.5 134.5t-101.5 47.5q-32 0 -58 -11.5t-44.5 -34.5t-28.5 -57.5t-10 -79.5q0 -87 36.5 -134t102.5 -47q30 0 55.5 11t44.5 33.5t29.5 57t10.5 80.5zM505 256q0 -56 -15.5 -104.5t-46.5 -84.5t-76.5 -56t-102.5 -20q-51 0 -92.5 15.5t-71 46.5t-45 78
t-15.5 110q0 56 15.5 104.5t46.5 84.5t76.5 56t103.5 20q51 0 92 -15.5t70.5 -46.5t45 -78t15.5 -110zM266 569l-44 43l129 139l55 -53z" />
    <glyph glyph-name="ocircumflex" unicode="&#xf4;" horiz-adv-x="545" 
d="M412 249q0 87 -36.5 134.5t-101.5 47.5q-32 0 -58 -11.5t-44.5 -34.5t-28.5 -57.5t-10 -79.5q0 -87 36.5 -134t102.5 -47q30 0 55.5 11t44.5 33.5t29.5 57t10.5 80.5zM505 256q0 -56 -15.5 -104.5t-46.5 -84.5t-76.5 -56t-102.5 -20q-51 0 -92.5 15.5t-71 46.5t-45 78
t-15.5 110q0 56 15.5 104.5t46.5 84.5t76.5 56t103.5 20q51 0 92 -15.5t70.5 -46.5t45 -78t15.5 -110zM377 570l-100 85l-102 -85l-37 43l140 131l138 -130z" />
    <glyph glyph-name="otilde" unicode="&#xf5;" horiz-adv-x="545" 
d="M412 249q0 87 -36.5 134.5t-101.5 47.5q-32 0 -58 -11.5t-44.5 -34.5t-28.5 -57.5t-10 -79.5q0 -87 36.5 -134t102.5 -47q30 0 55.5 11t44.5 33.5t29.5 57t10.5 80.5zM505 256q0 -56 -15.5 -104.5t-46.5 -84.5t-76.5 -56t-102.5 -20q-51 0 -92.5 15.5t-71 46.5t-45 78
t-15.5 110q0 56 15.5 104.5t46.5 84.5t76.5 56t103.5 20q51 0 92 -15.5t70.5 -46.5t45 -78t15.5 -110zM449 671q-20 -38 -47.5 -58t-61.5 -20q-22 0 -38.5 7.5t-36 21.5t-29.5 20t-24 6q-33 0 -59 -47l-45 35q20 38 47.5 58t61.5 20q22 0 38.5 -7t36 -21t29.5 -20t24 -6
q34 0 59 46z" />
    <glyph glyph-name="odieresis" unicode="&#xf6;" horiz-adv-x="545" 
d="M412 249q0 87 -36.5 134.5t-101.5 47.5q-32 0 -58 -11.5t-44.5 -34.5t-28.5 -57.5t-10 -79.5q0 -87 36.5 -134t102.5 -47q30 0 55.5 11t44.5 33.5t29.5 57t10.5 80.5zM505 256q0 -56 -15.5 -104.5t-46.5 -84.5t-76.5 -56t-102.5 -20q-51 0 -92.5 15.5t-71 46.5t-45 78
t-15.5 110q0 56 15.5 104.5t46.5 84.5t76.5 56t103.5 20q51 0 92 -15.5t70.5 -46.5t45 -78t15.5 -110zM233 654q0 -23 -16 -38.5t-38 -15.5q-23 0 -38.5 16t-15.5 38q0 23 16 38.5t38 15.5q23 0 38.5 -16t15.5 -38zM425 654q0 -23 -16 -38.5t-38 -15.5q-23 0 -38.5 16
t-15.5 38q0 23 16 38.5t38 15.5q23 0 38.5 -16t15.5 -38z" />
    <glyph glyph-name="divide" unicode="&#xf7;" 
d="M334 96q0 -26 -17.5 -43.5t-42.5 -17.5q-26 0 -43.5 17.5t-17.5 43.5q0 25 17.5 42.5t43.5 17.5q25 0 42.5 -17.5t17.5 -42.5zM42 260v75h466v-75h-466zM334 498q0 -25 -17.5 -42.5t-42.5 -17.5q-26 0 -43.5 17.5t-17.5 42.5t17.5 42.5t43.5 17.5q25 0 42.5 -17.5
t17.5 -42.5z" />
    <glyph glyph-name="oslash" unicode="&#xf8;" horiz-adv-x="545" 
d="M505 256q0 -56 -15.5 -104.5t-46.5 -84.5t-76.5 -56t-102.5 -20q-24 0 -46 3.5t-40 10.5l-49 -94l-56 26l51 95q-41 31 -62.5 83t-21.5 126q0 56 15.5 104.5t46.5 84.5t76.5 56t103.5 20q49 0 85 -14l49 94l56 -26l-50 -95q16 -12 29 -27.5t23 -34.5t17 -41.5t10.5 -49
t3.5 -56.5zM418 249q0 23 -3 44t-8 38.5t-12 31.5t-14 24l-166 -313q26 -12 56 -12q33 0 60.5 12t46.5 36t29.5 59t10.5 80zM330 423q-26 12 -56 12q-33 0 -60 -12t-46.5 -36t-29.5 -59t-10 -80q0 -19 2 -36.5t5.5 -32.5t8 -27.5t10 -23t11.5 -18.5z" />
    <glyph glyph-name="ugrave" unicode="&#xf9;" horiz-adv-x="575" 
d="M403 0q0 26 2 55t6 50h-2q-22 -53 -67.5 -83.5t-107.5 -30.5q-41 0 -70 12t-46.5 33.5t-25 50t-7.5 63.5v347h89v-320q0 -56 19 -84t66 -28q30 0 56 14.5t45 41t29.5 62t10.5 76.5v238h90v-497h-87zM291 569l-140 128l55 54l129 -139z" />
    <glyph glyph-name="uacute" unicode="&#xfa;" horiz-adv-x="575" 
d="M403 0q0 26 2 55t6 50h-2q-22 -53 -67.5 -83.5t-107.5 -30.5q-41 0 -70 12t-46.5 33.5t-25 50t-7.5 63.5v347h89v-320q0 -56 19 -84t66 -28q30 0 56 14.5t45 41t29.5 62t10.5 76.5v238h90v-497h-87zM286 569l-44 43l129 139l55 -53z" />
    <glyph glyph-name="ucircumflex" unicode="&#xfb;" horiz-adv-x="575" 
d="M403 0q0 26 2 55t6 50h-2q-22 -53 -67.5 -83.5t-107.5 -30.5q-41 0 -70 12t-46.5 33.5t-25 50t-7.5 63.5v347h89v-320q0 -56 19 -84t66 -28q30 0 56 14.5t45 41t29.5 62t10.5 76.5v238h90v-497h-87zM388 570l-100 85l-102 -85l-37 43l140 131l138 -130z" />
    <glyph glyph-name="udieresis" unicode="&#xfc;" horiz-adv-x="575" 
d="M403 0q0 26 2 55t6 50h-2q-22 -53 -67.5 -83.5t-107.5 -30.5q-41 0 -70 12t-46.5 33.5t-25 50t-7.5 63.5v347h89v-320q0 -56 19 -84t66 -28q30 0 56 14.5t45 41t29.5 62t10.5 76.5v238h90v-497h-87zM245 654q0 -23 -16 -38.5t-38 -15.5q-23 0 -38.5 16t-15.5 38
q0 23 16 38.5t38 15.5q23 0 38.5 -16t15.5 -38zM437 654q0 -23 -16 -38.5t-38 -15.5q-23 0 -38.5 16t-15.5 38q0 23 16 38.5t38 15.5q23 0 38.5 -16t15.5 -38z" />
    <glyph glyph-name="yacute" unicode="&#xfd;" horiz-adv-x="480" 
d="M278 -25q-23 -65 -48 -119.5t-51 -102.5h-99q31 54 58.5 108.5t47.5 108.5l11 30l-188 497h103l94 -260q12 -36 21 -66.5t18 -60.5h1q7 27 20 67.5t28 86.5l80 233h97zM244 569l-44 43l129 139l55 -53z" />
    <glyph glyph-name="thorn" unicode="&#xfe;" horiz-adv-x="558" 
d="M421 264q0 82 -27.5 125t-82.5 43q-32 0 -58 -17t-43 -45.5t-26 -62t-9 -67.5v-164q39 -12 88 -12q36 0 65 11.5t50 35.5t32 62.5t11 90.5zM515 272q0 -132 -67.5 -205t-188.5 -73q-25 0 -44.5 1t-39.5 5v-247h-90v977h90v-218q0 -29 -1.5 -60.5t-4.5 -50.5l2 -1
q20 49 62.5 77.5t99.5 28.5q87 0 134.5 -60.5t47.5 -173.5z" />
    <glyph glyph-name="ydieresis" unicode="&#xff;" horiz-adv-x="480" 
d="M278 -25q-23 -65 -48 -119.5t-51 -102.5h-99q31 54 58.5 108.5t47.5 108.5l11 30l-188 497h103l94 -260q12 -36 21 -66.5t18 -60.5h1q7 27 20 67.5t28 86.5l80 233h97zM201 654q0 -23 -16 -38.5t-38 -15.5q-23 0 -38.5 16t-15.5 38q0 23 16 38.5t38 15.5q23 0 38.5 -16
t15.5 -38zM393 654q0 -23 -16 -38.5t-38 -15.5q-23 0 -38.5 16t-15.5 38q0 23 16 38.5t38 15.5q23 0 38.5 -16t15.5 -38z" />
    <glyph glyph-name="Amacron" unicode="&#x100;" horiz-adv-x="615" 
d="M333 493q-7 21 -14.5 46t-14.5 49h-1q-5 -20 -11.5 -41t-16.5 -53l-92 -260h242zM502 0l-55 161h-287l-56 -161h-94l242 675h112l241 -675h-103zM168 748v62h276v-62h-276z" />
    <glyph glyph-name="amacron" unicode="&#x101;" horiz-adv-x="521" 
d="M345 223h-59q-36 0 -64 -4.5t-47.5 -14.5t-29.5 -25.5t-10 -38.5q0 -34 21 -56t55 -22q28 0 53.5 12.5t44 35.5t27.5 49.5t9 54.5v9zM348 0q0 29 2 52.5t5 42.5h-2q-19 -47 -63.5 -75.5t-101.5 -28.5q-64 0 -103 37.5t-39 99.5q0 77 61.5 117t182.5 40h55v33
q0 63 -26.5 90.5t-84.5 27.5q-34 0 -74.5 -8.5t-77.5 -23.5v74q32 11 75.5 19.5t86.5 8.5q55 0 91.5 -13t57.5 -35.5t31.5 -54t10.5 -77.5v-183v-74.5v-68.5h-87zM132 616v68h252v-68h-252z" />
    <glyph glyph-name="Abreve" unicode="&#x102;" horiz-adv-x="615" 
d="M333 493q-7 21 -14.5 46t-14.5 49h-1q-5 -20 -11.5 -41t-16.5 -53l-92 -260h242zM502 0l-55 161h-287l-56 -161h-94l242 675h112l241 -675h-103zM434 852q0 -52 -34.5 -87t-96.5 -35q-32 0 -55.5 9.5t-40 26t-24.5 39t-8 47.5h58q0 -26 20 -43.5t52 -17.5t51 17.5
t19 43.5h59z" />
    <glyph glyph-name="abreve" unicode="&#x103;" horiz-adv-x="521" 
d="M345 223h-59q-36 0 -64 -4.5t-47.5 -14.5t-29.5 -25.5t-10 -38.5q0 -34 21 -56t55 -22q28 0 53.5 12.5t44 35.5t27.5 49.5t9 54.5v9zM348 0q0 29 2 52.5t5 42.5h-2q-19 -47 -63.5 -75.5t-101.5 -28.5q-64 0 -103 37.5t-39 99.5q0 77 61.5 117t182.5 40h55v33
q0 63 -26.5 90.5t-84.5 27.5q-34 0 -74.5 -8.5t-77.5 -23.5v74q32 11 75.5 19.5t86.5 8.5q55 0 91.5 -13t57.5 -35.5t31.5 -54t10.5 -77.5v-183v-74.5v-68.5h-87zM386 718q0 -27 -7.5 -51.5t-23 -43t-39.5 -29.5t-57 -11t-56.5 11t-38 30t-21.5 43t-7 51h61q0 -28 16 -48
t47 -20q29 0 46.5 17.5t17.5 50.5h62v0z" />
    <glyph glyph-name="Aogonek" unicode="&#x104;" horiz-adv-x="615" 
d="M333 493q-7 20 -12 37t-17 58h-1q-5 -18 -11 -38t-17 -56l-92 -260h242zM625 -211q-46 -23 -99 -23q-50 0 -78.5 24.5t-28.5 66.5q0 38 21 74.5t62 68.5l-55 161h-287l-56 -161h-94l242 675h112l241 -675q-52 -30 -76 -61.5t-24 -63.5q0 -20 10.5 -30t29.5 -10
q38 0 80 22v-68z" />
    <glyph glyph-name="aogonek" unicode="&#x105;" horiz-adv-x="521" 
d="M477 -211q-23 -11 -47.5 -17t-50.5 -6q-25 0 -45 6t-34 18t-21.5 29t-7.5 38q0 19 5.5 38t17 38t28.5 37.5t40 36.5q-4 26 -5 49t0 40l-2 1q-10 -23 -26.5 -42.5t-38 -34t-47.5 -22t-55 -7.5q-31 0 -57.5 9.5t-45.5 28t-29 43.5t-10 56q0 40 17 70.5t51 50.5t79 28t97 8
h55v33q0 62 -26 90t-85 28q-34 0 -74.5 -8.5t-77.5 -23.5v74q39 13 80.5 20.5t81.5 7.5q52 0 88.5 -12t59 -35t33 -56t10.5 -77v-150q0 -45 3.5 -91t10.5 -85q-48 -33 -70 -64t-22 -61q0 -40 40 -40q15 0 35.5 5t44.5 17v-68zM345 223h-59q-36 0 -63.5 -4.5t-47.5 -14
t-30 -25.5t-10 -39q0 -34 21 -56t55 -22q28 0 53 12t43.5 34.5t28 50t9.5 55.5v9z" />
    <glyph glyph-name="Cacute" unicode="&#x106;" horiz-adv-x="583" 
d="M531 19q-45 -13 -91 -20t-92 -7q-76 0 -134 23.5t-95.5 68t-55 105t-17.5 133.5q0 77 20 143.5t60.5 114.5t102.5 74.5t142 26.5q41 0 81.5 -6.5t70.5 -16.5v-91q-48 19 -85.5 27t-78.5 8q-53 0 -94 -20t-67.5 -56.5t-39.5 -84.5t-13 -109q0 -123 55 -190.5t165 -67.5
q41 0 81 7.5t85 19.5v-82zM307 725l-17 52l182 74l25 -70z" />
    <glyph glyph-name="cacute" unicode="&#x107;" horiz-adv-x="427" 
d="M392 11q-37 -10 -67 -14.5t-64 -4.5q-50 0 -89.5 13t-69 41.5t-45.5 75t-16 112.5q0 60 15 110t45.5 86.5t76 55.5t103.5 19q27 0 53.5 -4.5t53.5 -12.5v-83q-28 12 -54.5 18t-55.5 6q-34 0 -61 -12.5t-45.5 -37.5t-27 -59.5t-8.5 -75.5q0 -39 7 -70t23 -54.5t43.5 -36.5
t67.5 -13q55 0 115 17v-76zM234 569l-44 43l129 139l55 -53z" />
    <glyph glyph-name="Ccircumflex" unicode="&#x108;" horiz-adv-x="583" 
d="M531 19q-45 -13 -91 -20t-92 -7q-76 0 -134 23.5t-95.5 68t-55 105t-17.5 133.5q0 77 20 143.5t60.5 114.5t102.5 74.5t142 26.5q41 0 81.5 -6.5t70.5 -16.5v-91q-48 19 -85.5 27t-78.5 8q-53 0 -94 -20t-67.5 -56.5t-39.5 -84.5t-13 -109q0 -123 55 -190.5t165 -67.5
q41 0 81 7.5t85 19.5v-82zM483 724l-133 60l-135 -60l-24 50l160 83l158 -81z" />
    <glyph glyph-name="ccircumflex" unicode="&#x109;" horiz-adv-x="427" 
d="M392 11q-37 -10 -67 -14.5t-64 -4.5q-50 0 -89.5 13t-69 41.5t-45.5 75t-16 112.5q0 60 15 110t45.5 86.5t76 55.5t103.5 19q27 0 53.5 -4.5t53.5 -12.5v-83q-28 12 -54.5 18t-55.5 6q-34 0 -61 -12.5t-45.5 -37.5t-27 -59.5t-8.5 -75.5q0 -39 7 -70t23 -54.5t43.5 -36.5
t67.5 -13q55 0 115 17v-76zM347 570l-100 85l-102 -85l-37 43l140 131l138 -130z" />
    <glyph glyph-name="Cdotaccent" unicode="&#x10a;" horiz-adv-x="583" 
d="M531 19q-45 -13 -91 -20t-92 -7q-76 0 -134 23.5t-95.5 68t-55 105t-17.5 133.5q0 77 20 143.5t60.5 114.5t102.5 74.5t142 26.5q41 0 81.5 -6.5t70.5 -16.5v-91q-48 19 -85.5 27t-78.5 8q-53 0 -94 -20t-67.5 -56.5t-39.5 -84.5t-13 -109q0 -123 55 -190.5t165 -67.5
q41 0 81 7.5t85 19.5v-82zM410 785q0 -24 -17 -41t-41 -17t-41 17t-17 41t17 41t41 17t41 -16.5t17 -41.5z" />
    <glyph glyph-name="cdotaccent" unicode="&#x10b;" horiz-adv-x="427" 
d="M392 11q-37 -10 -67 -14.5t-64 -4.5q-50 0 -89.5 13t-69 41.5t-45.5 75t-16 112.5q0 60 15 110t45.5 86.5t76 55.5t103.5 19q27 0 53.5 -4.5t53.5 -12.5v-83q-28 12 -54.5 18t-55.5 6q-34 0 -61 -12.5t-45.5 -37.5t-27 -59.5t-8.5 -75.5q0 -39 7 -70t23 -54.5t43.5 -36.5
t67.5 -13q55 0 115 17v-76zM314 654q0 -24 -17 -41t-41 -17t-41 16.5t-17 41.5q0 24 17 41t41 17t41 -17t17 -41z" />
    <glyph glyph-name="Ccaron" unicode="&#x10c;" horiz-adv-x="583" 
d="M531 19q-45 -13 -91 -20t-92 -7q-76 0 -134 23.5t-95.5 68t-55 105t-17.5 133.5q0 77 20 143.5t60.5 114.5t102.5 74.5t142 26.5q41 0 81.5 -6.5t70.5 -16.5v-91q-48 19 -85.5 27t-78.5 8q-53 0 -94 -20t-67.5 -56.5t-39.5 -84.5t-13 -109q0 -123 55 -190.5t165 -67.5
q41 0 81 7.5t85 19.5v-82zM346 724l-157 82l25 51l134 -60l135 60l24 -50z" />
    <glyph glyph-name="ccaron" unicode="&#x10d;" horiz-adv-x="427" 
d="M392 11q-37 -10 -67 -14.5t-64 -4.5q-50 0 -89.5 13t-69 41.5t-45.5 75t-16 112.5q0 60 15 110t45.5 86.5t76 55.5t103.5 19q27 0 53.5 -4.5t53.5 -12.5v-83q-28 12 -54.5 18t-55.5 6q-34 0 -61 -12.5t-45.5 -37.5t-27 -59.5t-8.5 -75.5q0 -39 7 -70t23 -54.5t43.5 -36.5
t67.5 -13q55 0 115 17v-76zM251 570l-138 130l39 44l100 -85l101 85l38 -43z" />
    <glyph glyph-name="Dcaron" unicode="&#x10e;" horiz-adv-x="678" 
d="M535 339q0 130 -63.5 197t-193.5 67q-22 0 -55 -1t-46 -2v-520q18 -3 42.5 -4.5t46.5 -1.5q60 0 109.5 16t85 48.5t55 83t19.5 117.5zM632 345q0 -85 -27 -150.5t-77.5 -110t-119.5 -66.5t-152 -22q-36 0 -92 2t-79 2v674q55 1 106 2.5t96 1.5q82 0 146 -19.5
t108.5 -60.5t67.5 -104t23 -149zM298 724l-157 82l25 51l134 -60l135 60l24 -50z" />
    <glyph glyph-name="dcaron" unicode="&#x10f;" horiz-adv-x="589" 
d="M384 422q-24 5 -46 8t-43 3q-36 0 -65 -11.5t-49.5 -35.5t-31.5 -62t-11 -91q0 -82 27 -125t82 -43q33 0 58.5 17t43 45.5t26.5 62t9 67.5v165zM386 0q0 25 2 53t6 48l-2 1q-21 -51 -64.5 -81t-101.5 -30q-91 0 -137 61.5t-46 172.5q0 65 18 116.5t51.5 88t81 55.5
t106.5 19q19 0 38.5 -1t45.5 -4v231h89v-730h-87zM582 565l-60 16l55 181l75 -20z" />
    <glyph glyph-name="Dcroat" unicode="&#x110;" horiz-adv-x="687" 
d="M544 339q0 130 -64 197t-194 67q-22 0 -55 -1t-46 -2v-217h143v-71h-143v-232q18 -3 42.5 -4.5t46.5 -1.5q61 0 110 16t85 48.5t55.5 83t19.5 117.5zM641 345q0 -84 -27 -149.5t-77 -109.5t-119.5 -67t-153.5 -23q-36 0 -92 2t-78 2v312h-91v71h91v291q55 1 106 2.5
t95 1.5q82 0 146 -19.5t109 -60.5t68 -104t23 -149z" />
    <glyph glyph-name="dcroat" unicode="&#x111;" horiz-adv-x="558" 
d="M384 422q-49 11 -89 11q-36 0 -65 -11.5t-49.5 -35.5t-31.5 -62t-11 -91q0 -82 27 -125t82 -43q33 0 58.5 17t43 45.5t26.5 62t9 67.5v165zM473 591v-591h-87q0 25 2 53t6 48l-2 1q-21 -51 -64.5 -81t-101.5 -30q-91 0 -137 61.5t-46 172.5q0 65 18 116.5t51.5 88
t81 55.5t106.5 19q19 0 38.5 -1t45.5 -4v92h-117v61h117v78h89v-78h71v-61h-71z" />
    <glyph glyph-name="Emacron" unicode="&#x112;" horiz-adv-x="536" 
d="M85 0v675h382v-76h-290v-214h266v-74h-266v-234h294v-77h-386zM137 748v62h276v-62h-276z" />
    <glyph glyph-name="emacron" unicode="&#x113;" horiz-adv-x="508" 
d="M371 298q3 68 -27.5 104t-84.5 36q-51 0 -85.5 -36.5t-39.5 -103.5h237zM461 297q0 -29 -3 -62h-325q1 -86 38.5 -129t114.5 -43q37 0 76 7t77 19v-73q-37 -11 -79.5 -18t-83.5 -7q-116 0 -175.5 63t-59.5 195q0 55 15 101.5t43.5 81.5t70.5 54.5t94 19.5q50 0 87.5 -16
t62 -44.5t36 -66t11.5 -82.5zM132 616v68h252v-68h-252z" />
    <glyph glyph-name="Ebreve" unicode="&#x114;" horiz-adv-x="536" 
d="M85 0v675h382v-76h-290v-214h266v-74h-266v-234h294v-77h-386zM405 852q0 -52 -34.5 -87t-96.5 -35q-32 0 -55.5 9.5t-40 26t-24.5 39t-8 47.5h58q0 -26 20 -43.5t52 -17.5t51 17.5t19 43.5h59z" />
    <glyph glyph-name="ebreve" unicode="&#x115;" horiz-adv-x="508" 
d="M371 298q3 68 -27.5 104t-84.5 36q-51 0 -85.5 -36.5t-39.5 -103.5h237zM461 297q0 -29 -3 -62h-325q1 -86 38.5 -129t114.5 -43q37 0 76 7t77 19v-73q-37 -11 -79.5 -18t-83.5 -7q-116 0 -175.5 63t-59.5 195q0 55 15 101.5t43.5 81.5t70.5 54.5t94 19.5q50 0 87.5 -16
t62 -44.5t36 -66t11.5 -82.5zM383 718q0 -27 -7.5 -51.5t-23 -43t-39.5 -29.5t-57 -11t-56.5 11t-38 30t-21.5 43t-7 51h61q0 -28 16 -48t47 -20q29 0 46.5 17.5t17.5 50.5h62v0z" />
    <glyph glyph-name="Edotaccent" unicode="&#x116;" horiz-adv-x="536" 
d="M85 0v675h382v-76h-290v-214h266v-74h-266v-234h294v-77h-386zM333 785q0 -24 -17 -41t-41 -17t-41 17t-17 41t17 41t41 17t41 -16.5t17 -41.5z" />
    <glyph glyph-name="edotaccent" unicode="&#x117;" horiz-adv-x="508" 
d="M371 298q3 68 -27.5 104t-84.5 36q-51 0 -85.5 -36.5t-39.5 -103.5h237zM461 297q0 -29 -3 -62h-325q1 -86 38.5 -129t114.5 -43q37 0 76 7t77 19v-73q-37 -11 -79.5 -18t-83.5 -7q-116 0 -175.5 63t-59.5 195q0 55 15 101.5t43.5 81.5t70.5 54.5t94 19.5q50 0 87.5 -16
t62 -44.5t36 -66t11.5 -82.5zM320 657q0 -24 -17 -41t-41 -17t-41 16.5t-17 41.5q0 24 17 41t41 17t41 -17t17 -41z" />
    <glyph glyph-name="Eogonek" unicode="&#x118;" horiz-adv-x="536" 
d="M482 -211q-46 -23 -98 -23q-51 0 -79.5 24.5t-28.5 66.5q0 40 24.5 80t62.5 63h-278v675h382v-76h-290v-214h266v-74h-266v-234h294v-74q-23 -8 -43 -22.5t-34.5 -32.5t-22.5 -37t-8 -36q0 -40 39 -40t80 22v-68z" />
    <glyph glyph-name="eogonek" unicode="&#x119;" horiz-adv-x="508" 
d="M371 298q3 68 -27.5 104t-84.5 36q-51 0 -86 -37t-39 -103h237zM426 -211q-46 -23 -98 -23q-51 0 -79.5 24.5t-28.5 66.5q0 37 21 73t59 64q-20 -2 -35 -2q-51 0 -91.5 14.5t-70.5 45.5t-46 80t-16 117q0 55 15 102t44.5 82t71 54t92.5 19q50 0 87.5 -16t62 -44.5t36 -66
t11.5 -82.5q0 -29 -3 -62h-325q1 -86 37.5 -129t115.5 -43q38 0 74.5 7t78.5 19v-70q-25 -8 -49 -24t-43 -36t-29.5 -41.5t-10.5 -42.5q0 -40 39 -40q38 0 80 22v-68z" />
    <glyph glyph-name="Ecaron" unicode="&#x11a;" horiz-adv-x="536" 
d="M85 0v675h382v-76h-290v-214h266v-74h-266v-234h294v-77h-386zM273 724l-157 82l25 51l134 -60l135 60l24 -50z" />
    <glyph glyph-name="ecaron" unicode="&#x11b;" horiz-adv-x="508" 
d="M371 298q3 68 -27.5 104t-84.5 36q-51 0 -85.5 -36.5t-39.5 -103.5h237zM461 297q0 -29 -3 -62h-325q1 -86 38.5 -129t114.5 -43q37 0 76 7t77 19v-73q-37 -11 -79.5 -18t-83.5 -7q-116 0 -175.5 63t-59.5 195q0 55 15 101.5t43.5 81.5t70.5 54.5t94 19.5q50 0 87.5 -16
t62 -44.5t36 -66t11.5 -82.5zM260 570l-138 130l39 44l100 -85l101 85l38 -43z" />
    <glyph glyph-name="Gcircumflex" unicode="&#x11c;" horiz-adv-x="682" 
d="M601 30q-50 -19 -108.5 -29t-114.5 -10q-78 0 -140.5 23t-106 66.5t-66 105t-22.5 138.5q0 79 23.5 145t69.5 114t114 74.5t156 26.5q42 0 86.5 -6.5t85.5 -17.5v-90q-42 17 -89.5 26t-91.5 9q-66 0 -115 -21.5t-80 -59t-46 -85.5t-15 -102q0 -63 17 -112.5t49 -83.5
t78.5 -52t105.5 -18q32 0 61 4.5t58 13.5v255h91v-314zM514 724l-133 60l-135 -60l-24 50l160 83l158 -81z" />
    <glyph glyph-name="gcircumflex" unicode="&#x11d;" horiz-adv-x="533" 
d="M262 506q36 0 71 -9h167v-70h-74q9 -11 18 -34.5t9 -54.5q0 -40 -13.5 -73.5t-38.5 -58t-63 -39t-88 -14.5q-29 0 -53 5q-29 -20 -29 -41q0 -16 17.5 -26t60.5 -11l80 -3q90 -3 135 -41t45 -105q0 -40 -18 -74.5t-51.5 -59.5t-81.5 -39t-107 -14q-99 0 -155.5 38.5
t-56.5 108.5q0 22 6.5 41t18.5 36.5t27 31.5t33 26q-18 9 -31 25.5t-14 46.5q0 25 14 46.5t41 38.5q-17 10 -34 28.5t-28 47.5t-11 62q0 39 13 73t38.5 58.5t63.5 39t89 14.5zM145 -40q-17 -25 -17 -53q0 -44 35 -69t98 -25q74 0 113.5 29t39.5 77q0 38 -26 59t-86 23l-83 3
q-14 1 -26 2q-32 -21 -48 -46zM366 329q0 48 -29 79t-81 31t-81.5 -31t-29.5 -79t29.5 -79t81.5 -31t81 31t29 79zM359 570l-100 85l-102 -85l-37 43l140 131l138 -130z" />
    <glyph glyph-name="Gbreve" unicode="&#x11e;" horiz-adv-x="682" 
d="M601 30q-50 -19 -108.5 -29t-114.5 -10q-78 0 -140.5 23t-106 66.5t-66 105t-22.5 138.5q0 79 23.5 145t69.5 114t114 74.5t156 26.5q42 0 86.5 -6.5t85.5 -17.5v-90q-42 17 -89.5 26t-91.5 9q-66 0 -115 -21.5t-80 -59t-46 -85.5t-15 -102q0 -63 17 -112.5t49 -83.5
t78.5 -52t105.5 -18q32 0 61 4.5t58 13.5v255h91v-314zM516 852q0 -52 -34.5 -87t-96.5 -35q-32 0 -55.5 9.5t-40 26t-24.5 39t-8 47.5h58q0 -26 20 -43.5t52 -17.5t51 17.5t19 43.5h59z" />
    <glyph glyph-name="gbreve" unicode="&#x11f;" horiz-adv-x="533" 
d="M262 506q36 0 71 -9h167v-70h-74q9 -11 18 -34.5t9 -54.5q0 -40 -13.5 -73.5t-38.5 -58t-63 -39t-88 -14.5q-29 0 -53 5q-29 -20 -29 -41q0 -16 17.5 -26t60.5 -11l80 -3q90 -3 135 -41t45 -105q0 -40 -18 -74.5t-51.5 -59.5t-81.5 -39t-107 -14q-99 0 -155.5 38.5
t-56.5 108.5q0 22 6.5 41t18.5 36.5t27 31.5t33 26q-18 9 -31 25.5t-14 46.5q0 25 14 46.5t41 38.5q-17 10 -34 28.5t-28 47.5t-11 62q0 39 13 73t38.5 58.5t63.5 39t89 14.5zM145 -40q-17 -25 -17 -53q0 -44 35 -69t98 -25q74 0 113.5 29t39.5 77q0 38 -26 59t-86 23l-83 3
q-14 1 -26 2q-32 -21 -48 -46zM366 329q0 48 -29 79t-81 31t-81.5 -31t-29.5 -79t29.5 -79t81.5 -31t81 31t29 79zM390 718q0 -27 -7.5 -51.5t-23 -43t-39.5 -29.5t-57 -11t-56.5 11t-38 30t-21.5 43t-7 51h61q0 -28 16 -48t47 -20q29 0 46.5 17.5t17.5 50.5h62v0z" />
    <glyph glyph-name="Gdotaccent" unicode="&#x120;" horiz-adv-x="682" 
d="M601 30q-50 -19 -108.5 -29t-114.5 -10q-78 0 -140.5 23t-106 66.5t-66 105t-22.5 138.5q0 79 23.5 145t69.5 114t114 74.5t156 26.5q42 0 86.5 -6.5t85.5 -17.5v-90q-42 17 -89.5 26t-91.5 9q-66 0 -115 -21.5t-80 -59t-46 -85.5t-15 -102q0 -63 17 -112.5t49 -83.5
t78.5 -52t105.5 -18q32 0 61 4.5t58 13.5v255h91v-314zM437 788q0 -24 -17 -41t-41 -17t-41 17t-17 41t17 41t41 17t41 -16.5t17 -41.5z" />
    <glyph glyph-name="gdotaccent" unicode="&#x121;" horiz-adv-x="533" 
d="M262 506q36 0 71 -9h167v-70h-74q9 -11 18 -34.5t9 -54.5q0 -40 -13.5 -73.5t-38.5 -58t-63 -39t-88 -14.5q-29 0 -53 5q-29 -20 -29 -41q0 -16 17.5 -26t60.5 -11l80 -3q90 -3 135 -41t45 -105q0 -40 -18 -74.5t-51.5 -59.5t-81.5 -39t-107 -14q-99 0 -155.5 38.5
t-56.5 108.5q0 22 6.5 41t18.5 36.5t27 31.5t33 26q-18 9 -31 25.5t-14 46.5q0 25 14 46.5t41 38.5q-17 10 -34 28.5t-28 47.5t-11 62q0 39 13 73t38.5 58.5t63.5 39t89 14.5zM145 -40q-17 -25 -17 -53q0 -44 35 -69t98 -25q74 0 113.5 29t39.5 77q0 38 -26 59t-86 23l-83 3
q-14 1 -26 2q-32 -21 -48 -46zM366 329q0 48 -29 79t-81 31t-81.5 -31t-29.5 -79t29.5 -79t81.5 -31t81 31t29 79zM316 657q0 -24 -17 -41t-41 -17t-41 16.5t-17 41.5q0 24 17 41t41 17t41 -17t17 -41z" />
    <glyph glyph-name="Gcommaaccent" unicode="&#x122;" horiz-adv-x="682" 
d="M601 30q-50 -19 -108.5 -29t-114.5 -10q-78 0 -140.5 23t-106 66.5t-66 105t-22.5 138.5q0 79 23.5 145t69.5 114t114 74.5t156 26.5q42 0 86.5 -6.5t85.5 -17.5v-90q-42 17 -89.5 26t-91.5 9q-66 0 -115 -21.5t-80 -59t-46 -85.5t-15 -102q0 -63 17 -112.5t49 -83.5
t78.5 -52t105.5 -18q32 0 61 4.5t58 13.5v255h91v-314zM371 -49q22 0 36.5 -16t14.5 -41q0 -34 -25.5 -68t-84.5 -66l-23 34q27 20 37 36.5t10 30.5q0 8 -2 13t-4 9.5l-4 9t-2 12.5q0 19 13 32.5t34 13.5z" />
    <glyph glyph-name="gcommaaccent" unicode="&#x123;" horiz-adv-x="533" 
d="M262 506q36 0 71 -9h167v-70h-74q9 -11 18 -34.5t9 -54.5q0 -40 -13.5 -73.5t-38.5 -58t-63 -39t-88 -14.5q-29 0 -53 5q-29 -20 -29 -41q0 -16 17.5 -26t60.5 -11l80 -3q90 -3 135 -41t45 -105q0 -40 -18 -74.5t-51.5 -59.5t-81.5 -39t-107 -14q-99 0 -155.5 38.5
t-56.5 108.5q0 22 6.5 41t18.5 36.5t27 31.5t33 26q-18 9 -31 25.5t-14 46.5q0 25 14 46.5t41 38.5q-17 10 -34 28.5t-28 47.5t-11 62q0 39 13 73t38.5 58.5t63.5 39t89 14.5zM145 -40q-17 -25 -17 -53q0 -44 35 -69t98 -25q74 0 113.5 29t39.5 77q0 38 -26 59t-86 23l-83 3
q-14 1 -26 2q-32 -21 -48 -46zM366 329q0 48 -29 79t-81 31t-81.5 -31t-29.5 -79t29.5 -79t81.5 -31t81 31t29 79zM257 566q-23 0 -38 18t-12.5 48.5t29.5 63.5t80 61l23 -34q-21 -15 -30.5 -27.5t-13 -24t-2 -21t5.5 -17.5q6 -10 6 -22.5t-6 -22.5t-17.5 -16t-24.5 -6z" />
    <glyph glyph-name="Hcircumflex" unicode="&#x124;" horiz-adv-x="698" 
d="M521 0v311h-344v-311h-92v675h92v-286h344v286h92v-675h-92zM483 724l-133 60l-135 -60l-24 50l160 83l158 -81z" />
    <glyph glyph-name="hcircumflex" unicode="&#x125;" horiz-adv-x="575" 
d="M401 0v320q0 56 -19 84t-66 28q-30 0 -56 -14.5t-45 -41t-29.5 -62t-10.5 -76.5v-238h-90v730h90v-236q0 -28 -2 -54t-7 -45l2 -1q22 52 67 82t106 30q41 0 70.5 -12t47 -33.5t25 -50t7.5 -63.5v-347h-90zM419 757l-133 60l-135 -60l-24 50l160 83l158 -81z" />
    <glyph glyph-name="Hbar" unicode="&#x126;" horiz-adv-x="718" 
d="M187 494v-117h344v117h-344zM698 568v-74h-75v-494h-92v303h-344v-303h-92v494h-76v74h76v107h92v-107h344v107h92v-107h75z" />
    <glyph glyph-name="hbar" unicode="&#x127;" horiz-adv-x="579" 
d="M404 0v319q0 56 -19 83.5t-66 27.5q-30 0 -56 -14.5t-45 -41t-29.5 -62t-10.5 -75.5v-237h-90v581h-88v70h88v79h90v-79h135v-70h-135v-93q0 -26 -2.5 -51.5t-6.5 -42.5l2 -1q22 52 67 82t106 30q41 0 70 -12t46.5 -34t25 -50.5t7.5 -62.5v-346h-89z" />
    <glyph glyph-name="Itilde" unicode="&#x128;" horiz-adv-x="262" 
d="M85 0v675h92v-675h-92zM308 808q-20 -35 -48.5 -54t-63.5 -19q-26 0 -43.5 8t-32 18t-27.5 18t-29 8q-36 0 -63 -45l-46 33q20 35 48.5 54.5t63.5 19.5q25 0 43 -8t32.5 -18t27.5 -18t29 -8q34 0 63 44l46 -33v0z" />
    <glyph glyph-name="itilde" unicode="&#x129;" horiz-adv-x="260" 
d="M85 0v497h90v-497h-90zM276 671q-16 -35 -40 -54.5t-57 -19.5q-18 0 -32.5 7.5t-27 16t-23 16t-20.5 7.5q-16 0 -27.5 -12.5t-19.5 -29.5l-44 32q12 31 36.5 54t61.5 23q18 0 32.5 -7.5t27 -16.5t23 -16.5t19.5 -7.5q16 0 27.5 12.5t20.5 29.5z" />
    <glyph glyph-name="Imacron" unicode="&#x12a;" horiz-adv-x="262" 
d="M85 0v675h92v-675h-92zM-6 748v62h276v-62h-276z" />
    <glyph glyph-name="imacron" unicode="&#x12b;" horiz-adv-x="260" 
d="M85 0v497h90v-497h-90zM11 616v68h237v-68h-237z" />
    <glyph glyph-name="Ibreve" unicode="&#x12c;" horiz-adv-x="262" 
d="M85 0v675h92v-675h-92zM261 852q0 -52 -34.5 -87t-96.5 -35q-32 0 -55.5 9.5t-40 26t-24.5 39t-8 47.5h58q0 -26 20 -43.5t52 -17.5t51 17.5t19 43.5h59z" />
    <glyph glyph-name="ibreve" unicode="&#x12d;" horiz-adv-x="260" 
d="M85 0v497h90v-497h-90zM248 718q0 -66 -31 -100.5t-88 -34.5t-86 35t-29 100h61q0 -27 14 -47.5t41 -20.5q26 0 41 18t15 50h62z" />
    <glyph glyph-name="Iogonek" unicode="&#x12e;" horiz-adv-x="262" 
d="M221 -211q-22 -11 -46.5 -17t-51.5 -6q-51 0 -79.5 24.5t-28.5 66.5q0 18 4.5 36t13.5 36t22 36t30 37v673h92v-675q-39 -33 -57.5 -65t-18.5 -60q0 -19 10.5 -29.5t29.5 -10.5q38 0 80 22v-68z" />
    <glyph glyph-name="iogonek" unicode="&#x12f;" horiz-adv-x="260" 
d="M190 654q0 -12 -4.5 -22.5t-13 -18.5t-19.5 -12.5t-23 -4.5t-23 4.5t-19.5 12.5t-13 18.5t-4.5 22.5t4.5 23t13 19t19.5 12.5t23 4.5t23 -4.5t19.5 -12.5t13 -19t4.5 -23zM175 0q-40 -35 -57.5 -67t-17.5 -58q0 -40 40 -40q38 0 80 22v-68q-22 -11 -46.5 -17t-51.5 -6
q-51 0 -79.5 24.5t-28.5 66.5q0 36 18 71t53 74v495h90v-497z" />
    <glyph glyph-name="Idotaccent" unicode="&#x130;" horiz-adv-x="262" 
d="M85 0v675h92v-675h-92zM189 785q0 -24 -17 -41t-41 -17t-41 17t-17 41t17 41t41 17t41 -16.5t17 -41.5z" />
    <glyph glyph-name="dotlessi" unicode="&#x131;" horiz-adv-x="260" 
d="M85 0v497h90v-497h-90z" />
    <glyph glyph-name="IJ" unicode="&#x132;" horiz-adv-x="543" 
d="M85 0v675h92v-675h-92zM278 -134q26 15 43 29.5t27 32.5t14 41.5t4 55.5v650h92v-645q0 -41 -6 -72.5t-22 -58t-42.5 -48.5t-67.5 -43z" />
    <glyph glyph-name="ij" unicode="&#x133;" horiz-adv-x="519" 
d="M85 0v497h90v-497h-90zM190 654q0 -24 -17.5 -41t-42.5 -17t-42.5 16.5t-17.5 41.5t17.5 42t42.5 17t42.5 -17t17.5 -42zM450 654q0 -24 -17.5 -41t-42.5 -17t-42.5 16.5t-17.5 41.5t17.5 42t42.5 17t42.5 -17t17.5 -42zM435 -34q0 -43 -8 -76t-25 -59t-43.5 -47
t-62.5 -40l-40 61q24 15 40.5 29t27.5 32t16 42t5 58v531h90v-531z" />
    <glyph glyph-name="Jcircumflex" unicode="&#x134;" horiz-adv-x="262" 
d="M-3 -134q26 15 43 29.5t27 32.5t14 41.5t4 55.5v650h92v-645q0 -41 -6 -72.5t-22 -58t-42.5 -48.5t-67.5 -43zM265 724l-133 60l-135 -60l-24 50l160 83l158 -81z" />
    <glyph glyph-name="jcircumflex" unicode="&#x135;" horiz-adv-x="260" 
d="M175 -34q0 -43 -8 -76t-25 -59t-43.5 -47t-62.5 -40l-40 61q24 15 40.5 29t27.5 32t16 42t5 58v531h90v-531zM217 570l-87 85l-88 -85l-37 42l126 131l125 -130z" />
    <glyph glyph-name="Kcommaaccent" unicode="&#x136;" horiz-adv-x="586" 
d="M458 0l-281 334v-334h-92v675h92v-318l271 318h111l-283 -323l300 -352h-118zM298 -49q22 0 36.5 -16t14.5 -41q0 -34 -25.5 -68t-84.5 -66l-23 34q27 20 37 36.5t10 30.5q0 8 -2 13t-4 9.5l-4 9t-2 12.5q0 19 13 32.5t34 13.5z" />
    <glyph glyph-name="kcommaaccent" unicode="&#x137;" horiz-adv-x="493" 
d="M359 0l-184 256v-256h-90v730h90v-451l175 218h105l-188 -223l207 -274h-115zM255 -49q22 0 36.5 -16t14.5 -41q0 -34 -25.5 -68t-84.5 -66l-23 34q27 20 37 36.5t10 30.5q0 8 -2 13t-4 9.5l-4 9t-2 12.5q0 19 13 32.5t34 13.5z" />
    <glyph glyph-name="kgreenlandic" unicode="&#x138;" horiz-adv-x="493" 
d="M355 0l-180 250v-250h-90v497h90v-225l180 225h105l-193 -229l202 -268h-114z" />
    <glyph glyph-name="Lacute" unicode="&#x139;" horiz-adv-x="454" 
d="M85 0v675h92v-597h270v-78h-362zM150 725l-17 52l182 74l25 -70z" />
    <glyph glyph-name="lacute" unicode="&#x13a;" horiz-adv-x="260" 
d="M85 0v730h90v-730h-90zM96 785l-17 52l182 74l25 -70z" />
    <glyph glyph-name="Lcommaaccent" unicode="&#x13b;" horiz-adv-x="454" 
d="M85 0v675h92v-597h270v-78h-362zM267 -49q22 0 36.5 -16t14.5 -41q0 -34 -25.5 -68t-84.5 -66l-23 34q27 20 37 36.5t10 30.5q0 8 -2 13t-4 9.5l-4 9t-2 12.5q0 19 13 32.5t34 13.5z" />
    <glyph glyph-name="lcommaaccent" unicode="&#x13c;" horiz-adv-x="260" 
d="M85 0v730h90v-730h-90zM132 -49q22 0 36.5 -16t14.5 -41q0 -34 -25.5 -68t-84.5 -66l-23 34q27 20 37 36.5t10 30.5q0 8 -2 13t-4 9.5l-4 9t-2 12.5q0 19 13 32.5t34 13.5z" />
    <glyph glyph-name="Lcaron" unicode="&#x13d;" horiz-adv-x="454" 
d="M85 0v675h92v-597h270v-78h-362zM306 565l-60 16l55 181l75 -20z" />
    <glyph glyph-name="lcaron" unicode="&#x13e;" horiz-adv-x="291" 
d="M85 0v730h90v-730h-90zM284 565l-60 16l55 181l75 -20z" />
    <glyph glyph-name="Lslash" unicode="&#x141;" horiz-adv-x="463" 
d="M94 0v349l-78 -36l-20 69l98 45v248h91v-205l112 50l19 -69l-131 -59v-314h270v-78h-361z" />
    <glyph glyph-name="lslash" unicode="&#x142;" horiz-adv-x="291" 
d="M193 412v-412h-90v363l-62 -36l-22 65l84 48v290h90v-241l68 39l22 -65z" />
    <glyph glyph-name="Nacute" unicode="&#x143;" horiz-adv-x="686" 
d="M506 0l-250 396q-16 25 -28.5 46t-23 39t-19 34.5t-17.5 35.5h-2q2 -29 3.5 -73t3 -98t2 -101.5t0.5 -89.5v-189h-90v675h105l236 -372q19 -30 33 -53t24.5 -42t18 -33.5t16.5 -32.5h2q-2 33 -3.5 76t-3 93.5t-2 99t-0.5 94.5v170h90v-675h-95zM326 725l-17 52l182 74
l25 -70z" />
    <glyph glyph-name="nacute" unicode="&#x144;" horiz-adv-x="575" 
d="M401 0v320q0 56 -19 84t-66 28q-30 0 -56 -14.5t-45 -41t-29.5 -62t-10.5 -76.5v-238h-90v497h87q0 -26 -2 -55t-6 -50h2q22 53 67.5 83.5t107.5 30.5q41 0 70.5 -12t47 -33.5t25 -50t7.5 -63.5v-347h-90zM295 569l-44 43l129 139l55 -53z" />
    <glyph glyph-name="Ncommaaccent" unicode="&#x145;" horiz-adv-x="686" 
d="M506 0l-250 396q-16 25 -28.5 46t-23 39t-19 34.5t-17.5 35.5h-2q2 -29 3.5 -73t3 -98t2 -101.5t0.5 -89.5v-189h-90v675h105l236 -372q19 -30 33 -53t24.5 -42t18 -33.5t16.5 -32.5h2q-2 33 -3.5 76t-3 93.5t-2 99t-0.5 94.5v170h90v-675h-95zM340 -49q22 0 36.5 -16
t14.5 -41q0 -34 -25.5 -68t-84.5 -66l-23 34q27 20 37 36.5t10 30.5q0 8 -2 13t-4 9.5l-4 9t-2 12.5q0 19 13 32.5t34 13.5z" />
    <glyph glyph-name="ncommaaccent" unicode="&#x146;" horiz-adv-x="575" 
d="M401 0v320q0 56 -19 84t-66 28q-30 0 -56 -14.5t-45 -41t-29.5 -62t-10.5 -76.5v-238h-90v497h87q0 -26 -2 -55t-6 -50h2q22 53 67.5 83.5t107.5 30.5q41 0 70.5 -12t47 -33.5t25 -50t7.5 -63.5v-347h-90zM292 -49q22 0 36.5 -16t14.5 -41q0 -34 -25.5 -68t-84.5 -66
l-23 34q27 20 37 36.5t10 30.5q0 8 -2 13t-4 9.5l-4 9t-2 12.5q0 19 13 32.5t34 13.5z" />
    <glyph glyph-name="Ncaron" unicode="&#x147;" horiz-adv-x="686" 
d="M506 0l-250 396q-16 25 -28.5 46t-23 39t-19 34.5t-17.5 35.5h-2q2 -29 3.5 -73t3 -98t2 -101.5t0.5 -89.5v-189h-90v675h105l236 -372q19 -30 33 -53t24.5 -42t18 -33.5t16.5 -32.5h2q-2 33 -3.5 76t-3 93.5t-2 99t-0.5 94.5v170h90v-675h-95zM344 724l-157 82l25 51
l134 -60l135 60l24 -50z" />
    <glyph glyph-name="ncaron" unicode="&#x148;" horiz-adv-x="575" 
d="M401 0v320q0 56 -19 84t-66 28q-30 0 -56 -14.5t-45 -41t-29.5 -62t-10.5 -76.5v-238h-90v497h87q0 -26 -2 -55t-6 -50h2q22 53 67.5 83.5t107.5 30.5q41 0 70.5 -12t47 -33.5t25 -50t7.5 -63.5v-347h-90zM289 570l-138 130l39 44l100 -85l101 85l38 -43z" />
    <glyph glyph-name="napostrophe" unicode="&#x149;" horiz-adv-x="661" 
d="M486 0v320q0 56 -19 84t-66 28q-30 0 -56 -14.5t-45 -41t-29.5 -62t-10.5 -76.5v-238h-90v497h87q0 -26 -2 -55t-6 -50h2q22 53 67.5 83.5t107.5 30.5q41 0 70.5 -12t47 -33.5t25 -50t7.5 -63.5v-347h-90zM101 743q28 0 45.5 -22t16 -60.5t-28 -87t-81.5 -98.5l-39 35
q45 49 53.5 84t-10.5 59q-10 13 -11.5 29t5 30t19.5 22.5t31 8.5z" />
    <glyph glyph-name="Eng" unicode="&#x14a;" horiz-adv-x="693" 
d="M608 5q0 -67 -13 -113t-38 -76t-61 -46.5t-82 -25.5l-19 72q29 5 52 15.5t39 30t24 50t8 76.5l-278 442q-21 34 -39 65.5t-34 63.5q2 -27 3.5 -72t2.5 -97t1.5 -105.5t0.5 -96.5v-188h-90v675h89h21l269 -423q17 -27 33 -55t29 -56q-2 32 -3 76t-2.5 92.5t-2 99
t-0.5 94.5v172h90v-670z" />
    <glyph glyph-name="eng" unicode="&#x14b;" horiz-adv-x="575" 
d="M496 198q0 -88 -4 -146t-12.5 -95t-21 -60t-32.5 -43t-50 -34t-73 -25l-20 70q27 7 45.5 16t31.5 21q14 14 22 29.5t13.5 43.5t8 74t2.5 120v20q0 74 -5.5 121.5t-17.5 74t-30 37t-45 10.5t-51.5 -14t-43 -39.5t-28.5 -58t-10 -68.5v-252h-90v497h87q0 -33 -2 -60t-6 -44
h1q22 52 66.5 82.5t100.5 30.5q45 0 76 -15t50.5 -49t28.5 -89t9 -137v-18z" />
    <glyph glyph-name="Omacron" unicode="&#x14c;" horiz-adv-x="709" 
d="M570 333q0 126 -56 198.5t-159 72.5q-46 0 -85 -17t-68.5 -50.5t-45.5 -83t-16 -111.5q0 -61 13.5 -111t40.5 -86t67.5 -55t93.5 -19q46 0 85 17t68.5 50.5t45.5 83t16 111.5zM667 347q0 -84 -25 -151t-69.5 -113t-102.5 -69.5t-124 -23.5q-73 0 -129.5 23.5t-95 67.5
t-58.5 106.5t-20 140.5q0 84 25 151t69.5 113t102.5 69.5t124 23.5q73 0 129.5 -23.5t95 -67.5t58.5 -106.5t20 -140.5zM218 748v62h276v-62h-276z" />
    <glyph glyph-name="omacron" unicode="&#x14d;" horiz-adv-x="545" 
d="M412 249q0 87 -36.5 134.5t-101.5 47.5q-32 0 -58 -11.5t-44.5 -34.5t-28.5 -57.5t-10 -79.5q0 -87 36.5 -134t102.5 -47q30 0 55.5 11t44.5 33.5t29.5 57t10.5 80.5zM505 256q0 -56 -15.5 -104.5t-46.5 -84.5t-76.5 -56t-102.5 -20q-51 0 -92.5 15.5t-71 46.5t-45 78
t-15.5 110q0 56 15.5 104.5t46.5 84.5t76.5 56t103.5 20q51 0 92 -15.5t70.5 -46.5t45 -78t15.5 -110zM151 616v68h252v-68h-252z" />
    <glyph glyph-name="Obreve" unicode="&#x14e;" horiz-adv-x="709" 
d="M570 333q0 126 -56 198.5t-159 72.5q-46 0 -85 -17t-68.5 -50.5t-45.5 -83t-16 -111.5q0 -61 13.5 -111t40.5 -86t67.5 -55t93.5 -19q46 0 85 17t68.5 50.5t45.5 83t16 111.5zM667 347q0 -84 -25 -151t-69.5 -113t-102.5 -69.5t-124 -23.5q-73 0 -129.5 23.5t-95 67.5
t-58.5 106.5t-20 140.5q0 84 25 151t69.5 113t102.5 69.5t124 23.5q73 0 129.5 -23.5t95 -67.5t58.5 -106.5t20 -140.5zM485 852q0 -52 -34.5 -87t-96.5 -35q-32 0 -55.5 9.5t-40 26t-24.5 39t-8 47.5h58q0 -26 20 -43.5t52 -17.5t51 17.5t19 43.5h59z" />
    <glyph glyph-name="obreve" unicode="&#x14f;" horiz-adv-x="545" 
d="M412 249q0 87 -36.5 134.5t-101.5 47.5q-32 0 -58 -11.5t-44.5 -34.5t-28.5 -57.5t-10 -79.5q0 -87 36.5 -134t102.5 -47q30 0 55.5 11t44.5 33.5t29.5 57t10.5 80.5zM505 256q0 -56 -15.5 -104.5t-46.5 -84.5t-76.5 -56t-102.5 -20q-51 0 -92.5 15.5t-71 46.5t-45 78
t-15.5 110q0 56 15.5 104.5t46.5 84.5t76.5 56t103.5 20q51 0 92 -15.5t70.5 -46.5t45 -78t15.5 -110zM398 718q0 -27 -7.5 -51.5t-23 -43t-39.5 -29.5t-57 -11t-56.5 11t-38 30t-21.5 43t-7 51h61q0 -28 16 -48t47 -20q29 0 46.5 17.5t17.5 50.5h62v0z" />
    <glyph glyph-name="Ohungarumlaut" unicode="&#x150;" horiz-adv-x="709" 
d="M570 333q0 126 -56 198.5t-159 72.5q-46 0 -85 -17t-68.5 -50.5t-45.5 -83t-16 -111.5q0 -61 13.5 -111t40.5 -86t67.5 -55t93.5 -19q46 0 85 17t68.5 50.5t45.5 83t16 111.5zM667 347q0 -84 -25 -151t-69.5 -113t-102.5 -69.5t-124 -23.5q-73 0 -129.5 23.5t-95 67.5
t-58.5 106.5t-20 140.5q0 84 25 151t69.5 113t102.5 69.5t124 23.5q73 0 129.5 -23.5t95 -67.5t58.5 -106.5t20 -140.5zM275 724l-44 40l113 130l55 -50zM450 724l-42 40l131 127l52 -53z" />
    <glyph glyph-name="ohungarumlaut" unicode="&#x151;" horiz-adv-x="545" 
d="M412 249q0 87 -36.5 134.5t-101.5 47.5q-32 0 -58 -11.5t-44.5 -34.5t-28.5 -57.5t-10 -79.5q0 -87 36.5 -134t102.5 -47q30 0 55.5 11t44.5 33.5t29.5 57t10.5 80.5zM505 256q0 -56 -15.5 -104.5t-46.5 -84.5t-76.5 -56t-102.5 -20q-51 0 -92.5 15.5t-71 46.5t-45 78
t-15.5 110q0 56 15.5 104.5t46.5 84.5t76.5 56t103.5 20q51 0 92 -15.5t70.5 -46.5t45 -78t15.5 -110zM201 570l-44 39l118 141l56 -48zM375 570l-43 40l128 134l54 -50z" />
    <glyph glyph-name="OE" unicode="&#x152;" horiz-adv-x="908" 
d="M457 591q-22 6 -49 9.5t-53 3.5q-46 0 -85 -17.5t-68.5 -51t-45.5 -82.5t-16 -111q0 -61 13.5 -111t41 -86t68 -55t92.5 -19q23 0 51.5 3.5t50.5 8.5v508zM465 0q-29 -5 -60.5 -7.5t-58.5 -2.5q-72 0 -129 23t-95.5 67.5t-58.5 107t-20 140.5q0 83 24.5 150t69 113.5
t103 70t124.5 23.5q26 0 55.5 -2.5t53.5 -7.5h366v-76h-290v-214h266v-74h-266v-234h294v-77h-378z" />
    <glyph glyph-name="oe" unicode="&#x153;" horiz-adv-x="873" 
d="M412 249q0 86 -36.5 134t-101.5 48q-32 0 -58 -11.5t-44.5 -35t-28.5 -57.5t-10 -79q0 -86 36.5 -133.5t102.5 -47.5q30 0 56 11t44.5 34t29 57.5t10.5 79.5zM738 298q3 67 -27.5 103.5t-85.5 36.5q-51 0 -85.5 -37t-39.5 -103h238zM827 297q0 -29 -3 -62h-325
q1 -86 37.5 -129t115.5 -43q37 0 74 7t80 19v-73q-39 -12 -82 -18.5t-82 -6.5q-73 0 -120.5 25.5t-71.5 73.5q-27 -46 -75 -72.5t-111 -26.5q-52 0 -93 15.5t-70.5 47t-45 78.5t-15.5 109q0 56 16 104.5t47 85t76.5 56t102.5 19.5q61 0 106.5 -24t72.5 -71q24 45 68 70
t102 25q50 0 87.5 -15.5t61.5 -44.5t35.5 -66.5t11.5 -82.5z" />
    <glyph glyph-name="Racute" unicode="&#x154;" horiz-adv-x="567" 
d="M402 484q0 58 -38.5 89t-110.5 31q-23 0 -44.5 -0.5t-31.5 -1.5v-240q10 0 30.5 -0.5t41.5 -0.5q73 0 113 32.5t40 90.5zM430 0l-204 292h-49v-292h-92v674q22 1 72 3t104 2t97.5 -11t74.5 -33.5t48 -57.5t17 -82q0 -43 -13.5 -76.5t-38 -57t-56.5 -38t-69 -19.5
q7 -9 23 -29t32 -43l168 -232h-114zM222 725l-17 52l182 74l25 -70z" />
    <glyph glyph-name="racute" unicode="&#x155;" horiz-adv-x="355" 
d="M332 417q-79 13 -118 -42t-39 -175v-200h-90v497h87q0 -26 -2.5 -57.5t-8.5 -60.5h2q8 28 22 52t34.5 42t49 27.5t63.5 5.5v-89zM208 569l-44 43l129 139l55 -53z" />
    <glyph glyph-name="Rcommaaccent" unicode="&#x156;" horiz-adv-x="567" 
d="M402 484q0 58 -38.5 89t-110.5 31q-23 0 -44.5 -0.5t-31.5 -1.5v-240q10 0 30.5 -0.5t41.5 -0.5q73 0 113 32.5t40 90.5zM430 0l-204 292h-49v-292h-92v674q22 1 72 3t104 2t97.5 -11t74.5 -33.5t48 -57.5t17 -82q0 -43 -13.5 -76.5t-38 -57t-56.5 -38t-69 -19.5
q7 -9 23 -29t32 -43l168 -232h-114zM287 -49q22 0 36.5 -16t14.5 -41q0 -34 -25.5 -68t-84.5 -66l-23 34q27 20 37 36.5t10 30.5q0 8 -2 13t-4 9.5l-4 9t-2 12.5q0 19 13 32.5t34 13.5z" />
    <glyph glyph-name="rcommaaccent" unicode="&#x157;" horiz-adv-x="355" 
d="M332 417q-79 13 -118 -42t-39 -175v-200h-90v497h87q0 -26 -2.5 -57.5t-8.5 -60.5h2q8 28 22 52t34.5 42t49 27.5t63.5 5.5v-89zM140 -49q22 0 36.5 -16t14.5 -41q0 -34 -25.5 -68t-84.5 -66l-23 34q27 20 37 36.5t10 30.5q0 8 -2 13t-4 9.5l-4 9t-2 12.5q0 19 13 32.5
t34 13.5z" />
    <glyph glyph-name="Rcaron" unicode="&#x158;" horiz-adv-x="567" 
d="M402 484q0 58 -38.5 89t-110.5 31q-23 0 -44.5 -0.5t-31.5 -1.5v-240q10 0 30.5 -0.5t41.5 -0.5q73 0 113 32.5t40 90.5zM430 0l-204 292h-49v-292h-92v674q22 1 72 3t104 2t97.5 -11t74.5 -33.5t48 -57.5t17 -82q0 -43 -13.5 -76.5t-38 -57t-56.5 -38t-69 -19.5
q7 -9 23 -29t32 -43l168 -232h-114zM259 724l-157 82l25 51l134 -60l135 60l24 -50z" />
    <glyph glyph-name="rcaron" unicode="&#x159;" horiz-adv-x="355" 
d="M332 417q-79 13 -118 -42t-39 -175v-200h-90v497h87q0 -26 -2.5 -57.5t-8.5 -60.5h2q8 28 22 52t34.5 42t49 27.5t63.5 5.5v-89zM208 570l-138 130l39 44l100 -85l101 85l38 -43z" />
    <glyph glyph-name="Sacute" unicode="&#x15a;" horiz-adv-x="504" 
d="M456 188q0 -43 -16 -79t-47.5 -63t-77 -41t-102.5 -14q-41 0 -81 5t-71 13v90q34 -14 76.5 -21.5t80.5 -7.5q32 0 58 6.5t45 20t29 35t10 49.5q0 34 -18 56.5t-42.5 36.5t-84.5 39.5t-92 47.5t-52 56t-20 83q0 41 16 74.5t47 58.5t75 38t99 13q31 0 60.5 -3t55.5 -8v-83
q-29 8 -62 13t-60 5q-66 0 -101.5 -26.5t-35.5 -74.5q0 -31 16.5 -51.5t40 -34t87.5 -41t97 -51.5t51.5 -58.5t18.5 -82.5zM222 725l-17 52l182 74l25 -70z" />
    <glyph glyph-name="sacute" unicode="&#x15b;" horiz-adv-x="425" 
d="M376 142q0 -32 -12.5 -59t-37.5 -48t-62.5 -32.5t-86.5 -11.5q-33 0 -62.5 3.5t-56.5 9.5v80q29 -9 61.5 -15t63.5 -6q50 0 75 18.5t25 52.5q0 26 -15 41t-32 23t-60.5 23.5t-68.5 31.5t-41 42t-16 67q0 63 50 103.5t144 40.5q24 0 49 -2t46 -6v-76q-21 7 -48.5 10.5
t-52.5 3.5q-47 0 -71.5 -17.5t-24.5 -48.5q0 -25 15.5 -41t48 -28.5t60.5 -22.5t53 -26t41 -42.5t16 -67.5zM194 569l-44 43l129 139l55 -53z" />
    <glyph glyph-name="Scircumflex" unicode="&#x15c;" horiz-adv-x="504" 
d="M456 188q0 -43 -16 -79t-47.5 -63t-77 -41t-102.5 -14q-41 0 -81 5t-71 13v90q34 -14 76.5 -21.5t80.5 -7.5q32 0 58 6.5t45 20t29 35t10 49.5q0 34 -18 56.5t-42.5 36.5t-84.5 39.5t-92 47.5t-52 56t-20 83q0 41 16 74.5t47 58.5t75 38t99 13q31 0 60.5 -3t55.5 -8v-83
q-29 8 -62 13t-60 5q-66 0 -101.5 -26.5t-35.5 -74.5q0 -31 16.5 -51.5t40 -34t87.5 -41t97 -51.5t51.5 -58.5t18.5 -82.5zM394 724l-133 60l-135 -60l-24 50l160 83l158 -81z" />
    <glyph glyph-name="scircumflex" unicode="&#x15d;" horiz-adv-x="425" 
d="M376 142q0 -32 -12.5 -59t-37.5 -48t-62.5 -32.5t-86.5 -11.5q-33 0 -62.5 3.5t-56.5 9.5v80q29 -9 61.5 -15t63.5 -6q50 0 75 18.5t25 52.5q0 26 -15 41t-32 23t-60.5 23.5t-68.5 31.5t-41 42t-16 67q0 63 50 103.5t144 40.5q24 0 49 -2t46 -6v-76q-21 7 -48.5 10.5
t-52.5 3.5q-47 0 -71.5 -17.5t-24.5 -48.5q0 -25 15.5 -41t48 -28.5t60.5 -22.5t53 -26t41 -42.5t16 -67.5zM311 570l-100 85l-102 -85l-37 43l140 131l138 -130z" />
    <glyph glyph-name="Scedilla" unicode="&#x15e;" horiz-adv-x="504" 
d="M456 188q0 -43 -16 -79t-47.5 -63t-77 -41t-102.5 -14q-41 0 -81 5t-71 13v90q34 -14 76.5 -21.5t80.5 -7.5q32 0 58 6.5t45 20t29 35t10 49.5q0 34 -18 56.5t-42.5 36.5t-84.5 39.5t-92 47.5t-52 56t-20 83q0 41 16 74.5t47 58.5t75 38t99 13q31 0 60.5 -3t55.5 -8v-83
q-29 8 -62 13t-60 5q-66 0 -101.5 -26.5t-35.5 -74.5q0 -31 16.5 -51.5t40 -34t87.5 -41t97 -51.5t51.5 -58.5t18.5 -82.5zM270 -40q37 -51 29.5 -98.5t-50.5 -96.5h-73q19 24 31 45t14.5 40.5t-4 38.5t-24.5 41l77 30v0z" />
    <glyph glyph-name="scedilla" unicode="&#x15f;" horiz-adv-x="425" 
d="M376 142q0 -32 -12.5 -59t-37.5 -48t-62.5 -32.5t-86.5 -11.5q-33 0 -62.5 3.5t-56.5 9.5v80q29 -9 61.5 -15t63.5 -6q50 0 75 18.5t25 52.5q0 26 -15 41t-32 23t-60.5 23.5t-68.5 31.5t-41 42t-16 67q0 63 50 103.5t144 40.5q24 0 49 -2t46 -6v-76q-21 7 -48.5 10.5
t-52.5 3.5q-47 0 -71.5 -17.5t-24.5 -48.5q0 -25 15.5 -41t48 -28.5t60.5 -22.5t53 -26t41 -42.5t16 -67.5zM235 -40q37 -51 29.5 -98.5t-50.5 -96.5h-73q19 24 31 45t14.5 40.5t-4 38.5t-24.5 41l77 30v0z" />
    <glyph glyph-name="Scaron" unicode="&#x160;" horiz-adv-x="504" 
d="M456 188q0 -43 -16 -79t-47.5 -63t-77 -41t-102.5 -14q-41 0 -81 5t-71 13v90q34 -14 76.5 -21.5t80.5 -7.5q32 0 58 6.5t45 20t29 35t10 49.5q0 34 -18 56.5t-42.5 36.5t-84.5 39.5t-92 47.5t-52 56t-20 83q0 41 16 74.5t47 58.5t75 38t99 13q31 0 60.5 -3t55.5 -8v-83
q-29 8 -62 13t-60 5q-66 0 -101.5 -26.5t-35.5 -74.5q0 -31 16.5 -51.5t40 -34t87.5 -41t97 -51.5t51.5 -58.5t18.5 -82.5zM251 724l-157 82l25 51l134 -60l135 60l24 -50z" />
    <glyph glyph-name="scaron" unicode="&#x161;" horiz-adv-x="425" 
d="M376 142q0 -32 -12.5 -59t-37.5 -48t-62.5 -32.5t-86.5 -11.5q-33 0 -62.5 3.5t-56.5 9.5v80q29 -9 61.5 -15t63.5 -6q50 0 75 18.5t25 52.5q0 26 -15 41t-32 23t-60.5 23.5t-68.5 31.5t-41 42t-16 67q0 63 50 103.5t144 40.5q24 0 49 -2t46 -6v-76q-21 7 -48.5 10.5
t-52.5 3.5q-47 0 -71.5 -17.5t-24.5 -48.5q0 -25 15.5 -41t48 -28.5t60.5 -22.5t53 -26t41 -42.5t16 -67.5zM213 570l-138 130l39 44l100 -85l101 85l38 -43z" />
    <glyph glyph-name="uni0162" unicode="&#x162;" horiz-adv-x="516" 
d="M304 598v-598h-92v598h-194v77h481v-77h-195zM290 -40q37 -51 29.5 -98.5t-50.5 -96.5h-73q19 24 31 45t14.5 40.5t-4 38.5t-24.5 41l77 30v0z" />
    <glyph glyph-name="uni0163" unicode="&#x163;" horiz-adv-x="371" 
d="M335 2q-24 -5 -47 -7.5t-45 -2.5q-39 0 -65 8.5t-41.5 26t-22.5 46t-7 70.5v284h-100v70h100v161l90 25v-186h138v-70h-138v-262q0 -29 3 -47.5t11 -29.5t20.5 -15.5t32.5 -4.5q33 0 71 9v-75zM247 -40q37 -51 29.5 -98.5t-50.5 -96.5h-73q19 24 31 45t14.5 40.5t-4 38.5
t-24.5 41l77 30v0z" />
    <glyph glyph-name="Tcaron" unicode="&#x164;" horiz-adv-x="516" 
d="M304 598v-598h-92v598h-194v77h481v-77h-195zM255 724l-157 82l25 51l134 -60l135 60l24 -50z" />
    <glyph glyph-name="tcaron" unicode="&#x165;" horiz-adv-x="375" 
d="M335 2q-24 -5 -47 -7.5t-45 -2.5q-39 0 -65 8.5t-41.5 26t-22.5 46t-7 70.5v284h-100v70h100v161l90 25v-186h138v-70h-138v-262q0 -29 3 -47.5t11 -29.5t20.5 -15.5t32.5 -4.5q33 0 71 9v-75zM313 565l-60 16l55 181l75 -20z" />
    <glyph glyph-name="Tbar" unicode="&#x166;" horiz-adv-x="516" 
d="M212 598h-194v77h481v-77h-195v-219h116v-74h-116v-305h-92v305h-116v74h116v219z" />
    <glyph glyph-name="tbar" unicode="&#x167;" horiz-adv-x="399" 
d="M343 2q-23 -5 -46.5 -7.5t-45.5 -2.5q-76 0 -106 34t-30 116v82h-93v66h93v139h-100v68h100v161l90 25v-186h138v-68h-138v-139h126v-66h-126v-61q0 -28 3 -46.5t11 -29.5t21 -15.5t33 -4.5q19 0 35.5 2.5t34.5 7.5v-75z" />
    <glyph glyph-name="Utilde" unicode="&#x168;" horiz-adv-x="693" 
d="M607 258q0 -132 -68 -200t-201 -68q-79 0 -128.5 20t-77 53.5t-37.5 75.5t-10 88v448h92v-441q0 -35 7 -65.5t25.5 -53.5t51 -36t83.5 -13q88 -1 130.5 41t42.5 144v424h90v-417v0zM522 808q-20 -35 -48.5 -54t-63.5 -19q-26 0 -43.5 8t-32 18t-27.5 18t-29 8
q-36 0 -63 -45l-46 33q20 35 48.5 54.5t63.5 19.5q25 0 43 -8t32.5 -18t27.5 -18t29 -8q34 0 63 44l46 -33v0z" />
    <glyph glyph-name="utilde" unicode="&#x169;" horiz-adv-x="575" 
d="M403 0q0 26 2 55t6 50h-2q-22 -53 -67.5 -83.5t-107.5 -30.5q-41 0 -70 12t-46.5 33.5t-25 50t-7.5 63.5v347h89v-320q0 -56 19 -84t66 -28q30 0 56 14.5t45 41t29.5 62t10.5 76.5v238h90v-497h-87zM458 671q-20 -38 -47.5 -58t-61.5 -20q-22 0 -38.5 7.5t-36 21.5
t-29.5 20t-24 6q-33 0 -59 -47l-45 35q20 38 47.5 58t61.5 20q22 0 38.5 -7t36 -21t29.5 -20t24 -6q34 0 59 46z" />
    <glyph glyph-name="Umacron" unicode="&#x16a;" horiz-adv-x="693" 
d="M607 258q0 -132 -68 -200t-201 -68q-79 0 -128.5 20t-77 53.5t-37.5 75.5t-10 88v448h92v-441q0 -35 7 -65.5t25.5 -53.5t51 -36t83.5 -13q88 -1 130.5 41t42.5 144v424h90v-417v0zM209 748v62h276v-62h-276z" />
    <glyph glyph-name="umacron" unicode="&#x16b;" horiz-adv-x="575" 
d="M403 0q0 26 2 55t6 50h-2q-22 -53 -67.5 -83.5t-107.5 -30.5q-41 0 -70 12t-46.5 33.5t-25 50t-7.5 63.5v347h89v-320q0 -56 19 -84t66 -28q30 0 56 14.5t45 41t29.5 62t10.5 76.5v238h90v-497h-87zM162 616v68h252v-68h-252z" />
    <glyph glyph-name="Ubreve" unicode="&#x16c;" horiz-adv-x="693" 
d="M607 258q0 -132 -68 -200t-201 -68q-79 0 -128.5 20t-77 53.5t-37.5 75.5t-10 88v448h92v-441q0 -35 7 -65.5t25.5 -53.5t51 -36t83.5 -13q88 -1 130.5 41t42.5 144v424h90v-417v0zM476 852q0 -52 -34.5 -87t-96.5 -35q-32 0 -55.5 9.5t-40 26t-24.5 39t-8 47.5h58
q0 -26 20 -43.5t52 -17.5t51 17.5t19 43.5h59z" />
    <glyph glyph-name="ubreve" unicode="&#x16d;" horiz-adv-x="575" 
d="M403 0q0 26 2 55t6 50h-2q-22 -53 -67.5 -83.5t-107.5 -30.5q-41 0 -70 12t-46.5 33.5t-25 50t-7.5 63.5v347h89v-320q0 -56 19 -84t66 -28q30 0 56 14.5t45 41t29.5 62t10.5 76.5v238h90v-497h-87zM413 718q0 -27 -7.5 -51.5t-23 -43t-39.5 -29.5t-57 -11t-56.5 11
t-38 30t-21.5 43t-7 51h61q0 -28 16 -48t47 -20q29 0 46.5 17.5t17.5 50.5h62v0z" />
    <glyph glyph-name="Uring" unicode="&#x16e;" horiz-adv-x="693" 
d="M607 258q0 -132 -68 -200t-201 -68q-79 0 -128.5 20t-77 53.5t-37.5 75.5t-10 88v448h92v-441q0 -35 7 -65.5t25.5 -53.5t51 -36t83.5 -13q88 -1 130.5 41t42.5 144v424h90v-417v0zM463 804q0 -48 -33.5 -79t-88.5 -31q-53 0 -82.5 26.5t-29.5 77.5q0 47 33.5 78t87.5 31
t83.5 -26t29.5 -77zM396 800q0 57 -50 57q-22 0 -36.5 -14.5t-14.5 -41.5q0 -57 51 -57q22 0 36 14.5t14 41.5z" />
    <glyph glyph-name="uring" unicode="&#x16f;" horiz-adv-x="575" 
d="M403 0q0 26 2 55t6 50h-2q-22 -53 -67.5 -83.5t-107.5 -30.5q-41 0 -70 12t-46.5 33.5t-25 50t-7.5 63.5v347h89v-320q0 -56 19 -84t66 -28q30 0 56 14.5t45 41t29.5 62t10.5 76.5v238h90v-497h-87zM404 662q0 -49 -33.5 -81t-87.5 -32q-53 0 -82 27t-29 79q0 49 33 80.5
t87 31.5q53 0 82.5 -26.5t29.5 -78.5zM338 658q0 58 -50 58q-22 0 -36.5 -15t-14.5 -42q0 -58 50 -58q22 0 36.5 14.5t14.5 42.5z" />
    <glyph glyph-name="Uhungarumlaut" unicode="&#x170;" horiz-adv-x="693" 
d="M607 258q0 -132 -68 -200t-201 -68q-79 0 -128.5 20t-77 53.5t-37.5 75.5t-10 88v448h92v-441q0 -35 7 -65.5t25.5 -53.5t51 -36t83.5 -13q88 -1 130.5 41t42.5 144v424h90v-417v0zM254 724l-44 40l113 130l55 -50zM429 724l-42 40l131 127l52 -53z" />
    <glyph glyph-name="uhungarumlaut" unicode="&#x171;" horiz-adv-x="575" 
d="M403 0q0 26 2 55t6 50h-2q-22 -53 -67.5 -83.5t-107.5 -30.5q-41 0 -70 12t-46.5 33.5t-25 50t-7.5 63.5v347h89v-320q0 -56 19 -84t66 -28q30 0 56 14.5t45 41t29.5 62t10.5 76.5v238h90v-497h-87zM209 570l-44 39l118 141l56 -48zM383 570l-43 40l128 134l54 -50z" />
    <glyph glyph-name="Uogonek" unicode="&#x172;" horiz-adv-x="693" 
d="M607 258q0 -66 -17 -116t-51 -84q-10 -10 -22 -19t-34 -24t-37 -26.5t-29 -25.5q-45 -43 -45 -88q0 -40 40 -40q38 0 80 22v-68q-23 -11 -47.5 -17t-51.5 -6q-50 0 -78.5 24.5t-28.5 66.5q0 36 19.5 71.5t57.5 63.5q-4 0 -15 -0.5t-15 -0.5q-73 0 -122.5 19t-76.5 52
t-38 74.5t-11 90.5v448h92v-441q0 -37 7.5 -67t26 -53t51.5 -35.5t82 -12.5q45 0 77.5 10t53.5 32t31.5 57t10.5 86v424h90v-417z" />
    <glyph glyph-name="uogonek" unicode="&#x173;" horiz-adv-x="575" 
d="M532 -211q-23 -11 -47.5 -17t-50.5 -6q-25 0 -45 6t-34 18t-21.5 29t-7.5 38q0 19 5.5 38t17 38t28.5 37.5t40 36.5q-3 24 -5 49t-1 44h-1q-26 -52 -71 -80.5t-105 -28.5q-40 0 -68.5 11.5t-46.5 32.5t-26 50t-8 65v347h89v-320q0 -58 20 -85t65 -27q30 0 56 14.5t45 41
t29.5 62t10.5 76.5v238h90v-321q0 -45 3.5 -91t10.5 -85q-47 -33 -69 -64t-22 -61q0 -19 10 -29.5t29 -10.5q18 0 38.5 5.5t41.5 16.5v-68z" />
    <glyph glyph-name="Wcircumflex" unicode="&#x174;" horiz-adv-x="955" 
d="M742 0h-115l-128 444q-6 22 -11.5 47.5t-10.5 56.5h-2q-7 -52 -20 -104l-125 -444h-116l-180 675h98l116 -438q10 -40 17 -75t12 -70h2q16 88 30 141l125 442h92l130 -448q10 -34 18 -69t13 -66h1q7 40 12 68.5t12 56.5l119 458h90zM614 724l-133 60l-135 -60l-24 50
l160 83l158 -81z" />
    <glyph glyph-name="wcircumflex" unicode="&#x175;" horiz-adv-x="793" 
d="M617 0h-103l-98 295q-8 26 -15 52t-13 50h-1q-7 -30 -15.5 -61.5t-18.5 -66.5l-83 -269h-102l-152 497h100l78 -274q9 -33 18.5 -68.5t14.5 -58.5h1q7 30 15.5 63t17.5 65l86 273h97l87 -273q7 -23 12.5 -41t9.5 -33t7.5 -28t6.5 -27h1q5 25 13 53.5t20 74.5l81 274h95z
M496 570l-100 85l-102 -85l-37 43l140 131l138 -130z" />
    <glyph glyph-name="Ycircumflex" unicode="&#x176;" horiz-adv-x="537" 
d="M313 259v-259h-91v259l-220 416h101l116 -220q27 -54 50 -111h2q13 32 29 65t25 50l112 216h98zM401 724l-133 60l-135 -60l-24 50l160 83l158 -81z" />
    <glyph glyph-name="ycircumflex" unicode="&#x177;" horiz-adv-x="480" 
d="M278 -25q-23 -65 -48 -119.5t-51 -102.5h-99q31 54 58.5 108.5t47.5 108.5l11 30l-188 497h103l94 -260q12 -36 21 -66.5t18 -60.5h1q7 27 20 67.5t28 86.5l80 233h97zM340 570l-100 85l-102 -85l-37 43l140 131l138 -130z" />
    <glyph glyph-name="Ydieresis" unicode="&#x178;" horiz-adv-x="537" 
d="M313 259v-259h-91v259l-220 416h101l116 -220q27 -54 50 -111h2q13 32 29 65t25 50l112 216h98zM430 782q0 -22 -15.5 -38t-38.5 -16q-22 0 -37.5 15.5t-15.5 38.5t15.5 38.5t37.5 15.5q23 0 38.5 -16t15.5 -38zM217 782q0 -22 -15.5 -38t-38.5 -16t-38.5 16t-15.5 38
q0 23 16 38.5t38 15.5q23 0 38.5 -16t15.5 -38z" />
    <glyph glyph-name="Zacute" unicode="&#x179;" horiz-adv-x="539" 
d="M46 0v68l283 446q23 34 32.5 48.5t22.5 32.5q-29 -1 -64.5 -1.5t-83.5 -0.5h-180v82h435v-70l-298 -464q-12 -17 -22.5 -32.5t-17.5 -26.5q14 1 51 1.5t117 0.5h174v-84h-449zM243 725l-17 52l182 74l25 -70z" />
    <glyph glyph-name="zacute" unicode="&#x17a;" horiz-adv-x="447" 
d="M48 0v64l238 355q-23 -1 -58 -1.5t-73 -0.5h-102v80h338v-63l-235 -353q13 0 37 0.5t50.5 1t47.5 0.5h105v-83h-348zM223 569l-44 43l129 139l55 -53z" />
    <glyph glyph-name="Zdotaccent" unicode="&#x17b;" horiz-adv-x="539" 
d="M46 0v68l283 446q23 34 32.5 48.5t22.5 32.5q-29 -1 -64.5 -1.5t-83.5 -0.5h-180v82h435v-70l-298 -464q-12 -17 -22.5 -32.5t-17.5 -26.5q14 1 51 1.5t117 0.5h174v-84h-449zM328 785q0 -24 -17 -41t-41 -17t-41 17t-17 41t17 41t41 17t41 -16.5t17 -41.5z" />
    <glyph glyph-name="zdotaccent" unicode="&#x17c;" horiz-adv-x="447" 
d="M48 0v64l238 355q-23 -1 -58 -1.5t-73 -0.5h-102v80h338v-63l-235 -353q13 0 37 0.5t50.5 1t47.5 0.5h105v-83h-348zM278 654q0 -24 -17 -41t-41 -17t-41 16.5t-17 41.5q0 24 17 41t41 17t41 -17t17 -41z" />
    <glyph glyph-name="Zcaron" unicode="&#x17d;" horiz-adv-x="539" 
d="M46 0v68l283 446q23 34 32.5 48.5t22.5 32.5q-29 -1 -64.5 -1.5t-83.5 -0.5h-180v82h435v-70l-298 -464q-12 -17 -22.5 -32.5t-17.5 -26.5q14 1 51 1.5t117 0.5h174v-84h-449zM271 724l-157 82l25 51l134 -60l135 60l24 -50z" />
    <glyph glyph-name="zcaron" unicode="&#x17e;" horiz-adv-x="447" 
d="M48 0v64l238 355q-23 -1 -58 -1.5t-73 -0.5h-102v80h338v-63l-235 -353q13 0 37 0.5t50.5 1t47.5 0.5h105v-83h-348zM223 570l-138 130l39 44l100 -85l101 85l38 -43z" />
    <glyph glyph-name="uni018F" unicode="&#x18f;" horiz-adv-x="603" 
d="M33 289q0 18 2 45t5 47h420q-4 55 -20 97t-43.5 69.5t-66 41.5t-87.5 14q-42 0 -85 -10t-86 -28v83q44 17 90 26t95 9q70 0 126.5 -21t96 -63.5t60.5 -107.5t21 -151q0 -81 -19.5 -145.5t-56 -110t-88.5 -69.5t-117 -24q-64 0 -111 21t-77 60.5t-44.5 94t-14.5 122.5z
M132 306v-19q0 -56 11 -97t31.5 -67t49 -38.5t65.5 -12.5q42 0 74 17t54 48t33 74t11 95h-329z" />
    <glyph glyph-name="florin" unicode="&#x192;" horiz-adv-x="442" 
d="M193 38q-3 -34 -13.5 -71.5t-35.5 -68.5t-62 -45t-83 -14q-21 0 -35 1t-31 3v78q25 -5 42.5 -6.5t32.5 -1.5q25 0 41.5 8.5t27.5 24.5t17.5 41t8.5 49l32 304h-121v70h128l14 134q10 96 57.5 145.5t136.5 49.5q15 0 33.5 -1.5t32.5 -3.5v-78q-40 9 -75 9q-42 0 -65 -28
t-30 -90l-14 -137h162v-70h-169z" />
    <glyph glyph-name="Gcaron" unicode="&#x1e6;" horiz-adv-x="682" 
d="M601 30q-50 -19 -108.5 -29t-114.5 -10q-78 0 -140.5 23t-106 66.5t-66 105t-22.5 138.5q0 79 23.5 145t69.5 114t114 74.5t156 26.5q42 0 86.5 -6.5t85.5 -17.5v-90q-42 17 -89.5 26t-91.5 9q-66 0 -115 -21.5t-80 -59t-46 -85.5t-15 -102q0 -63 17 -112.5t49 -83.5
t78.5 -52t105.5 -18q32 0 61 4.5t58 13.5v255h91v-314zM371 724l-157 82l25 51l134 -60l135 60l24 -50z" />
    <glyph glyph-name="gcaron" unicode="&#x1e7;" horiz-adv-x="533" 
d="M262 506q36 0 71 -9h167v-70h-74q9 -11 18 -34.5t9 -54.5q0 -40 -13.5 -73.5t-38.5 -58t-63 -39t-88 -14.5q-29 0 -53 5q-29 -20 -29 -41q0 -16 17.5 -26t60.5 -11l80 -3q90 -3 135 -41t45 -105q0 -40 -18 -74.5t-51.5 -59.5t-81.5 -39t-107 -14q-99 0 -155.5 38.5
t-56.5 108.5q0 22 6.5 41t18.5 36.5t27 31.5t33 26q-18 9 -31 25.5t-14 46.5q0 25 14 46.5t41 38.5q-17 10 -34 28.5t-28 47.5t-11 62q0 39 13 73t38.5 58.5t63.5 39t89 14.5zM145 -40q-17 -25 -17 -53q0 -44 35 -69t98 -25q74 0 113.5 29t39.5 77q0 38 -26 59t-86 23l-83 3
q-14 1 -26 2q-32 -21 -48 -46zM366 329q0 48 -29 79t-81 31t-81.5 -31t-29.5 -79t29.5 -79t81.5 -31t81 31t29 79zM269 570l-138 130l39 44l100 -85l101 85l38 -43z" />
    <glyph glyph-name="Aringacute" unicode="&#x1fa;" horiz-adv-x="615" 
d="M333 493q-7 21 -14.5 46t-14.5 49h-1q-5 -20 -11.5 -41t-16.5 -53l-92 -260h242zM502 0l-55 161h-287l-56 -161h-94l242 675h112l241 -675h-103zM262 882l-15 41l169 57l21 -54zM414 785q0 -38 -29.5 -64t-80.5 -26q-47 0 -74 20.5t-27 64.5q0 38 29.5 64t80.5 26
q47 0 74 -20.5t27 -64.5zM357 782q0 23 -12.5 34t-35.5 11q-19 0 -34 -10.5t-15 -34.5q0 -23 12.5 -33.5t35.5 -10.5q19 0 34 10.5t15 33.5z" />
    <glyph glyph-name="aringacute" unicode="&#x1fb;" horiz-adv-x="521" 
d="M345 223h-59q-36 0 -64 -4.5t-47.5 -14.5t-29.5 -25.5t-10 -38.5q0 -34 21 -56t55 -22q28 0 53.5 12.5t44 35.5t27.5 49.5t9 54.5v9zM348 0q0 29 2 52.5t5 42.5h-2q-19 -47 -63.5 -75.5t-101.5 -28.5q-64 0 -103 37.5t-39 99.5q0 77 61.5 117t182.5 40h55v33
q0 63 -26.5 90.5t-84.5 27.5q-34 0 -74.5 -8.5t-77.5 -23.5v74q32 11 75.5 19.5t86.5 8.5q55 0 91.5 -13t57.5 -35.5t31.5 -54t10.5 -77.5v-183v-74.5v-68.5h-87zM209 780l-17 46l178 70l25 -62zM367 649q0 -45 -31 -75t-84 -30q-49 0 -77 24.5t-28 74.5q0 45 30.5 75
t83.5 30q50 0 78 -24.5t28 -74.5zM306 646q0 55 -49 55q-20 0 -34.5 -13.5t-14.5 -41.5q0 -55 48 -55q20 0 35 13.5t15 41.5z" />
    <glyph glyph-name="AEacute" unicode="&#x1fc;" horiz-adv-x="834" 
d="M385 600h-24q-14 -31 -29 -63t-38 -76l-122 -225h213v364zM385 0v163h-247l-85 -163h-96l359 675h449v-76h-290v-214h266v-74h-266v-234h294v-77h-384zM451 725l-17 52l182 74l25 -70z" />
    <glyph glyph-name="aeacute" unicode="&#x1fd;" horiz-adv-x="807" 
d="M739 16q-35 -11 -77.5 -18t-85.5 -7q-44 0 -77.5 8.5t-57.5 23.5t-40 35.5t-25 44.5h-1q-25 -46 -71 -79t-112 -33q-68 0 -107 37t-39 100q0 78 62 117.5t182 39.5h55v33q0 57 -24 87.5t-87 30.5q-36 0 -76.5 -9t-75.5 -23v74q36 12 78 20t84 8q57 0 97.5 -17.5
t62.5 -59.5h1q23 33 63.5 55t95.5 22q52 0 89 -16.5t61 -44.5t35.5 -66.5t11.5 -81.5q0 -31 -3 -62h-325q1 -86 38 -129t115 -43q38 0 77 7t76 19v-73zM671 298q3 70 -28 105t-84 35q-49 0 -84.5 -35.5t-40.5 -104.5h237zM345 223h-59q-43 0 -72 -6t-46.5 -17t-25 -26
t-7.5 -34q0 -34 20.5 -56t55.5 -22q30 0 54.5 13t42.5 34.5t27.5 48.5t9.5 56v9zM419 569l-44 43l129 139l55 -53z" />
    <glyph glyph-name="Oslashacute" unicode="&#x1fe;" horiz-adv-x="709" 
d="M444 586q-19 10 -42 15t-47 5q-46 0 -86 -17t-69.5 -51t-46 -83.5t-16.5 -112.5q0 -75 19.5 -128.5t49.5 -86.5zM572 333q0 75 -19 129t-49 86l-238 -459q19 -9 42 -14.5t47 -5.5q46 0 86 17t69.5 51t45.5 83.5t16 112.5zM667 347q0 -84 -25 -151t-69.5 -113
t-102.5 -69.5t-124 -23.5t-119 22l-54 -104l-66 31l54 104q-56 41 -87 113t-31 172q0 84 25 151t69.5 113t102.5 69.5t124 23.5q32 0 62 -5.5t57 -16.5l54 104l65 -31l-54 -104q57 -41 88 -112.5t31 -172.5zM290 765l-17 52l182 74l25 -70z" />
    <glyph glyph-name="oslashacute" unicode="&#x1ff;" horiz-adv-x="545" 
d="M505 256q0 -56 -15.5 -104.5t-46.5 -84.5t-76.5 -56t-102.5 -20q-24 0 -46 3.5t-40 10.5l-49 -94l-56 26l51 95q-41 31 -62.5 83t-21.5 126q0 56 15.5 104.5t46.5 84.5t76.5 56t103.5 20q49 0 85 -14l49 94l56 -26l-50 -95q16 -12 29 -27.5t23 -34.5t17 -41.5t10.5 -49
t3.5 -56.5zM418 249q0 23 -3 44t-8 38.5t-12 31.5t-14 24l-166 -313q26 -12 56 -12q33 0 60.5 12t46.5 36t29.5 59t10.5 80zM330 423q-26 12 -56 12q-33 0 -60 -12t-46.5 -36t-29.5 -59t-10 -80q0 -19 2 -36.5t5.5 -32.5t8 -27.5t10 -23t11.5 -18.5zM255 569l-44 43l129 139
l55 -53z" />
    <glyph glyph-name="Scommaaccent" unicode="&#x218;" horiz-adv-x="504" 
d="M456 188q0 -43 -16 -79t-47.5 -63t-77 -41t-102.5 -14q-41 0 -81 5t-71 13v90q34 -14 76.5 -21.5t80.5 -7.5q32 0 58 6.5t45 20t29 35t10 49.5q0 34 -18 56.5t-42.5 36.5t-84.5 39.5t-92 47.5t-52 56t-20 83q0 41 16 74.5t47 58.5t75 38t99 13q31 0 60.5 -3t55.5 -8v-83
q-29 8 -62 13t-60 5q-66 0 -101.5 -26.5t-35.5 -74.5q0 -31 16.5 -51.5t40 -34t87.5 -41t97 -51.5t51.5 -58.5t18.5 -82.5zM247 -49q22 0 36.5 -16t14.5 -41q0 -34 -25.5 -68t-84.5 -66l-23 34q27 20 37 36.5t10 30.5q0 8 -2 13t-4 9.5l-4 9t-2 12.5q0 19 13 32.5t34 13.5z
" />
    <glyph glyph-name="scommaaccent" unicode="&#x219;" horiz-adv-x="425" 
d="M376 142q0 -32 -12.5 -59t-37.5 -48t-62.5 -32.5t-86.5 -11.5q-33 0 -62.5 3.5t-56.5 9.5v80q29 -9 61.5 -15t63.5 -6q50 0 75 18.5t25 52.5q0 26 -15 41t-32 23t-60.5 23.5t-68.5 31.5t-41 42t-16 67q0 63 50 103.5t144 40.5q24 0 49 -2t46 -6v-76q-21 7 -48.5 10.5
t-52.5 3.5q-47 0 -71.5 -17.5t-24.5 -48.5q0 -25 15.5 -41t48 -28.5t60.5 -22.5t53 -26t41 -42.5t16 -67.5zM214 -49q22 0 36.5 -16t14.5 -41q0 -34 -25.5 -68t-84.5 -66l-23 34q27 20 37 36.5t10 30.5q0 8 -2 13t-4 9.5l-4 9t-2 12.5q0 19 13 32.5t34 13.5z" />
    <glyph glyph-name="Tcommaaccent" unicode="&#x21a;" horiz-adv-x="516" 
d="M304 598v-598h-92v598h-194v77h481v-77h-195zM261 -49q22 0 36.5 -16t14.5 -41q0 -34 -25.5 -68t-84.5 -66l-23 34q27 20 37 36.5t10 30.5q0 8 -2 13t-4 9.5l-4 9t-2 12.5q0 19 13 32.5t34 13.5z" />
    <glyph glyph-name="tcommaaccent" unicode="&#x21b;" horiz-adv-x="371" 
d="M335 2q-24 -5 -47 -7.5t-45 -2.5q-39 0 -65 8.5t-41.5 26t-22.5 46t-7 70.5v284h-100v70h100v161l90 25v-186h138v-70h-138v-262q0 -29 3 -47.5t11 -29.5t20.5 -15.5t32.5 -4.5q33 0 71 9v-75zM217 -49q22 0 36.5 -16t14.5 -41q0 -34 -25.5 -68t-84.5 -66l-23 34
q27 20 37 36.5t10 30.5q0 8 -2 13t-4 9.5l-4 9t-2 12.5q0 19 13 32.5t34 13.5z" />
    <glyph glyph-name="dotlessj" unicode="&#x237;" horiz-adv-x="260" 
d="M175 -34q0 -43 -8 -76t-25 -59t-43.5 -47t-62.5 -40l-40 61q24 15 40.5 29t27.5 32t16 42t5 58v531h90v-531z" />
    <glyph glyph-name="uni0259" unicode="&#x259;" horiz-adv-x="502" 
d="M41 220q0 18 1 34t3 32h323q-4 75 -44 112.5t-112 37.5q-37 0 -72.5 -7t-66.5 -21v73q34 12 73 18.5t79 6.5q115 0 176 -63t61 -191q0 -59 -15 -107t-43.5 -82.5t-70.5 -53t-95 -18.5q-51 0 -88.5 16.5t-61.5 47.5t-35.5 72.5t-11.5 92.5zM132 205q0 -72 30 -108t83 -36
q30 0 53 12t39 33.5t24 51t8 64.5h-237v-17z" />
    <glyph glyph-name="circumflex" unicode="&#x2c6;" horiz-adv-x="444" 
d="M322 570l-100 85l-102 -85l-37 43l140 131l138 -130z" />
    <glyph glyph-name="caron" unicode="&#x2c7;" horiz-adv-x="444" 
d="M221 570l-138 130l39 44l100 -85l101 85l38 -43z" />
    <glyph glyph-name="breve" unicode="&#x2d8;" horiz-adv-x="416" 
d="M333 718q0 -27 -7.5 -51.5t-23 -43t-39.5 -29.5t-57 -11t-56.5 11t-38 30t-21.5 43t-7 51h61q0 -28 16 -48t47 -20q29 0 46.5 17.5t17.5 50.5h62v0z" />
    <glyph glyph-name="dotaccent" unicode="&#x2d9;" horiz-adv-x="282" 
d="M199 654q0 -24 -17 -41t-41 -17t-41 16.5t-17 41.5q0 24 17 41t41 17t41 -17t17 -41z" />
    <glyph glyph-name="ring" unicode="&#x2da;" horiz-adv-x="397" 
d="M315 662q0 -49 -33.5 -81t-87.5 -32q-53 0 -82 27t-29 79q0 49 33 80.5t87 31.5q53 0 82.5 -26.5t29.5 -78.5zM249 658q0 58 -50 58q-22 0 -36.5 -15t-14.5 -42q0 -58 50 -58q22 0 36.5 14.5t14.5 42.5z" />
    <glyph glyph-name="ogonek" unicode="&#x2db;" horiz-adv-x="386" 
d="M261 0q-49 -34 -70.5 -65t-21.5 -60q0 -40 40 -40q38 0 80 22v-68q-24 -12 -49.5 -17.5t-49.5 -5.5q-50 0 -78.5 24.5t-28.5 66.5q0 79 90 150z" />
    <glyph glyph-name="tilde" unicode="&#x2dc;" horiz-adv-x="507" 
d="M424 671q-20 -38 -47.5 -58t-61.5 -20q-22 0 -38.5 7.5t-36 21.5t-29.5 20t-24 6q-33 0 -59 -47l-45 35q20 38 47.5 58t61.5 20q22 0 38.5 -7t36 -21t29.5 -20t24 -6q34 0 59 46z" />
    <glyph glyph-name="hungarumlaut" unicode="&#x2dd;" horiz-adv-x="523" 
d="M127 570l-44 39l118 141l56 -48zM301 570l-43 40l128 134l54 -50z" />
    <glyph glyph-name="uni0312" unicode="&#x312;" horiz-adv-x="0" 
d="M-289 566q-23 0 -38 18t-12.5 48.5t29.5 63.5t80 61l23 -34q-21 -15 -30.5 -27.5t-13 -24t-2 -21t5.5 -17.5q6 -10 6 -22.5t-6 -22.5t-17.5 -16t-24.5 -6z" />
    <glyph glyph-name="uni0315" unicode="&#x315;" horiz-adv-x="296" 
d="M143 565l-60 16l55 181l75 -20z" />
    <glyph glyph-name="uni0326" unicode="&#x326;" horiz-adv-x="0" 
d="M-285 -49q22 0 36.5 -16t14.5 -41q0 -34 -25.5 -68t-84.5 -66l-23 34q27 20 37 36.5t10 30.5q0 8 -2 13t-4 9.5l-4 9t-2 12.5q0 19 13 32.5t34 13.5z" />
    <glyph glyph-name="uni037E" unicode="&#x37e;" horiz-adv-x="286" 
d="M157 113q28 0 45 -21t17 -55q-1 -50 -32.5 -100t-77.5 -91l-38 34q22 23 39 51t17 54q0 15 -4 23.5t-9.5 16t-8.5 15.5t-3 18q0 22 15.5 38.5t39.5 16.5zM220 394q0 -26 -18 -44t-44 -18t-44 18t-18 44t18 44t44 18t44 -18t18 -44z" />
    <glyph glyph-name="tonos" unicode="&#x384;" horiz-adv-x="271" 
d="M148 560l-65 8l22 174l83 -8z" />
    <glyph glyph-name="dieresistonos" unicode="&#x385;" horiz-adv-x="520" 
d="M182 653q0 -21 -14.5 -35.5t-35.5 -14.5q-20 0 -34.5 14.5t-14.5 35.5q0 20 14.5 34.5t34.5 14.5q21 0 35.5 -14.5t14.5 -34.5zM276 560l-58 5l14 172l75 -5zM437 653q0 -21 -14.5 -35.5t-34.5 -14.5q-21 0 -35.5 14.5t-14.5 35.5q0 20 14.5 34.5t35.5 14.5
q20 0 34.5 -14.5t14.5 -34.5z" />
    <glyph glyph-name="Alphatonos" unicode="&#x386;" horiz-adv-x="629" 
d="M347 493q-7 21 -14.5 46t-14.5 49h-1q-5 -20 -11.5 -41t-16.5 -53l-92 -260h242zM516 0l-55 161h-287l-56 -161h-94l242 675h112l241 -675h-103zM92 560l-65 8l22 174l83 -8z" />
    <glyph glyph-name="anoteleia" unicode="&#x387;" horiz-adv-x="285" 
d="M201 497q0 -12 -4.5 -23t-12.5 -19t-19 -12.5t-23 -4.5t-23 4.5t-19 12.5t-12.5 18.5t-4.5 23.5q0 12 4.5 23t12.5 19t19 12.5t23 4.5t23 -4.5t19 -12.5t12.5 -18.5t4.5 -23.5z" />
    <glyph glyph-name="Epsilontonos" unicode="&#x388;" horiz-adv-x="593" 
d="M142 0v675h382v-76h-290v-214h266v-74h-266v-234h294v-77h-386zM65 560l-65 8l22 174l83 -8z" />
    <glyph glyph-name="Etatonos" unicode="&#x389;" horiz-adv-x="755" 
d="M578 0v311h-344v-311h-92v675h92v-286h344v286h92v-675h-92zM65 560l-65 8l22 174l83 -8z" />
    <glyph glyph-name="Iotatonos" unicode="&#x38a;" horiz-adv-x="319" 
d="M142 0v675h92v-675h-92zM65 560l-65 8l22 174l83 -8z" />
    <glyph glyph-name="Omicrontonos" unicode="&#x38c;" horiz-adv-x="736" 
d="M597 333q0 126 -56 198.5t-159 72.5q-46 0 -85 -17t-68.5 -50.5t-45.5 -83t-16 -111.5q0 -61 13.5 -111t40.5 -86t67.5 -55t93.5 -19q46 0 85 17t68.5 50.5t45.5 83t16 111.5zM694 347q0 -84 -25 -151t-69.5 -113t-102.5 -69.5t-124 -23.5q-73 0 -129.5 23.5t-95 67.5
t-58.5 106.5t-20 140.5q0 84 25 151t69.5 113t102.5 69.5t124 23.5q73 0 129.5 -23.5t95 -67.5t58.5 -106.5t20 -140.5zM65 560l-65 8l22 174l83 -8z" />
    <glyph glyph-name="Upsilontonos" unicode="&#x38e;" horiz-adv-x="649" 
d="M425 259v-259h-91v259l-220 416h101l116 -220q27 -54 50 -111h2q13 32 29 65t25 50l112 216h98zM65 560l-65 8l22 174l83 -8z" />
    <glyph glyph-name="Omegatonos" unicode="&#x38f;" horiz-adv-x="744" 
d="M457 0v75q33 27 58 54t42.5 58.5t26.5 70.5t9 87q0 57 -13 104.5t-39.5 82t-66 53.5t-91.5 19q-44 0 -82 -17.5t-66.5 -51t-44.5 -81t-16 -105.5q0 -47 7.5 -85t23.5 -70t41.5 -61t63.5 -58v-75h-243v77h142q-62 44 -97.5 112t-35.5 157q0 77 24 140.5t67 107.5t101 67.5
t125 23.5q64 0 118 -20.5t94.5 -61.5t63 -103t22.5 -143q0 -47 -10.5 -89t-29.5 -77.5t-44 -63.5t-54 -50h147v-77h-243zM65 560l-65 8l22 174l83 -8z" />
    <glyph glyph-name="iotadieresistonos" unicode="&#x390;" horiz-adv-x="293" 
d="M282 1q-20 -4 -41.5 -6.5t-42.5 -2.5q-56 0 -84.5 29.5t-28.5 106.5v369h90v-353q0 -45 11.5 -61t39.5 -16q26 0 56 6v-72zM64 653q0 -21 -14.5 -35.5t-35.5 -14.5q-20 0 -34.5 14.5t-14.5 35.5q0 20 14.5 34.5t34.5 14.5q21 0 35.5 -14.5t14.5 -34.5zM158 560l-58 5
l14 172l75 -5zM319 653q0 -21 -14.5 -35.5t-34.5 -14.5q-21 0 -35.5 14.5t-14.5 35.5q0 20 14.5 34.5t35.5 14.5q20 0 34.5 -14.5t14.5 -34.5z" />
    <glyph glyph-name="Alpha" unicode="&#x391;" horiz-adv-x="615" 
d="M333 493q-7 21 -14.5 46t-14.5 49h-1q-5 -20 -11.5 -41t-16.5 -53l-92 -260h242zM502 0l-55 161h-287l-56 -161h-94l242 675h112l241 -675h-103z" />
    <glyph glyph-name="Beta" unicode="&#x392;" horiz-adv-x="571" 
d="M424 194q0 29 -10 51t-31.5 37t-56 23t-81.5 8h-24.5t-24 -0.5t-19.5 -0.5v-236q30 -5 87 -5q80 0 120 34t40 89zM402 498q0 24 -7 43t-23.5 34t-44 23t-67.5 8q-15 0 -36.5 -1t-46.5 -2v-220q9 0 18.5 -0.5t20 -0.5h30.5q77 0 116.5 30t39.5 86zM521 200
q0 -36 -14 -71.5t-45 -65.5t-82.5 -48t-122.5 -18q-27 0 -89 1.5t-83 1.5v675q24 1 76 2.5t108 1.5q115 0 172 -44t57 -123q0 -53 -29.5 -94.5t-82.5 -60.5v-1q31 -6 56 -19t42.5 -33t27 -46.5t9.5 -57.5z" />
    <glyph glyph-name="Gamma" unicode="&#x393;" horiz-adv-x="426" 
d="M177 598v-598h-92v675h334v-77h-242z" />
    <glyph glyph-name="Delta" unicode="&#x394;" horiz-adv-x="608" 
d="M320 516q-7 21 -11.5 39t-8.5 36h-1q-5 -21 -10.5 -40t-11.5 -37l-152 -433h348zM28 0v67l219 608h111l221 -608v-67h-551z" />
    <glyph glyph-name="Delta" unicode="&#x2206;" horiz-adv-x="608" 
d="M320 516q-7 21 -11.5 39t-8.5 36h-1q-5 -21 -10.5 -40t-11.5 -37l-152 -433h348zM28 0v67l219 608h111l221 -608v-67h-551z" />
    <glyph glyph-name="Epsilon" unicode="&#x395;" horiz-adv-x="536" 
d="M85 0v675h382v-76h-290v-214h266v-74h-266v-234h294v-77h-386z" />
    <glyph glyph-name="Zeta" unicode="&#x396;" horiz-adv-x="539" 
d="M46 0v68l283 446q23 34 32.5 48.5t22.5 32.5q-29 -1 -64.5 -1.5t-83.5 -0.5h-180v82h435v-70l-298 -464q-12 -17 -22.5 -32.5t-17.5 -26.5q14 1 51 1.5t117 0.5h174v-84h-449z" />
    <glyph glyph-name="Eta" unicode="&#x397;" horiz-adv-x="698" 
d="M521 0v311h-344v-311h-92v675h92v-286h344v286h92v-675h-92z" />
    <glyph glyph-name="Theta" unicode="&#x398;" horiz-adv-x="709" 
d="M234 313v72h240v-72h-240zM570 333q0 125 -55.5 198t-160.5 73q-46 0 -85.5 -17t-69 -50.5t-45.5 -83t-16 -111.5q0 -61 13.5 -111t41 -86t68 -55t93.5 -19q46 0 85.5 17t69 50.5t45.5 82.5t16 112zM667 347q0 -84 -25 -151t-69.5 -113t-102.5 -69.5t-124 -23.5
q-74 0 -130.5 23.5t-95 67.5t-58 106.5t-19.5 140.5q0 84 25 151t69.5 113t102.5 69.5t124 23.5q74 0 130.5 -23.5t95 -67.5t58 -106.5t19.5 -140.5z" />
    <glyph glyph-name="Iota" unicode="&#x399;" horiz-adv-x="262" 
d="M85 0v675h92v-675h-92z" />
    <glyph glyph-name="Kappa" unicode="&#x39a;" horiz-adv-x="586" 
d="M458 0l-281 334v-334h-92v675h92v-318l271 318h111l-283 -323l300 -352h-118z" />
    <glyph glyph-name="Lambda" unicode="&#x39b;" horiz-adv-x="616" 
d="M502 0l-151 439q-12 36 -24 75t-21 72h-1q-11 -37 -23 -76.5t-24 -74.5l-152 -435h-95l241 675h112l242 -675h-104z" />
    <glyph glyph-name="Mu" unicode="&#x39c;" horiz-adv-x="894" 
d="M752 0l-53 394q-8 63 -13 112t-6 84h-2q-7 -29 -17 -64.5t-24 -79.5l-156 -446h-84l-148 423q-15 44 -28.5 89t-21.5 78h-1q-1 -41 -5.5 -91t-10.5 -109l-44 -390h-91l87 675h126l150 -426q11 -33 19.5 -63t13.5 -58h1q7 32 15 63t17 58l150 426h130l91 -675h-95z" />
    <glyph glyph-name="Nu" unicode="&#x39d;" horiz-adv-x="693" 
d="M518 0h-5l-250 395q-19 29 -32.5 52t-25 43t-20.5 37t-17 34h-2q2 -29 3.5 -73.5t3 -96t2 -105t0.5 -97.5v-189h-90v675v0h113l235 -372q20 -30 34 -53.5t24.5 -42.5t17.5 -33l16 -32h2q-2 33 -3.5 76t-2.5 91.5t-2 99t-1 96.5v170h90v-675h-90z" />
    <glyph glyph-name="Xi" unicode="&#x39e;" horiz-adv-x="543" 
d="M46 0v83h451v-83h-451zM108 310v76h324v-76h-324zM55 593v82h434v-82h-434z" />
    <glyph glyph-name="Omicron" unicode="&#x39f;" horiz-adv-x="709" 
d="M570 333q0 126 -56 198.5t-159 72.5q-46 0 -85 -17t-68.5 -50.5t-45.5 -83t-16 -111.5q0 -61 13.5 -111t40.5 -86t67.5 -55t93.5 -19q46 0 85 17t68.5 50.5t45.5 83t16 111.5zM667 347q0 -84 -25 -151t-69.5 -113t-102.5 -69.5t-124 -23.5q-73 0 -129.5 23.5t-95 67.5
t-58.5 106.5t-20 140.5q0 84 25 151t69.5 113t102.5 69.5t124 23.5q73 0 129.5 -23.5t95 -67.5t58.5 -106.5t20 -140.5z" />
    <glyph glyph-name="Pi" unicode="&#x3a0;" horiz-adv-x="661" 
d="M484 0v598h-307v-598h-92v675h490v-675h-91z" />
    <glyph glyph-name="Rho" unicode="&#x3a1;" 
d="M518 469q0 -51 -18.5 -94.5t-54 -76t-85.5 -50t-112 -17.5q-22 0 -42 1t-29 2v-234h-92v675q24 1 75 2.5t102 1.5q126 0 191 -59t65 -151zM423 456q0 68 -43 108t-129 40q-22 0 -43 -0.5t-31 -1.5v-290q10 -1 32 -3.5t46 -2.5q81 0 124.5 41.5t43.5 108.5z" />
    <glyph glyph-name="Sigma" unicode="&#x3a3;" horiz-adv-x="512" 
d="M46 0v67l237 270l-223 261v77h415v-80h-300l216 -252l-231 -260h325v-83h-439z" />
    <glyph glyph-name="Tau" unicode="&#x3a4;" horiz-adv-x="516" 
d="M304 598v-598h-92v598h-194v77h481v-77h-195z" />
    <glyph glyph-name="Upsilon" unicode="&#x3a5;" horiz-adv-x="537" 
d="M313 259v-259h-91v259l-220 416h101l116 -220q27 -54 50 -111h2q13 32 29 65t25 50l112 216h98z" />
    <glyph glyph-name="Phi" unicode="&#x3a6;" horiz-adv-x="811" 
d="M361 576q-52 -4 -93.5 -21.5t-70.5 -48t-44.5 -73t-15.5 -94.5q0 -107 57 -171t167 -71v479zM673 336q0 107 -56.5 170.5t-166.5 70.5v-479q52 4 93.5 22t70.5 48.5t44 73t15 94.5zM769 346q0 -70 -22.5 -127.5t-64.5 -100t-101 -67t-131 -30.5v-74h-89v74
q-82 4 -142.5 26.5t-100 62t-58.5 94.5t-19 125t22.5 127.5t65 100t101.5 67t131 30.5v69h89v-69q82 -4 142 -26.5t99.5 -62t58.5 -94.5t19 -125z" />
    <glyph glyph-name="Chi" unicode="&#x3a7;" horiz-adv-x="599" 
d="M467 0l-172 279l-171 -279h-107l222 348l-208 327h106l160 -258l157 258h104l-205 -324l229 -351h-115z" />
    <glyph glyph-name="Psi" unicode="&#x3a8;" horiz-adv-x="786" 
d="M713 422q0 -125 -69.5 -195.5t-204.5 -80.5v-146h-92v146q-85 3 -138.5 25t-83.5 55.5t-41 76t-11 87.5v285h92v-275q0 -34 7.5 -64.5t28 -54t55.5 -39t91 -18.5v451h92v-451q94 6 138.5 51t44.5 142v258h91v-253v0z" />
    <glyph glyph-name="Omega" unicode="&#x3a9;" horiz-adv-x="720" 
d="M433 0v75q33 27 58 54t42.5 58.5t26.5 70.5t9 87q0 57 -13 104.5t-39.5 82t-66 53.5t-91.5 19q-44 0 -82 -17.5t-66.5 -51t-44.5 -81t-16 -105.5q0 -47 7.5 -85t23.5 -70t41.5 -61t63.5 -58v-75h-243v77h142q-62 44 -97.5 112t-35.5 157q0 77 24 140.5t67 107.5t101 67.5
t125 23.5q64 0 118 -20.5t94.5 -61.5t63 -103t22.5 -143q0 -47 -10.5 -89t-29.5 -77.5t-44 -63.5t-54 -50h147v-77h-243z" />
    <glyph glyph-name="Omega" unicode="&#x2126;" horiz-adv-x="720" 
d="M433 0v75q33 27 58 54t42.5 58.5t26.5 70.5t9 87q0 57 -13 104.5t-39.5 82t-66 53.5t-91.5 19q-44 0 -82 -17.5t-66.5 -51t-44.5 -81t-16 -105.5q0 -47 7.5 -85t23.5 -70t41.5 -61t63.5 -58v-75h-243v77h142q-62 44 -97.5 112t-35.5 157q0 77 24 140.5t67 107.5t101 67.5
t125 23.5q64 0 118 -20.5t94.5 -61.5t63 -103t22.5 -143q0 -47 -10.5 -89t-29.5 -77.5t-44 -63.5t-54 -50h147v-77h-243z" />
    <glyph glyph-name="Iotadieresis" unicode="&#x3aa;" horiz-adv-x="262" 
d="M85 0v675h92v-675h-92zM283 782q0 -22 -15.5 -38t-38.5 -16t-38.5 16t-15.5 38q0 23 16 38.5t38 15.5q23 0 38.5 -16t15.5 -38zM87 782q0 -22 -15.5 -38t-38.5 -16t-38.5 16t-15.5 38q0 23 16 38.5t38 15.5q23 0 38.5 -16t15.5 -38z" />
    <glyph glyph-name="Upsilondieresis" unicode="&#x3ab;" horiz-adv-x="537" 
d="M313 259v-259h-91v259l-220 416h101l116 -220q27 -54 50 -111h2q13 32 29 65t25 50l112 216h98zM428 782q0 -22 -15.5 -38t-38.5 -16q-22 0 -37.5 15.5t-15.5 38.5t15.5 38.5t37.5 15.5q23 0 38.5 -16t15.5 -38zM215 782q0 -22 -15.5 -38t-38.5 -16t-38.5 16t-15.5 38
q0 23 16 38.5t38 15.5q23 0 38.5 -16t15.5 -38z" />
    <glyph glyph-name="alphatonos" unicode="&#x3ac;" horiz-adv-x="585" 
d="M392 252q0 40 -9 73t-25.5 57t-39.5 37t-52 13q-26 0 -49.5 -11.5t-41 -35t-28 -58.5t-10.5 -81q0 -90 34 -134.5t90 -44.5q29 0 53 13t41.5 37t27 57t9.5 73v5zM551 -4q-14 -2 -23.5 -3t-17.5 -1q-54 0 -76.5 25t-19.5 90h-1q-6 -22 -21 -42.5t-37.5 -37t-51.5 -26.5
t-63 -10q-91 0 -144 62.5t-53 183.5q0 60 16.5 110t46 85t70 54.5t89.5 19.5q54 0 96 -28.5t59 -79.5q1 26 5 50t12 49h84q-9 -30 -16 -67t-12.5 -76.5t-8 -79t-2.5 -74.5q0 -46 2 -72.5t9.5 -40t21 -17.5t36.5 -4v-70zM306 560l-65 8l22 174l83 -8z" />
    <glyph glyph-name="epsilontonos" unicode="&#x3ad;" horiz-adv-x="443" 
d="M402 16q-77 -25 -157 -25q-54 0 -93.5 10.5t-63.5 29t-35.5 43t-11.5 53.5q0 46 25.5 79.5t68.5 47.5v1q-35 14 -54.5 40t-19.5 62q0 31 12 58t37 47.5t64 32t90 11.5q31 0 62.5 -3.5t59.5 -10.5v-75q-32 10 -65 16t-63 6q-57 0 -83 -21.5t-26 -56.5q0 -32 27 -52t74 -20
h98v-64h-108q-26 0 -45.5 -7t-33 -19t-20 -27t-6.5 -31q0 -37 32 -59.5t94 -22.5q31 0 68 7t73 20v-70zM282 560l-65 8l22 174l83 -8z" />
    <glyph glyph-name="etatonos" unicode="&#x3ae;" horiz-adv-x="585" 
d="M147 497q7 -26 12 -54t7 -53h1q19 50 62 83t111 33q43 0 74 -13t50 -36.5t28 -56t9 -71.5v-372q0 -51 2.5 -102t13.5 -102h-88q-11 49 -14.5 95.5t-3.5 95.5v359q0 66 -21.5 97.5t-72.5 31.5q-28 0 -52 -13.5t-42 -37t-28 -55.5t-10 -70v-256h-90v243q0 69 -10 131.5
t-27 122.5h89zM358 560l-65 8l22 174l83 -8z" />
    <glyph glyph-name="iotatonos" unicode="&#x3af;" horiz-adv-x="293" 
d="M282 1q-20 -4 -41.5 -6.5t-42.5 -2.5q-56 0 -84.5 29.5t-28.5 106.5v369h90v-353q0 -45 11.5 -61t39.5 -16q26 0 56 6v-72zM163 560l-65 8l22 174l83 -8z" />
    <glyph glyph-name="upsilondieresistonos" unicode="&#x3b0;" horiz-adv-x="574" 
d="M498 290q0 -78 -16.5 -134t-46 -93t-70 -54.5t-88.5 -17.5q-55 0 -92.5 15t-60.5 44.5t-33 71.5t-10 96v279h90v-262q0 -88 24 -129.5t89 -41.5q28 0 51 11.5t39 37t25 66t9 98.5q0 57 -5 113t-13 107h93q8 -48 11.5 -100.5t3.5 -106.5zM208 653q0 -21 -14.5 -35.5
t-35.5 -14.5q-20 0 -34.5 14.5t-14.5 35.5q0 20 14.5 34.5t34.5 14.5q21 0 35.5 -14.5t14.5 -34.5zM302 560l-58 5l14 172l75 -5zM463 653q0 -21 -14.5 -35.5t-34.5 -14.5q-21 0 -35.5 14.5t-14.5 35.5q0 20 14.5 34.5t35.5 14.5q20 0 34.5 -14.5t14.5 -34.5z" />
    <glyph glyph-name="alpha" unicode="&#x3b1;" horiz-adv-x="585" 
d="M392 252q0 40 -9 73t-25.5 57t-39.5 37t-52 13q-26 0 -49.5 -11.5t-41 -35t-28 -58.5t-10.5 -81q0 -90 34 -134.5t90 -44.5q29 0 53 13t41.5 37t27 57t9.5 73v5zM551 -4q-14 -2 -23.5 -3t-17.5 -1q-54 0 -76.5 25t-19.5 90h-1q-6 -22 -21 -42.5t-37.5 -37t-51.5 -26.5
t-63 -10q-91 0 -144 62.5t-53 183.5q0 60 16.5 110t46 85t70 54.5t89.5 19.5q54 0 96 -28.5t59 -79.5q1 26 5 50t12 49h84q-9 -30 -16 -67t-12.5 -76.5t-8 -79t-2.5 -74.5q0 -46 2 -72.5t9.5 -40t21 -17.5t36.5 -4v-70z" />
    <glyph glyph-name="beta" unicode="&#x3b2;" horiz-adv-x="557" 
d="M175 -43q0 -60 3 -108.5t13 -95.5h-88q-10 46 -14 92t-4 99v566q0 57 15.5 100t43 70.5t64.5 41t80 13.5q46 0 80.5 -13t57.5 -36.5t34 -54t11 -66.5q0 -62 -32 -109.5t-84 -62.5v-1q37 -4 65 -19.5t46 -39.5t27 -55t9 -67q0 -46 -16 -86.5t-47 -70.5t-75 -46.5
t-98 -16.5q-26 0 -48.5 3t-42.5 9v-46zM175 91q20 -12 46 -18.5t52 -6.5q62 0 98 37.5t36 101.5q0 29 -8 54t-25 43.5t-44.5 29t-65.5 10.5h-27v71q68 3 105 41t37 101q0 22 -6 41t-18 33.5t-30.5 23t-42.5 8.5q-51 0 -79 -37t-28 -109v-424z" />
    <glyph glyph-name="gamma" unicode="&#x3b3;" horiz-adv-x="481" 
d="M266 -247h-90v149q0 31 -1.5 57.5t-6.5 57t-15.5 70t-28.5 95t-45.5 132.5t-66.5 183h99q29 -81 49 -140.5t34 -101.5t22 -69.5t12.5 -45t6 -27.5t1.5 -17h2q64 107 90.5 203t4.5 198h96q9 -64 2 -124.5t-28 -121t-56 -123t-81 -131.5v-244z" />
    <glyph glyph-name="delta" unicode="&#x3b4;" horiz-adv-x="528" 
d="M393 233q0 35 -7 63t-21 51.5t-36 45t-53 43.5q-28 -1 -53.5 -12.5t-46 -34.5t-32 -58t-11.5 -81q0 -87 34.5 -135t97.5 -48q25 0 47.5 10.5t41 31t29 52t10.5 72.5zM279 738q35 0 68 -6.5t62 -17.5v-80q-33 16 -67.5 25t-67.5 9q-32 0 -46.5 -11.5t-14.5 -28.5
q0 -12 3.5 -21t15 -21t35 -30.5t64.5 -48.5q44 -31 74 -61.5t48 -62t26 -66.5t8 -77q0 -50 -16 -95t-46 -80t-73.5 -54.5t-97.5 -19.5q-49 0 -88.5 15t-68 46t-43.5 78t-15 111q0 98 44.5 165.5t122.5 86.5q-47 34 -67.5 63t-20.5 65q0 21 8 41t26.5 37.5t50 28t76.5 10.5z
" />
    <glyph glyph-name="epsilon" unicode="&#x3b5;" horiz-adv-x="443" 
d="M402 16q-77 -25 -157 -25q-54 0 -93.5 10.5t-63.5 29t-35.5 43t-11.5 53.5q0 46 25.5 79.5t68.5 47.5v1q-35 14 -54.5 40t-19.5 62q0 31 12 58t37 47.5t64 32t90 11.5q31 0 62.5 -3.5t59.5 -10.5v-75q-32 10 -65 16t-63 6q-57 0 -83 -21.5t-26 -56.5q0 -32 27 -52t74 -20
h98v-64h-108q-26 0 -45.5 -7t-33 -19t-20 -27t-6.5 -31q0 -37 32 -59.5t94 -22.5q31 0 68 7t73 20v-70z" />
    <glyph glyph-name="zeta" unicode="&#x3b6;" horiz-adv-x="408" 
d="M404 -31q0 -55 -27.5 -101.5t-63.5 -86.5l-61 39q28 38 44 70t16 61q0 12 -3.5 21t-13.5 15.5t-28 10.5t-46 7q-50 5 -85 18.5t-56.5 36.5t-31 56t-9.5 78q0 65 22 136t56 135.5t75.5 116t80.5 76.5h-222v72h329v-65q-54 -35 -99.5 -91.5t-78.5 -120.5t-51.5 -127
t-18.5 -111q0 -33 5 -55.5t19 -37.5t39 -24t64 -13q80 -11 112.5 -39t32.5 -77z" />
    <glyph glyph-name="eta" unicode="&#x3b7;" horiz-adv-x="585" 
d="M147 497q7 -26 12 -54t7 -53h1q19 50 62 83t111 33q43 0 74 -13t50 -36.5t28 -56t9 -71.5v-372q0 -51 2.5 -102t13.5 -102h-88q-11 49 -14.5 95.5t-3.5 95.5v359q0 66 -21.5 97.5t-72.5 31.5q-28 0 -52 -13.5t-42 -37t-28 -55.5t-10 -70v-256h-90v243q0 69 -10 131.5
t-27 122.5h89z" />
    <glyph glyph-name="theta" unicode="&#x3b8;" horiz-adv-x="563" 
d="M148 336q2 -132 37 -201.5t98 -69.5q33 0 57.5 19.5t40 56t23.5 85.5t10 110h-266zM414 406q-2 125 -37 192t-97 67q-32 0 -56 -18.5t-40.5 -53t-25 -82t-10.5 -105.5h266zM507 379q0 -190 -60.5 -289t-170.5 -99q-51 0 -91 21.5t-69 65.5t-44.5 112t-15.5 159
q0 191 60 290t171 99q104 0 162 -91.5t58 -267.5z" />
    <glyph glyph-name="iota" unicode="&#x3b9;" horiz-adv-x="293" 
d="M282 1q-20 -4 -41.5 -6.5t-42.5 -2.5q-56 0 -84.5 29.5t-28.5 106.5v369h90v-353q0 -45 11.5 -61t39.5 -16q26 0 56 6v-72z" />
    <glyph glyph-name="kappa" unicode="&#x3ba;" horiz-adv-x="493" 
d="M355 0l-180 250v-250h-90v497h90v-225l180 225h105l-193 -229l202 -268h-114z" />
    <glyph glyph-name="lambda" unicode="&#x3bb;" horiz-adv-x="479" 
d="M170 580q-9 25 -18.5 41.5t-19.5 25.5t-21 12.5t-24 3.5q-8 0 -17 -0.5t-17 -1.5v71q15 2 29.5 3t24.5 1q26 0 47 -5.5t38.5 -19t32.5 -37.5t28 -60l214 -614h-100l-128 384h-1q-7 -25 -20.5 -66t-27.5 -81l-87 -237h-99l196 494z" />
    <glyph glyph-name="mu" unicode="&#x3bc;" horiz-adv-x="586" 
d="M550 -4q-19 -4 -38 -4q-55 0 -78 28.5t-21 82.5l-1 1q-20 -52 -62.5 -82t-100.5 -30q-27 0 -48.5 9t-34.5 26l11 -274h-92v744h90v-328q0 -53 20.5 -78.5t63.5 -25.5q31 0 57 14t45 40.5t29.5 62.5t10.5 78v237h90v-325q0 -34 2.5 -54t9 -31t17.5 -15.5t30 -4.5v-71z" />
    <glyph glyph-name="nu" unicode="&#x3bd;" horiz-adv-x="485" 
d="M466 497q-22 -128 -69.5 -250t-124.5 -247h-85l-176 497h101l99 -295q8 -24 15 -49t14 -51h1q50 97 81.5 196t45.5 199h98v0z" />
    <glyph glyph-name="xi" unicode="&#x3be;" horiz-adv-x="409" 
d="M408 -31q0 -55 -27.5 -101.5t-63.5 -86.5l-60 39q27 38 43 70t16 61q0 13 -3.5 22t-14 15.5t-29 10.5t-48.5 7q-98 9 -142.5 52.5t-44.5 124.5q0 38 11 69.5t30 55t43.5 39t51.5 23.5q-47 10 -73 45t-26 83q0 26 7 51.5t21 47t34 38t46 25.5q-13 -1 -27 -1.5t-29 -0.5
h-77v72h325v-72h-28q-51 0 -86 -13t-56.5 -33.5t-31 -46.5t-9.5 -51q0 -42 27 -71t85 -29h79v-72h-49q-49 0 -82.5 -12t-54.5 -31t-30 -44t-9 -50q0 -56 29 -83.5t100 -34.5q85 -11 119 -39t34 -79z" />
    <glyph glyph-name="omicron" unicode="&#x3bf;" horiz-adv-x="545" 
d="M412 249q0 87 -36.5 134.5t-101.5 47.5q-32 0 -58 -11.5t-44.5 -34.5t-28.5 -57.5t-10 -79.5q0 -87 36.5 -134t102.5 -47q30 0 55.5 11t44.5 33.5t29.5 57t10.5 80.5zM505 256q0 -56 -15.5 -104.5t-46.5 -84.5t-76.5 -56t-102.5 -20q-51 0 -92.5 15.5t-71 46.5t-45 78
t-15.5 110q0 56 15.5 104.5t46.5 84.5t76.5 56t103.5 20q51 0 92 -15.5t70.5 -46.5t45 -78t15.5 -110z" />
    <glyph glyph-name="pi" unicode="&#x3c0;" horiz-adv-x="633" 
d="M476 423q1 -94 5 -162t14 -110q7 -48 20.5 -65.5t38.5 -17.5t42 4v-73q-13 -3 -29 -5t-31 -2q-60 0 -89 30.5t-43 106.5q-8 48 -12.5 120t-5.5 174h-165q2 -113 -13 -221t-48 -208l-99 12q38 110 56 212t17 205h-121v74h586v-74h-123z" />
    <glyph glyph-name="rho" unicode="&#x3c1;" horiz-adv-x="541" 
d="M405 251q0 86 -30.5 133.5t-94.5 47.5q-59 0 -90.5 -43.5t-31.5 -118.5v-183q19 -8 43 -15.5t60 -7.5q31 0 57.5 11t45.5 34.5t30 58.5t11 83zM499 258q0 -55 -15.5 -103.5t-46 -85t-77 -57t-108.5 -20.5q-59 0 -95 14q1 -18 1 -40v-40v-173h-90v511q0 52 13.5 96.5
t41.5 76.5t69 50.5t97 18.5q46 0 84.5 -14t66.5 -44t43.5 -77t15.5 -113z" />
    <glyph glyph-name="sigma1" unicode="&#x3c2;" horiz-adv-x="443" 
d="M408 -31q0 -27 -7.5 -52.5t-20 -49t-28.5 -45t-34 -41.5l-61 39q31 41 45 72.5t14 58.5q0 14 -4 22.5t-13.5 14.5t-27 10t-46.5 7q-48 5 -83.5 23.5t-58 48.5t-32.5 70t-10 87q0 125 61.5 198t178.5 73q28 0 54.5 -5t52.5 -12v-83q-28 12 -54.5 18t-55.5 6
q-69 0 -105.5 -49.5t-36.5 -135.5q0 -74 29 -112t99 -47q80 -11 112 -39t32 -77z" />
    <glyph glyph-name="sigma" unicode="&#x3c3;" horiz-adv-x="575" 
d="M411 249q0 58 -15.5 102.5t-47.5 78.5q-16 1 -28.5 1.5t-25.5 0.5q-76 0 -118.5 -45.5t-42.5 -138.5q0 -87 36.5 -134t102.5 -47q30 0 55 11t44 33.5t29.5 57t10.5 80.5zM546 423q-31 0 -58 1t-44 3q26 -28 42 -74t16 -104q0 -56 -16 -103t-47 -82t-75.5 -54t-99.5 -19
q-105 0 -164.5 63t-59.5 187q0 56 16.5 104.5t49.5 84.5t82.5 56t113.5 20q29 0 111 -4.5t133 -4.5v-74z" />
    <glyph glyph-name="tau" unicode="&#x3c4;" horiz-adv-x="362" 
d="M205 423v-253q0 -31 2.5 -50.5t8.5 -30.5t16 -15.5t26 -4.5q8 0 18.5 1t20.5 3v-74q-12 -3 -29.5 -5t-33.5 -2q-35 0 -57.5 8.5t-36 26t-19.5 45.5t-6 69v282h-108v74h328v-74h-130z" />
    <glyph glyph-name="upsilon" unicode="&#x3c5;" horiz-adv-x="574" 
d="M498 290q0 -78 -16.5 -134t-46 -93t-70 -54.5t-88.5 -17.5q-55 0 -92.5 15t-60.5 44.5t-33 71.5t-10 96v279h90v-262q0 -88 24 -129.5t89 -41.5q28 0 51 11.5t39 37t25 66t9 98.5q0 57 -5 113t-13 107h93q8 -48 11.5 -100.5t3.5 -106.5z" />
    <glyph glyph-name="phi" unicode="&#x3c6;" horiz-adv-x="685" 
d="M555 246q0 80 -43.5 129t-124.5 56v-364q36 3 66 15.5t53 35t36 55.5t13 73zM298 431q-36 -3 -66.5 -16t-53 -35.5t-35.5 -55t-13 -73.5q0 -79 43 -127.5t125 -56.5v364zM647 253q0 -50 -17 -94.5t-50 -80t-82.5 -58t-109.5 -27.5v-240h-90v239q-125 5 -192.5 69.5
t-67.5 183.5q0 50 17.5 95t50.5 80t82 57.5t110 27.5v170h90v-169q123 -5 191 -69.5t68 -183.5z" />
    <glyph glyph-name="chi" unicode="&#x3c7;" horiz-adv-x="476" 
d="M475 -249q-8 -1 -19 -2t-20 -1q-27 0 -47 6t-37.5 23t-34.5 49t-36 84l-54 146l-137 -310l-91 25l188 375l-72 177q-14 35 -24 56t-20 32.5t-20 15t-22 3.5q-9 0 -20 -1v71q7 1 18.5 2t21.5 1q26 0 46.5 -5.5t37.5 -21t32.5 -43.5t32.5 -72l48 -132l121 268h100
l-180 -360l77 -189q16 -42 28.5 -68t22.5 -38.5t19 -16.5t21 -4q9 0 20 1v-70v-1z" />
    <glyph glyph-name="psi" unicode="&#x3c8;" horiz-adv-x="774" 
d="M698 287q0 -144 -67 -213.5t-200 -80.5v-240h-90v239q-84 3 -135 25t-78.5 56.5t-37 79.5t-9.5 95v249h89v-229q0 -44 7 -80t25.5 -62.5t52 -42t87.5 -18.5v610h89v-610q92 6 134.5 55.5t42.5 156.5q0 57 -4 113t-11 107h92q7 -50 10 -102.5t3 -107.5z" />
    <glyph glyph-name="omega" unicode="&#x3c9;" horiz-adv-x="775" 
d="M730 257q0 -61 -16.5 -111t-45.5 -84.5t-66.5 -52.5t-79.5 -18q-54 0 -91 28t-46 73q-15 -47 -53 -74t-93 -27q-41 0 -76.5 16.5t-62 48t-41 77t-14.5 102.5q0 86 28.5 155.5t82.5 127.5q39 -17 77 -35q-46 -48 -70.5 -106t-24.5 -125q0 -81 32.5 -129t85.5 -48
q37 0 62.5 32t25.5 93v173h87v-171q0 -63 25.5 -95t66.5 -32q22 0 42.5 11t36.5 32.5t25.5 54.5t9.5 75q0 72 -22.5 126.5t-70.5 105.5l80 38q24 -25 42.5 -51.5t33 -58t22.5 -69.5t8 -82z" />
    <glyph glyph-name="iotadieresis" unicode="&#x3ca;" horiz-adv-x="293" 
d="M282 1q-20 -4 -41.5 -6.5t-42.5 -2.5q-56 0 -84.5 29.5t-28.5 106.5v369h90v-353q0 -45 11.5 -61t39.5 -16q26 0 56 6v-72zM99 654q0 -22 -15.5 -38t-38.5 -16q-22 0 -38 16t-16 38q0 23 16 38.5t38 15.5q23 0 38.5 -15.5t15.5 -38.5zM274 654q0 -22 -15.5 -38t-38.5 -16
q-22 0 -38 16t-16 38q0 23 16 38.5t38 15.5q23 0 38.5 -15.5t15.5 -38.5z" />
    <glyph glyph-name="upsilondieresis" unicode="&#x3cb;" horiz-adv-x="574" 
d="M498 290q0 -78 -16.5 -134t-46 -93t-70 -54.5t-88.5 -17.5q-55 0 -92.5 15t-60.5 44.5t-33 71.5t-10 96v279h90v-262q0 -88 24 -129.5t89 -41.5q28 0 51 11.5t39 37t25 66t9 98.5q0 57 -5 113t-13 107h93q8 -48 11.5 -100.5t3.5 -106.5zM235 654q0 -23 -16 -38.5
t-38 -15.5q-23 0 -38.5 16t-15.5 38q0 23 16 38.5t38 15.5q23 0 38.5 -16t15.5 -38zM427 654q0 -23 -16 -38.5t-38 -15.5q-23 0 -38.5 16t-15.5 38q0 23 16 38.5t38 15.5q23 0 38.5 -16t15.5 -38z" />
    <glyph glyph-name="omicrontonos" unicode="&#x3cc;" horiz-adv-x="545" 
d="M304 560l-65 8l22 174l83 -8zM412 249q0 87 -36.5 134.5t-101.5 47.5q-32 0 -58 -11.5t-44.5 -34.5t-28.5 -57.5t-10 -79.5q0 -87 36.5 -134t102.5 -47q30 0 55.5 11t44.5 33.5t29.5 57t10.5 80.5zM505 256q0 -56 -15.5 -104.5t-46.5 -84.5t-76.5 -56t-102.5 -20
q-51 0 -92.5 15.5t-71 46.5t-45 78t-15.5 110q0 56 15.5 104.5t46.5 84.5t76.5 56t103.5 20q51 0 92 -15.5t70.5 -46.5t45 -78t15.5 -110z" />
    <glyph glyph-name="upsilontonos" unicode="&#x3cd;" horiz-adv-x="574" 
d="M498 290q0 -78 -16.5 -134t-46 -93t-70 -54.5t-88.5 -17.5q-55 0 -92.5 15t-60.5 44.5t-33 71.5t-10 96v279h90v-262q0 -88 24 -129.5t89 -41.5q28 0 51 11.5t39 37t25 66t9 98.5q0 57 -5 113t-13 107h93q8 -48 11.5 -100.5t3.5 -106.5zM315 560l-65 8l22 174l83 -8z" />
    <glyph glyph-name="omegatonos" unicode="&#x3ce;" horiz-adv-x="775" 
d="M730 257q0 -61 -16.5 -111t-45.5 -84.5t-66.5 -52.5t-79.5 -18q-54 0 -91 28t-46 73q-15 -47 -53 -74t-93 -27q-41 0 -76.5 16.5t-62 48t-41 77t-14.5 102.5q0 86 28.5 155.5t82.5 127.5q39 -17 77 -35q-46 -48 -70.5 -106t-24.5 -125q0 -81 32.5 -129t85.5 -48
q37 0 62.5 32t25.5 93v173h87v-171q0 -63 25.5 -95t66.5 -32q22 0 42.5 11t36.5 32.5t25.5 54.5t9.5 75q0 72 -22.5 126.5t-70.5 105.5l80 38q24 -25 42.5 -51.5t33 -58t22.5 -69.5t8 -82zM415 560l-65 8l22 174l83 -8z" />
    <glyph glyph-name="beta.alt" unicode="&#x3d0;" horiz-adv-x="556" 
d="M482 589q0 -52 -27 -89t-83 -64q43 -7 70.5 -25.5t43.5 -45t22 -60t6 -69.5q0 -47 -14.5 -91.5t-43.5 -78.5t-73 -54.5t-104 -20.5q-62 0 -102.5 20t-65.5 63t-35.5 109.5t-10.5 158.5q0 104 16 178.5t47 122.5t76.5 70.5t105.5 22.5q81 0 126.5 -38.5t45.5 -108.5z
M298 664q-32 0 -58 -14t-44.5 -44t-28.5 -77t-10 -113q66 18 111 36t72 38t38.5 41.5t11.5 48.5q0 17 -4.5 32t-15.5 26.5t-28.5 18.5t-43.5 7zM305 375q-13 0 -26 -1.5t-29.5 -5t-39 -10t-54.5 -16.5q0 -76 7 -128.5t23 -85.5t40.5 -48t61.5 -15q34 0 59 13t41 35.5
t24.5 52t8.5 62.5q0 74 -26 110.5t-90 36.5z" />
    <glyph glyph-name="theta1" unicode="&#x3d1;" horiz-adv-x="607" 
d="M598 415q-18 3 -38 3.5t-52 0.5q0 -2 1 -17.5t1 -32.5q0 -87 -13.5 -157t-42 -119t-72 -75.5t-101.5 -26.5q-52 0 -92 21.5t-67 62t-40.5 97.5t-13.5 128q0 27 1.5 56.5t4.5 54.5h89q-2 -20 -3 -44.5t-1 -49.5q0 -56 8 -102t24 -79t41 -51t57 -18q35 0 60.5 21t41.5 59.5
t23.5 91.5t7.5 119q0 21 -1 33t-2 28h-68q-103 0 -161.5 44t-58.5 122q0 32 11.5 60t33.5 49t53.5 33t69.5 12q84 0 135.5 -61t68.5 -181h18q22 0 42 -1.5t35 -4.5v-76zM413 497q-15 80 -45 124t-76 44q-34 0 -53 -19.5t-19 -51.5q0 -46 33.5 -71.5t105.5 -25.5h54z" />
    <glyph glyph-name="phi1" unicode="&#x3d5;" horiz-adv-x="677" 
d="M383 67q36 4 65 16.5t50.5 35t33.5 56.5t12 80q0 42 -10 75t-27 56t-37 34.5t-40 11.5q-13 0 -21.5 -4t-14 -15t-8.5 -31.5t-3 -53.5v-261zM293 -226v218q-125 10 -189 73.5t-64 182.5q0 86 36.5 151.5t110.5 106.5l50 -57q-52 -30 -78.5 -78t-26.5 -114q0 -43 11 -76.5
t32 -57t50.5 -37.5t67.5 -19v252q0 50 9 85.5t26.5 58t43 33t60.5 10.5q48 0 86.5 -18.5t65 -51.5t40 -78t13.5 -97q0 -57 -17.5 -103.5t-50.5 -81t-80 -55.5t-106 -28v-219h-90z" />
    <glyph glyph-name="uni0400" unicode="&#x400;" horiz-adv-x="536" 
d="M85 0v675h382v-76h-290v-214h266v-74h-266v-234h294v-77h-386zM309 725l-190 56l26 70l181 -74z" />
    <glyph glyph-name="uni0401" unicode="&#x401;" horiz-adv-x="536" 
d="M85 0v675h382v-76h-290v-214h266v-74h-266v-234h294v-77h-386zM435 782q0 -22 -15.5 -38t-38.5 -16q-22 0 -37.5 15.5t-15.5 38.5t15.5 38.5t37.5 15.5q23 0 38.5 -16t15.5 -38zM222 782q0 -22 -15.5 -38t-38.5 -16t-38.5 16t-15.5 38q0 23 16 38.5t38 15.5
q23 0 38.5 -16t15.5 -38z" />
    <glyph glyph-name="uni0402" unicode="&#x402;" horiz-adv-x="698" 
d="M653 218q0 -62 -21.5 -109t-61 -77.5t-94 -47t-120.5 -19.5v74q47 2 84 12.5t63.5 30.5t40.5 51.5t14 75.5q0 31 -7.5 58t-25.5 49.5t-49.5 35.5t-77.5 13q-30 0 -61 -6t-61 -17v-342h-91v599h-167v76h453v-76h-195v-182q28 9 65.5 14.5t74.5 5.5q58 0 102.5 -15.5
t74.5 -44.5t45 -69.5t15 -89.5z" />
    <glyph glyph-name="uni0403" unicode="&#x403;" horiz-adv-x="426" 
d="M177 598v-598h-92v675h334v-77h-242zM197 725l-17 52l182 74l25 -70z" />
    <glyph glyph-name="uni0404" unicode="&#x404;" horiz-adv-x="603" 
d="M535 26q-39 -16 -85 -24.5t-92 -8.5q-79 0 -138.5 23t-98 67t-57 104.5t-18.5 136.5q0 78 20 143t61.5 113.5t105 74.5t146.5 26q35 0 73 -5t75 -14v-88q-40 14 -79.5 21t-80.5 7q-50 0 -89 -16t-66 -45.5t-42.5 -69t-20.5 -87.5h308v-75h-309q5 -115 62 -175t165 -60
q39 0 80.5 9.5t79.5 26.5v-84z" />
    <glyph glyph-name="uni0405" unicode="&#x405;" horiz-adv-x="504" 
d="M456 188q0 -43 -16 -79t-47.5 -63t-77 -41t-102.5 -14q-41 0 -81 5t-71 13v90q34 -14 76.5 -21.5t80.5 -7.5q32 0 58 6.5t45 20t29 35t10 49.5q0 34 -18 56.5t-42.5 36.5t-84.5 39.5t-92 47.5t-52 56t-20 83q0 41 16 74.5t47 58.5t75 38t99 13q31 0 60.5 -3t55.5 -8v-83
q-29 8 -62 13t-60 5q-66 0 -101.5 -26.5t-35.5 -74.5q0 -31 16.5 -51.5t40 -34t87.5 -41t97 -51.5t51.5 -58.5t18.5 -82.5z" />
    <glyph glyph-name="uni0406" unicode="&#x406;" horiz-adv-x="262" 
d="M85 0v675h92v-675h-92z" />
    <glyph glyph-name="uni0407" unicode="&#x407;" horiz-adv-x="262" 
d="M85 0v675h92v-675h-92zM283 782q0 -22 -15.5 -38t-38.5 -16t-38.5 16t-15.5 38q0 23 16 38.5t38 15.5q23 0 38.5 -16t15.5 -38zM87 782q0 -22 -15.5 -38t-38.5 -16t-38.5 16t-15.5 38q0 23 16 38.5t38 15.5q23 0 38.5 -16t15.5 -38z" />
    <glyph glyph-name="uni0408" unicode="&#x408;" horiz-adv-x="262" 
d="M-3 -134q26 15 43 29.5t27 32.5t14 41.5t4 55.5v650h92v-645q0 -41 -6 -72.5t-22 -58t-42.5 -48.5t-67.5 -43z" />
    <glyph glyph-name="uni0409" unicode="&#x409;" horiz-adv-x="911" 
d="M450 598h-239q0 -133 -6 -229.5t-16.5 -162t-27 -107t-39 -63.5t-50 -31.5t-66.5 -11.5v86q22 3 37 11t27.5 28.5t22 60t15.5 104.5t9 161t3 231h421v-266q10 1 33 1.5t52 0.5q63 0 110 -14t78 -40t46.5 -62t15.5 -81q0 -51 -19 -91.5t-54 -68.5t-83.5 -42.5
t-108.5 -14.5q-33 0 -68.5 0.5t-64 1.5l-28.5 1v598zM541 74q9 0 30 -1t46 -1q82 0 122 35t40 100q0 30 -9 53.5t-28.5 40.5t-50 26t-73.5 9q-26 0 -47 -0.5t-30 -0.5v-261z" />
    <glyph glyph-name="uni040A" unicode="&#x40a;" horiz-adv-x="958" 
d="M827 207q0 30 -9 53.5t-28.5 40.5t-50.5 26t-73 9q-26 0 -47 -0.5t-30 -0.5v-261q9 0 29.5 -1t45.5 -1q82 0 122.5 35t40.5 100zM497 311h-320v-311h-92v675h92v-286h320v286h92v-266q50 2 85 2q63 0 110 -14t78 -40t46 -62t15 -81q0 -51 -19 -91.5t-54 -68.5
t-83.5 -42.5t-108.5 -14.5q-25 0 -53 0.5t-51.5 1t-37.5 1t-19 0.5v311z" />
    <glyph glyph-name="uni040B" unicode="&#x40b;" horiz-adv-x="720" 
d="M549 0v205q0 37 -6 65t-22 49t-45 33t-74 12q-35 0 -68 -6.5t-58 -17.5v-340h-91v599h-167v76h453v-76h-195v-184q29 10 65.5 16t75.5 6q67 0 111.5 -17.5t69 -47.5t34 -69t9.5 -86v-217h-92z" />
    <glyph glyph-name="uni040C" unicode="&#x40c;" horiz-adv-x="586" 
d="M458 0l-281 334v-334h-92v675h92v-318l271 318h111l-283 -323l300 -352h-118zM268 725l-17 52l182 74l25 -70z" />
    <glyph glyph-name="uni040D" unicode="&#x40d;" horiz-adv-x="689" 
d="M512 0v428q0 29 2 60t5 62h-1q-15 -28 -25.5 -46.5t-21.5 -36.5l-292 -467h-94v675h92v-438q0 -23 -1.5 -49.5t-3.5 -56.5h1q9 19 19.5 38.5t22.5 39.5l292 466h97v-675h-92zM366 725l-190 56l26 70l181 -74z" />
    <glyph glyph-name="uni040E" unicode="&#x40e;" horiz-adv-x="556" 
d="M338 158q-19 -47 -40 -79t-44 -51.5t-49.5 -28t-57.5 -8.5q-14 0 -32 2.5t-33 6.5v83q34 -13 68 -13q17 0 30 3.5t25 13t23.5 27t23.5 45.5l-230 516h102l127 -298q14 -33 24.5 -61.5t18.5 -53.5l2 -3q8 21 24.5 66.5t24.5 65.5l105 284h96zM446 849q0 -57 -41.5 -92.5
t-121.5 -35.5q-78 0 -119 34t-41 94h82q0 -36 20 -54.5t61 -18.5q38 0 57.5 19t19.5 54h83z" />
    <glyph glyph-name="uni040F" unicode="&#x40f;" horiz-adv-x="659" 
d="M370 0v-153h-81v153h-204v675h92v-598h305v598h92v-675h-204z" />
    <glyph glyph-name="uni0410" unicode="&#x410;" horiz-adv-x="615" 
d="M333 493q-7 21 -14.5 46t-14.5 49h-1q-5 -20 -11.5 -41t-16.5 -53l-92 -260h242zM502 0l-55 161h-287l-56 -161h-94l242 675h112l241 -675h-103z" />
    <glyph glyph-name="uni0411" unicode="&#x411;" horiz-adv-x="566" 
d="M420 201q0 57 -39 90t-121 33h-83v-247q16 -2 40 -3.5t50 -1.5q72 0 112.5 35t40.5 94zM517 207q0 -43 -16 -81t-48.5 -67.5t-82 -46t-114.5 -16.5q-37 0 -85 1.5t-86 3.5v674h384v-76h-292v-203h97q118 0 180.5 -49.5t62.5 -139.5z" />
    <glyph glyph-name="uni0412" unicode="&#x412;" horiz-adv-x="571" 
d="M424 194q0 29 -10 51t-31.5 37t-56 23t-81.5 8h-24.5t-24 -0.5t-19.5 -0.5v-236q30 -5 87 -5q80 0 120 34t40 89zM402 498q0 24 -7 43t-23.5 34t-44 23t-67.5 8q-15 0 -36.5 -1t-46.5 -2v-220q9 0 18.5 -0.5t20 -0.5h30.5q77 0 116.5 30t39.5 86zM521 200
q0 -36 -14 -71.5t-45 -65.5t-82.5 -48t-122.5 -18q-27 0 -89 1.5t-83 1.5v675q24 1 76 2.5t108 1.5q115 0 172 -44t57 -123q0 -53 -29.5 -94.5t-82.5 -60.5v-1q31 -6 56 -19t42.5 -33t27 -46.5t9.5 -57.5z" />
    <glyph glyph-name="uni0413" unicode="&#x413;" horiz-adv-x="426" 
d="M177 598v-598h-92v675h334v-77h-242z" />
    <glyph glyph-name="uni0414" unicode="&#x414;" horiz-adv-x="674" 
d="M649 -153h-82v153h-480v-153h-82v230h57q13 17 23.5 37t18.5 49.5t14 72t9.5 103t5.5 143t2 193.5h434v-598h80v-230zM477 599h-252q0 -131 -4.5 -220t-13 -148t-21.5 -94.5t-30 -59.5h321v522z" />
    <glyph glyph-name="uni0415" unicode="&#x415;" horiz-adv-x="536" 
d="M85 0v675h382v-76h-290v-214h266v-74h-266v-234h294v-77h-386z" />
    <glyph glyph-name="uni0416" unicode="&#x416;" horiz-adv-x="820" 
d="M364 675h91v-318l242 318h107l-256 -325l269 -350h-120l-242 334v-334h-91v334l-244 -334h-116l268 345l-259 330h110l241 -318v318z" />
    <glyph glyph-name="uni0417" unicode="&#x417;" horiz-adv-x="522" 
d="M472 199q0 -42 -16 -79t-49 -66t-84.5 -45.5t-118.5 -16.5q-82 0 -156 18v83q39 -12 80.5 -18.5t84.5 -6.5q45 0 76.5 9.5t50 26.5t27 39t8.5 49q0 34 -14 57.5t-40 37.5t-62.5 20.5t-83.5 6.5h-46v71h48q83 0 130.5 30t47.5 87q0 22 -6.5 41t-22 34t-43 23.5t-67.5 8.5
q-35 0 -71.5 -6.5t-72.5 -18.5v76q42 11 80.5 17t79.5 6q55 0 96.5 -12t68.5 -34.5t40 -53t13 -66.5q0 -56 -31.5 -97t-88.5 -59v-1q35 -7 61.5 -21.5t44.5 -35.5t27 -47.5t9 -56.5z" />
    <glyph glyph-name="uni0418" unicode="&#x418;" horiz-adv-x="689" 
d="M512 0v428q0 29 2 60t5 62h-1q-15 -28 -25.5 -46.5t-21.5 -36.5l-292 -467h-94v675h92v-438q0 -23 -1.5 -49.5t-3.5 -56.5h1q9 19 19.5 38.5t22.5 39.5l292 466h97v-675h-92z" />
    <glyph glyph-name="uni0419" unicode="&#x419;" horiz-adv-x="689" 
d="M512 0v428q0 29 2 60t5 62h-1q-15 -28 -25.5 -46.5t-21.5 -36.5l-292 -467h-94v675h92v-438q0 -23 -1.5 -49.5t-3.5 -56.5h1q9 19 19.5 38.5t22.5 39.5l292 466h97v-675h-92zM513 849q0 -57 -41.5 -92.5t-121.5 -35.5q-78 0 -119 34t-41 94h82q0 -36 20 -54.5t61 -18.5
q38 0 57.5 19t19.5 54h83z" />
    <glyph glyph-name="uni041A" unicode="&#x41a;" horiz-adv-x="586" 
d="M458 0l-281 334v-334h-92v675h92v-318l271 318h111l-283 -323l300 -352h-118z" />
    <glyph glyph-name="uni041B" unicode="&#x41b;" horiz-adv-x="628" 
d="M451 0v598h-240q0 -132 -5.5 -227.5t-16.5 -160.5t-27 -107t-38 -65t-50.5 -32.5t-67.5 -12.5v86q24 3 39.5 12t27.5 30.5t20.5 60.5t14.5 103t9 159.5t3 230.5h423v-675h-92z" />
    <glyph glyph-name="uni041C" unicode="&#x41c;" horiz-adv-x="894" 
d="M752 0l-53 394q-8 63 -13 112t-6 84h-2q-7 -29 -17 -64.5t-24 -79.5l-156 -446h-84l-148 423q-15 44 -28.5 89t-21.5 78h-1q-1 -41 -5.5 -91t-10.5 -109l-44 -390h-91l87 675h126l150 -426q11 -33 19.5 -63t13.5 -58h1q7 32 15 63t17 58l150 426h130l91 -675h-95z" />
    <glyph glyph-name="uni041D" unicode="&#x41d;" horiz-adv-x="684" 
d="M507 0v311h-330v-311h-92v675h92v-286h330v286h92v-675h-92z" />
    <glyph glyph-name="uni041E" unicode="&#x41e;" horiz-adv-x="709" 
d="M570 333q0 126 -56 198.5t-159 72.5q-46 0 -85 -17t-68.5 -50.5t-45.5 -83t-16 -111.5q0 -61 13.5 -111t40.5 -86t67.5 -55t93.5 -19q46 0 85 17t68.5 50.5t45.5 83t16 111.5zM667 347q0 -84 -25 -151t-69.5 -113t-102.5 -69.5t-124 -23.5q-73 0 -129.5 23.5t-95 67.5
t-58.5 106.5t-20 140.5q0 84 25 151t69.5 113t102.5 69.5t124 23.5q73 0 129.5 -23.5t95 -67.5t58.5 -106.5t20 -140.5z" />
    <glyph glyph-name="uni041F" unicode="&#x41f;" horiz-adv-x="661" 
d="M484 0v598h-307v-598h-92v675h490v-675h-91z" />
    <glyph glyph-name="uni0420" unicode="&#x420;" 
d="M518 469q0 -51 -18.5 -94.5t-54 -76t-85.5 -50t-112 -17.5q-22 0 -42 1t-29 2v-234h-92v675q24 1 75 2.5t102 1.5q126 0 191 -59t65 -151zM423 456q0 68 -43 108t-129 40q-22 0 -43 -0.5t-31 -1.5v-290q10 -1 32 -3.5t46 -2.5q81 0 124.5 41.5t43.5 108.5z" />
    <glyph glyph-name="uni0421" unicode="&#x421;" horiz-adv-x="583" 
d="M531 19q-45 -13 -91 -20t-92 -7q-76 0 -134 23.5t-95.5 68t-55 105t-17.5 133.5q0 77 20 143.5t60.5 114.5t102.5 74.5t142 26.5q41 0 81.5 -6.5t70.5 -16.5v-91q-48 19 -85.5 27t-78.5 8q-53 0 -94 -20t-67.5 -56.5t-39.5 -84.5t-13 -109q0 -123 55 -190.5t165 -67.5
q41 0 81 7.5t85 19.5v-82z" />
    <glyph glyph-name="uni0422" unicode="&#x422;" horiz-adv-x="516" 
d="M304 598v-598h-92v598h-194v77h481v-77h-195z" />
    <glyph glyph-name="uni0423" unicode="&#x423;" horiz-adv-x="556" 
d="M338 158q-19 -47 -40 -79t-44 -51.5t-49.5 -28t-57.5 -8.5q-14 0 -32 2.5t-33 6.5v83q34 -13 68 -13q17 0 30 3.5t25 13t23.5 27t23.5 45.5l-230 516h102l127 -298q14 -33 24.5 -61.5t18.5 -53.5l2 -3q8 21 24.5 66.5t24.5 65.5l105 284h96z" />
    <glyph glyph-name="uni0424" unicode="&#x424;" horiz-adv-x="827" 
d="M369 577q-55 -3 -99 -21t-74 -49t-45.5 -73t-15.5 -93q0 -52 13 -94t41 -73.5t73 -51t107 -23.5v478zM692 336q0 52 -13 94t-41.5 73t-73 50t-106.5 24v-478q55 3 98.5 21t73.5 49t46 73.5t16 93.5zM788 344q0 -69 -23.5 -126.5t-67 -99.5t-104.5 -66.5t-135 -29.5v-75
h-89v74q-85 3 -147.5 26t-103 63.5t-60 96.5t-19.5 125t23.5 126t67 99t104.5 66.5t135 29.5v71h89v-70q163 -7 246.5 -87t83.5 -223z" />
    <glyph glyph-name="uni0425" unicode="&#x425;" horiz-adv-x="599" 
d="M467 0l-172 279l-171 -279h-107l222 348l-208 327h106l160 -258l157 258h104l-205 -324l229 -351h-115z" />
    <glyph glyph-name="uni0426" unicode="&#x426;" horiz-adv-x="690" 
d="M665 -153h-82v153h-498v675h92v-598h306v598h92v-598h90v-230z" />
    <glyph glyph-name="uni0427" unicode="&#x427;" horiz-adv-x="620" 
d="M443 283q-37 -13 -77 -20t-82 -7q-69 0 -114.5 17t-71 46.5t-36 67.5t-10.5 86v202h92v-186q0 -38 7 -66.5t24 -48.5t47 -31t75 -11q39 0 75 6.5t71 19.5v317h92v-675h-92v283z" />
    <glyph glyph-name="uni0428" unicode="&#x428;" horiz-adv-x="960" 
d="M85 0v675h91v-598h259v598h90v-598h259v598h91v-675h-790z" />
    <glyph glyph-name="uni0429" unicode="&#x429;" horiz-adv-x="990" 
d="M965 -153h-82v153h-798v675h91v-598h259v598h90v-598h259v598h91v-598h90v-230z" />
    <glyph glyph-name="uni042A" unicode="&#x42a;" horiz-adv-x="648" 
d="M517 207q0 30 -9.5 53.5t-29.5 40.5t-51 26t-73 9q-26 0 -47.5 -0.5t-30.5 -0.5v-261q42 -2 77 -2q82 0 123 35t41 100zM276 409q10 1 33.5 1.5t52.5 0.5q63 0 110.5 -14t79 -40t46.5 -62t15 -81q0 -51 -19 -91.5t-54 -69t-84.5 -43t-108.5 -14.5q-64 0 -162 5v599h-167
v75h258v-266z" />
    <glyph glyph-name="uni042B" unicode="&#x42b;" horiz-adv-x="807" 
d="M420 207q0 30 -9.5 53.5t-29.5 40.5t-51 26t-74 9q-27 0 -48.5 -0.5t-30.5 -0.5v-261q9 0 30 -1t47 -1q83 0 124.5 35t41.5 100zM516 214q0 -51 -19 -91.5t-55 -69t-85 -43t-109 -14.5q-24 0 -49.5 0.5t-49 1t-40.5 1.5t-24 2v674h92v-266q10 1 34 1.5t53 0.5
q63 0 110.5 -14t79 -40t47 -62t15.5 -81zM630 0v675h92v-675h-92z" />
    <glyph glyph-name="uni042C" unicode="&#x42c;" horiz-adv-x="551" 
d="M420 207q0 30 -9.5 53.5t-29.5 40.5t-51 26t-74 9q-27 0 -48.5 -0.5t-30.5 -0.5v-261q9 0 30 -1t47 -1q83 0 124.5 35t41.5 100zM516 214q0 -51 -19 -91.5t-55 -69t-85 -43t-109 -14.5q-24 0 -49.5 0.5t-49 1t-40.5 1.5t-24 2v674h92v-266q10 1 34 1.5t53 0.5
q63 0 110.5 -14t79 -40t47 -62t15.5 -81z" />
    <glyph glyph-name="uni042D" unicode="&#x42d;" horiz-adv-x="581" 
d="M539 342q0 -80 -22.5 -144.5t-66 -110.5t-105.5 -70.5t-138 -24.5q-41 0 -82 7t-74 19v89q38 -15 80.5 -24.5t81.5 -9.5q52 0 93.5 17t70.5 49t44.5 75t16.5 95h-315v75h314q-10 107 -68.5 163t-157.5 56q-37 0 -74.5 -7.5t-76.5 -21.5v82q36 12 77 19t89 7q76 0 135 -23
t98.5 -67.5t59.5 -107.5t20 -142z" />
    <glyph glyph-name="uni042E" unicode="&#x42e;" horiz-adv-x="936" 
d="M797 333q0 128 -49.5 199.5t-149.5 71.5q-44 0 -80.5 -16.5t-63 -49.5t-41 -82.5t-14.5 -113.5q0 -63 12 -113t36.5 -85.5t62 -54t88.5 -18.5q44 0 80.5 16.5t63 49.5t41 82.5t14.5 113.5zM893 347q0 -86 -23 -153t-64.5 -112.5t-96.5 -68.5t-119 -23q-70 0 -123 22
t-88 63.5t-53.5 100.5t-20.5 134h-128v-310h-92v675h92v-290h131q6 69 30.5 125t64 95t91.5 59.5t113 20.5q72 0 125.5 -23t89.5 -66.5t53.5 -106t17.5 -142.5z" />
    <glyph glyph-name="uni042F" unicode="&#x42f;" horiz-adv-x="581" 
d="M403 0v289h-85l-175 -289h-110l195 303q-69 13 -108 57.5t-39 114.5q0 47 17 84.5t50 64.5t81 41t110 14q34 0 72 -2t84 -5v-672h-92zM403 602q-15 1 -36 2t-42 1q-74 0 -111 -32.5t-37 -88.5q0 -60 37.5 -91.5t111.5 -31.5h77v241z" />
    <glyph glyph-name="uni0430" unicode="&#x430;" horiz-adv-x="521" 
d="M345 223h-59q-36 0 -64 -4.5t-47.5 -14.5t-29.5 -25.5t-10 -38.5q0 -34 21 -56t55 -22q28 0 53.5 12.5t44 35.5t27.5 49.5t9 54.5v9zM348 0q0 29 2 52.5t5 42.5h-2q-19 -47 -63.5 -75.5t-101.5 -28.5q-64 0 -103 37.5t-39 99.5q0 77 61.5 117t182.5 40h55v33
q0 63 -26.5 90.5t-84.5 27.5q-34 0 -74.5 -8.5t-77.5 -23.5v74q32 11 75.5 19.5t86.5 8.5q55 0 91.5 -13t57.5 -35.5t31.5 -54t10.5 -77.5v-183v-74.5v-68.5h-87z" />
    <glyph glyph-name="uni0431" unicode="&#x431;" horiz-adv-x="553" 
d="M419 256q0 83 -31.5 127.5t-95.5 44.5q-31 0 -57 -14.5t-44.5 -38.5t-28 -54t-9.5 -61q0 -94 35 -143.5t99 -49.5q28 0 52 11.5t42 34.5t28 59t10 84zM513 266q0 -59 -16.5 -109.5t-47.5 -88t-75 -57.5t-99 -20q-51 0 -91 17.5t-68.5 54t-43.5 92.5t-15 132v7
q0 61 6 115.5t17.5 100.5t28.5 81.5t39 57.5q35 34 77.5 49.5t92.5 20t89.5 7.5t60.5 14v-79q-23 -11 -64 -15t-76.5 -6.5t-67 -12.5t-54.5 -33q-12 -12 -22 -27t-18 -38t-15 -56.5t-12 -79.5h1q10 23 25.5 42.5t37 34.5t49.5 23.5t60 8.5q43 0 79 -13.5t63.5 -42t43 -73.5
t15.5 -107z" />
    <glyph glyph-name="uni0432" unicode="&#x432;" horiz-adv-x="531" 
d="M383 145q0 43 -35.5 63.5t-96.5 20.5h-79v-161q17 -5 40.5 -7.5t44.5 -2.5q63 0 94.5 24.5t31.5 62.5zM367 364q0 16 -6 29.5t-20 24t-38 16t-58 5.5q-19 0 -37.5 -1t-35.5 -3v-146h78q57 0 87 19.5t30 55.5zM477 151q0 -33 -14 -61.5t-42.5 -50.5t-72 -34.5
t-101.5 -12.5q-41 0 -85 3.5t-77 9.5v490q37 5 82.5 7.5t88.5 2.5q57 0 96 -10t61.5 -27.5t32 -40t9.5 -49.5q0 -81 -84 -110v-1q52 -10 79 -40t27 -76z" />
    <glyph glyph-name="uni0433" unicode="&#x433;" horiz-adv-x="374" 
d="M175 424v-424h-90v497h264v-73h-174z" />
    <glyph glyph-name="uni0434" unicode="&#x434;" horiz-adv-x="583" 
d="M552 -144h-80v144h-376v-144h-80v217h54q20 28 32.5 63.5t18.5 83.5t8.5 116t2.5 161h354v-424h66v-217zM396 425h-181q0 -66 -1.5 -120t-7.5 -97.5t-16.5 -76t-27.5 -58.5h234v352z" />
    <glyph glyph-name="uni0435" unicode="&#x435;" horiz-adv-x="508" 
d="M371 298q3 68 -27.5 104t-84.5 36q-51 0 -85.5 -36.5t-39.5 -103.5h237zM461 297q0 -29 -3 -62h-325q1 -86 38.5 -129t114.5 -43q37 0 76 7t77 19v-73q-37 -11 -79.5 -18t-83.5 -7q-116 0 -175.5 63t-59.5 195q0 55 15 101.5t43.5 81.5t70.5 54.5t94 19.5q50 0 87.5 -16
t62 -44.5t36 -66t11.5 -82.5z" />
    <glyph glyph-name="uni0436" unicode="&#x436;" horiz-adv-x="701" 
d="M306 497h90v-225l169 225h103l-182 -230l193 -267h-114l-169 250v-250h-90v250l-172 -250h-111l192 266l-181 231h104l168 -225v225z" />
    <glyph glyph-name="uni0437" unicode="&#x437;" horiz-adv-x="441" 
d="M398 151q0 -33 -14 -62.5t-42 -51.5t-69.5 -34t-93.5 -12q-39 0 -73 4t-61 11v76q32 -11 69.5 -17.5t72.5 -6.5q56 0 86 23.5t30 63.5q0 41 -35 61t-103 20h-56v64h56q122 0 122 76q0 35 -27.5 54.5t-83.5 19.5q-26 0 -58.5 -6t-62.5 -16v68q33 10 68 15t71 5
q48 0 84 -10t57.5 -27.5t32 -40.5t10.5 -49q0 -40 -23.5 -70t-64.5 -41v-1q53 -10 80.5 -39.5t27.5 -76.5z" />
    <glyph glyph-name="uni0438" unicode="&#x438;" horiz-adv-x="574" 
d="M399 0v261q0 31 2 61.5t5 64.5h-1q-5 -12 -11.5 -25l-13.5 -27t-15 -27t-15 -25l-172 -283h-93v497h90v-254q0 -34 -1.5 -59.5t-4.5 -66.5h1q13 24 28 50.5t30 51.5l168 278h93v-497h-90z" />
    <glyph glyph-name="uni0439" unicode="&#x439;" horiz-adv-x="574" 
d="M399 0v261q0 31 2 61.5t5 64.5h-1q-5 -12 -11.5 -25l-13.5 -27t-15 -27t-15 -25l-172 -283h-93v497h90v-254q0 -34 -1.5 -59.5t-4.5 -66.5h1q13 24 28 50.5t30 51.5l168 278h93v-497h-90zM450 715q0 -59 -41 -95t-122 -36q-78 0 -119 34.5t-41 96.5h81q0 -37 20.5 -56.5
t61.5 -19.5q38 0 58 20t20 56h82z" />
    <glyph glyph-name="uni043A" unicode="&#x43a;" horiz-adv-x="493" 
d="M355 0l-180 250v-250h-90v497h90v-225l180 225h105l-193 -229l202 -268h-114z" />
    <glyph glyph-name="uni043B" unicode="&#x43b;" horiz-adv-x="541" 
d="M366 0v425h-172q-1 -123 -11 -205.5t-31.5 -132.5t-56 -71t-87.5 -23v78q28 4 45.5 20.5t29.5 60t18 127t6 218.5h349v-497h-90z" />
    <glyph glyph-name="uni043C" unicode="&#x43c;" horiz-adv-x="738" 
d="M603 0l-46 286q-5 34 -9 61.5t-7 55.5h-1q-4 -26 -10 -48t-12 -41l-104 -314h-95l-98 294q-9 26 -17.5 54.5t-13.5 54.5h-1q-2 -29 -6 -58t-9 -64l-44 -281h-88l86 497h114l103 -306q8 -24 14 -45.5t11 -46.5h1q5 21 12 46t16 52l101 300h110l86 -497h-93z" />
    <glyph glyph-name="uni043D" unicode="&#x43d;" horiz-adv-x="577" 
d="M402 0v219h-227v-219h-90v497h90v-204h227v204h90v-497h-90z" />
    <glyph glyph-name="uni043E" unicode="&#x43e;" horiz-adv-x="545" 
d="M412 249q0 87 -36.5 134.5t-101.5 47.5q-32 0 -58 -11.5t-44.5 -34.5t-28.5 -57.5t-10 -79.5q0 -87 36.5 -134t102.5 -47q30 0 55.5 11t44.5 33.5t29.5 57t10.5 80.5zM505 256q0 -56 -15.5 -104.5t-46.5 -84.5t-76.5 -56t-102.5 -20q-51 0 -92.5 15.5t-71 46.5t-45 78
t-15.5 110q0 56 15.5 104.5t46.5 84.5t76.5 56t103.5 20q51 0 92 -15.5t70.5 -46.5t45 -78t15.5 -110z" />
    <glyph glyph-name="uni043F" unicode="&#x43f;" horiz-adv-x="572" 
d="M397 0v425h-222v-425h-90v497h402v-497h-90z" />
    <glyph glyph-name="uni0440" unicode="&#x440;" horiz-adv-x="558" 
d="M421 264q0 82 -27.5 125t-82.5 43q-32 0 -58 -17t-43 -45.5t-26 -62t-9 -67.5v-164q39 -12 88 -12q36 0 65 11.5t50 35.5t32 62.5t11 90.5zM515 272q0 -132 -67.5 -205t-188.5 -73q-25 0 -44.5 1t-39.5 5v-247h-90v744h87q0 -25 -2 -53.5t-6 -47.5l2 -1q21 52 64.5 81.5
t102.5 29.5q87 0 134.5 -60.5t47.5 -173.5z" />
    <glyph glyph-name="uni0441" unicode="&#x441;" horiz-adv-x="427" 
d="M392 11q-37 -10 -67 -14.5t-64 -4.5q-50 0 -89.5 13t-69 41.5t-45.5 75t-16 112.5q0 60 15 110t45.5 86.5t76 55.5t103.5 19q27 0 53.5 -4.5t53.5 -12.5v-83q-28 12 -54.5 18t-55.5 6q-34 0 -61 -12.5t-45.5 -37.5t-27 -59.5t-8.5 -75.5q0 -39 7 -70t23 -54.5t43.5 -36.5
t67.5 -13q55 0 115 17v-76z" />
    <glyph glyph-name="uni0442" unicode="&#x442;" horiz-adv-x="397" 
d="M243 423v-423h-90v423h-142v74h375v-74h-143z" />
    <glyph glyph-name="uni0443" unicode="&#x443;" horiz-adv-x="480" 
d="M278 -25q-23 -65 -48 -119.5t-51 -102.5h-99q31 54 58.5 108.5t47.5 108.5l11 30l-188 497h103l94 -260q12 -36 21 -66.5t18 -60.5h1q7 27 20 67.5t28 86.5l80 233h97z" />
    <glyph glyph-name="uni0444" unicode="&#x444;" horiz-adv-x="685" 
d="M555 246q0 80 -43.5 129t-124.5 56v-364q36 3 66 15.5t53 35t36 55.5t13 73zM298 431q-36 -3 -66.5 -16t-53 -35.5t-35.5 -55t-13 -73.5q0 -79 43 -127.5t125 -56.5v364zM647 253q0 -50 -17 -94.5t-50 -80t-82.5 -58t-109.5 -27.5v-240h-90v239q-125 5 -192.5 69.5
t-67.5 183.5q0 50 17.5 95t50.5 80t82 57.5t110 27.5v170h90v-169q123 -5 191 -69.5t68 -183.5z" />
    <glyph glyph-name="uni0445" unicode="&#x445;" horiz-adv-x="518" 
d="M381 0l-125 191l-126 -191h-109l182 249l-173 248h110l123 -187l125 187h102l-172 -245l180 -252h-117z" />
    <glyph glyph-name="uni0446" unicode="&#x446;" horiz-adv-x="586" 
d="M560 -144h-79v144h-396v497h90v-424h222v424h90v-424h73v-217z" />
    <glyph glyph-name="uni0447" unicode="&#x447;" horiz-adv-x="528" 
d="M353 0v205q-30 -15 -64.5 -23t-72.5 -8q-48 0 -81 12.5t-52.5 35t-28 51t-8.5 63.5v161h90v-142q0 -57 21.5 -84t74.5 -27q30 0 60.5 7.5t60.5 23.5v222h90v-497h-90z" />
    <glyph glyph-name="uni0448" unicode="&#x448;" horiz-adv-x="818" 
d="M85 0v497h90v-424h191v424h89v-424h188v424h90v-497h-648z" />
    <glyph glyph-name="uni0449" unicode="&#x449;" horiz-adv-x="832" 
d="M806 -144h-79v144h-642v497h90v-424h191v424h89v-424h188v424h90v-424h73v-217z" />
    <glyph glyph-name="uni044A" unicode="&#x44a;" horiz-adv-x="553" 
d="M435 159q0 20 -6.5 37t-21.5 30t-39 20t-59 7q-19 0 -38 -1.5t-36 -3.5v-174q16 -5 37.5 -7.5t44.5 -2.5q57 0 87.5 26t30.5 69zM529 168q0 -37 -14.5 -69t-44 -56t-72.5 -37.5t-98 -13.5q-35 0 -79 4t-76 10v418h-142v73h232v-178q20 2 45 3.5t47 1.5q100 0 151 -41.5
t51 -114.5z" />
    <glyph glyph-name="uni044B" unicode="&#x44b;" horiz-adv-x="729" 
d="M375 159q0 20 -6.5 37t-21.5 30t-39 20t-59 7q-18 0 -36.5 -1.5t-37.5 -3.5v-174q16 -5 38 -7.5t45 -2.5q56 0 86.5 26t30.5 69zM469 168q0 -37 -14.5 -69t-43.5 -56t-72 -37.5t-98 -13.5q-18 0 -38.5 1t-41.5 3t-40.5 4.5t-35.5 5.5v491h90v-178q21 2 45.5 3.5t46.5 1.5
q100 0 151 -41.5t51 -114.5zM555 0v497h90v-497h-90z" />
    <glyph glyph-name="uni044C" unicode="&#x44c;" horiz-adv-x="493" 
d="M375 159q0 20 -6.5 37t-21.5 30t-39 20t-59 7q-18 0 -36.5 -1.5t-37.5 -3.5v-174q16 -5 38 -7.5t45 -2.5q56 0 86.5 26t30.5 69zM469 168q0 -37 -14.5 -69t-43.5 -56t-72 -37.5t-98 -13.5q-18 0 -38.5 1t-41.5 3t-40.5 4.5t-35.5 5.5v491h90v-178q21 2 45.5 3.5t46.5 1.5
q100 0 151 -41.5t51 -114.5z" />
    <glyph glyph-name="uni044D" unicode="&#x44d;" horiz-adv-x="454" 
d="M413 249q0 -58 -17 -105.5t-50 -81.5t-79.5 -52t-104.5 -18q-27 0 -59 5.5t-56 13.5v77q27 -11 59 -18t60 -7q73 0 113 43t42 116h-217v65h216q-7 74 -47.5 111t-108.5 37q-55 0 -110 -19v70q27 9 57.5 14t63.5 5q114 0 176 -65t62 -191z" />
    <glyph glyph-name="uni044E" unicode="&#x44e;" horiz-adv-x="753" 
d="M620 249q0 86 -35 134t-95 48q-29 0 -53.5 -12t-41.5 -35t-26.5 -57.5t-9.5 -78.5q0 -86 35.5 -133.5t94.5 -47.5q29 0 53.5 11.5t41.5 35t26.5 57.5t9.5 78zM713 256q0 -56 -15.5 -104.5t-45 -84.5t-73 -56t-97.5 -20q-95 0 -151 58.5t-61 170.5h-95v-220h-90v497h90
v-206h98q5 44 21.5 83t45 68.5t68.5 46.5t90 17q49 0 88 -15.5t67.5 -46.5t44 -78t15.5 -110z" />
    <glyph glyph-name="uni044F" unicode="&#x44f;" horiz-adv-x="509" 
d="M334 0v203h-70l-137 -203h-105l115 166q9 14 20 28t19 24q-57 12 -88 45t-31 86q0 74 54.5 115t160.5 41q35 0 74.5 -2.5t77.5 -6.5v-496h-90zM334 435q-18 2 -37 3.5t-36 1.5q-57 0 -83.5 -23.5t-26.5 -62.5q0 -20 6.5 -35.5t20 -26.5t35 -17t50.5 -6h71v166z" />
    <glyph glyph-name="uni0450" unicode="&#x450;" horiz-adv-x="508" 
d="M371 298q3 68 -27.5 104t-84.5 36q-51 0 -85.5 -36.5t-39.5 -103.5h237zM461 297q0 -29 -3 -62h-325q1 -86 38.5 -129t114.5 -43q37 0 76 7t77 19v-73q-37 -11 -79.5 -18t-83.5 -7q-116 0 -175.5 63t-59.5 195q0 55 15 101.5t43.5 81.5t70.5 54.5t94 19.5q50 0 87.5 -16
t62 -44.5t36 -66t11.5 -82.5zM270 569l-140 128l55 54l129 -139z" />
    <glyph glyph-name="uni0451" unicode="&#x451;" horiz-adv-x="508" 
d="M371 298q3 68 -27.5 104t-84.5 36q-51 0 -85.5 -36.5t-39.5 -103.5h237zM461 297q0 -29 -3 -62h-325q1 -86 38.5 -129t114.5 -43q37 0 76 7t77 19v-73q-37 -11 -79.5 -18t-83.5 -7q-116 0 -175.5 63t-59.5 195q0 55 15 101.5t43.5 81.5t70.5 54.5t94 19.5q50 0 87.5 -16
t62 -44.5t36 -66t11.5 -82.5zM220 654q0 -23 -16 -38.5t-38 -15.5q-23 0 -38.5 16t-15.5 38q0 23 16 38.5t38 15.5q23 0 38.5 -16t15.5 -38zM412 654q0 -23 -16 -38.5t-38 -15.5q-23 0 -38.5 16t-15.5 38q0 23 16 38.5t38 15.5q23 0 38.5 -16t15.5 -38z" />
    <glyph glyph-name="uni0452" unicode="&#x452;" horiz-adv-x="576" 
d="M286 -135q27 7 46 16t31 21t21 28t14 44.5t8 74.5t3 120v19q0 74 -6 121.5t-18 74t-30.5 36.5t-43.5 10q-28 0 -52.5 -14t-42.5 -38.5t-28 -57t-10 -68.5v-252h-90v581h-88v70h88v79h90v-79h135v-70h-135v-89q0 -26 -2 -51.5t-6 -44.5h1q19 48 63 78.5t101 30.5
q44 0 75 -15t51 -49t28.5 -90t8.5 -137v-16q0 -89 -4 -146.5t-12.5 -95.5t-21.5 -61t-31 -41q-22 -21 -51.5 -35t-71.5 -24z" />
    <glyph glyph-name="uni0453" unicode="&#x453;" horiz-adv-x="374" 
d="M175 424v-424h-90v497h264v-73h-174zM195 569l-44 43l129 139l55 -53z" />
    <glyph glyph-name="uni0454" unicode="&#x454;" horiz-adv-x="442" 
d="M407 15q-31 -12 -64 -17.5t-65 -5.5q-51 0 -93.5 12.5t-75 41.5t-50.5 77.5t-18 117.5q0 59 15.5 107.5t47 83.5t78 54t105.5 19q31 0 59 -4.5t55 -12.5v-77q-29 11 -59 18t-62 7q-64 0 -101.5 -40t-44.5 -109h216v-65h-216q1 -36 11 -65t29 -50t48.5 -32.5t70.5 -11.5
q26 0 54.5 5.5t59.5 18.5v-72z" />
    <glyph glyph-name="uni0455" unicode="&#x455;" horiz-adv-x="425" 
d="M376 142q0 -32 -12.5 -59t-37.5 -48t-62.5 -32.5t-86.5 -11.5q-33 0 -62.5 3.5t-56.5 9.5v80q29 -9 61.5 -15t63.5 -6q50 0 75 18.5t25 52.5q0 26 -15 41t-32 23t-60.5 23.5t-68.5 31.5t-41 42t-16 67q0 63 50 103.5t144 40.5q24 0 49 -2t46 -6v-76q-21 7 -48.5 10.5
t-52.5 3.5q-47 0 -71.5 -17.5t-24.5 -48.5q0 -25 15.5 -41t48 -28.5t60.5 -22.5t53 -26t41 -42.5t16 -67.5z" />
    <glyph glyph-name="uni0456" unicode="&#x456;" horiz-adv-x="260" 
d="M85 0v497h90v-497h-90zM190 654q0 -24 -17.5 -41t-42.5 -17t-42.5 16.5t-17.5 41.5t17.5 42t42.5 17t42.5 -17t17.5 -42z" />
    <glyph glyph-name="uni0457" unicode="&#x457;" horiz-adv-x="260" 
d="M85 0v497h90v-497h-90zM96 654q0 -22 -15.5 -38t-38.5 -16q-22 0 -38 16t-16 38q0 23 16 38.5t38 15.5q23 0 38.5 -15.5t15.5 -38.5zM271 654q0 -22 -15.5 -38t-38.5 -16q-22 0 -38 16t-16 38q0 23 16 38.5t38 15.5q23 0 38.5 -15.5t15.5 -38.5z" />
    <glyph glyph-name="uni0458" unicode="&#x458;" horiz-adv-x="260" 
d="M190 654q0 -24 -17.5 -41t-42.5 -17t-42.5 16.5t-17.5 41.5t17.5 42t42.5 17t42.5 -17t17.5 -42zM175 -34q0 -43 -8 -76t-25 -59t-43.5 -47t-62.5 -40l-40 61q24 15 40.5 29t27.5 32t16 42t5 58v531h90v-531z" />
    <glyph glyph-name="uni0459" unicode="&#x459;" horiz-adv-x="767" 
d="M359 425h-165q-1 -123 -11 -205.5t-31.5 -132.5t-56 -71t-87.5 -23v78q28 4 45.5 20.5t29.5 60t18 127t6 218.5h342v-178q21 2 45.5 3.5t46.5 1.5q50 0 88.5 -11t64 -31.5t38 -49t12.5 -64.5q0 -37 -15 -69t-44 -56t-72 -37.5t-98 -13.5q-18 0 -38.5 1t-41.5 3t-40.5 4.5
t-35.5 5.5v419zM449 74q16 -5 38 -7.5t45 -2.5q56 0 87 26t31 69q0 20 -6.5 37t-21.5 30t-39.5 20t-59.5 7q-18 0 -36.5 -1.5t-37.5 -3.5v-174z" />
    <glyph glyph-name="uni045A" unicode="&#x45a;" horiz-adv-x="802" 
d="M684 159q0 20 -6.5 37t-21.5 30t-39 20t-59 7q-18 0 -37.5 -1.5t-36.5 -3.5v-174q16 -5 37.5 -7.5t45.5 -2.5q56 0 86.5 26t30.5 69zM484 319q20 2 45 3.5t47 1.5q100 0 151 -41.5t51 -114.5q0 -37 -14.5 -69t-44 -56t-72.5 -37.5t-98 -13.5q-17 0 -37.5 1t-41.5 3
t-40.5 4.5t-35.5 5.5v213h-219v-219h-90v497h90v-204h219v204h90v-178z" />
    <glyph glyph-name="uni045B" unicode="&#x45b;" horiz-adv-x="579" 
d="M404 0v319q0 53 -18 82t-67 29q-31 0 -56.5 -15t-44.5 -41t-29.5 -61t-10.5 -76v-237h-90v581h-88v70h88v79h90v-79h135v-70h-135v-93q0 -26 -2 -51t-7 -43l2 -1q22 51 66.5 81.5t106.5 30.5q43 0 71.5 -12.5t45.5 -34t24.5 -51t7.5 -61.5v-346h-89z" />
    <glyph glyph-name="uni045C" unicode="&#x45c;" horiz-adv-x="493" 
d="M355 0l-180 250v-250h-90v497h90v-225l180 225h105l-193 -229l202 -268h-114zM257 569l-44 43l129 139l55 -53z" />
    <glyph glyph-name="uni045D" unicode="&#x45d;" horiz-adv-x="574" 
d="M399 0v261q0 31 2 61.5t5 64.5h-1q-5 -12 -11.5 -25l-13.5 -27t-15 -27t-15 -25l-172 -283h-93v497h90v-254q0 -34 -1.5 -59.5t-4.5 -66.5h1q13 24 28 50.5t30 51.5l168 278h93v-497h-90zM300 569l-140 128l55 54l129 -139z" />
    <glyph glyph-name="uni045E" unicode="&#x45e;" horiz-adv-x="480" 
d="M278 -25q-23 -65 -48 -119.5t-51 -102.5h-99q31 54 58.5 108.5t47.5 108.5l11 30l-188 497h103l94 -260q12 -36 21 -66.5t18 -60.5h1q7 27 20 67.5t28 86.5l80 233h97zM404 715q0 -59 -41 -95t-122 -36q-78 0 -119 34.5t-41 96.5h81q0 -37 20.5 -56.5t61.5 -19.5
q38 0 58 20t20 56h82z" />
    <glyph glyph-name="uni045F" unicode="&#x45f;" horiz-adv-x="572" 
d="M326 0v-144h-80v144h-161v497h90v-424h222v424h90v-497h-161z" />
    <glyph glyph-name="uni0462" unicode="&#x462;" horiz-adv-x="661" 
d="M18 598h159v108h91v-108h211v-75h-211v-122h97q59 0 105 -14t76.5 -39t46 -60t15.5 -77q0 -51 -18.5 -91.5t-53 -68t-84 -41.5t-110.5 -14q-24 0 -50.5 0.5t-50 1t-40.5 1.5t-24 2v522h-159v75zM513 202q0 29 -9.5 52t-29 39t-50.5 25t-73 9h-83v-254q8 0 33.5 -1
t49.5 -1q81 0 121.5 34.5t40.5 96.5z" />
    <glyph glyph-name="uni0463" unicode="&#x463;" horiz-adv-x="517" 
d="M199 430v-123q20 3 44.5 4.5t47.5 1.5q51 0 89.5 -10.5t63.5 -30.5t37.5 -48t12.5 -62q0 -36 -14.5 -67t-43.5 -54t-72.5 -36t-98.5 -13q-35 0 -79.5 4t-76.5 10v424h-102v67h102v161l90 25v-186h147v-67h-147zM199 70q16 -5 38 -7.5t45 -2.5q56 0 87 25.5t31 67.5
q0 20 -6.5 36.5t-21.5 29t-39 19.5t-59 7q-21 0 -41 -1.5t-34 -3.5v-170z" />
    <glyph glyph-name="uni0472" unicode="&#x472;" horiz-adv-x="709" 
d="M667 346q0 -84 -25 -151t-69.5 -112.5t-102.5 -69t-124 -23.5q-73 0 -130 24t-95.5 68.5t-58 107t-19.5 139.5q0 84 25 151t69.5 112.5t102.5 69t124 23.5q72 0 128.5 -23t95.5 -67t59 -107t20 -142zM568 384q-10 106 -65.5 164t-147.5 58q-42 0 -79 -14.5t-66 -43
t-47 -70t-22 -94.5h427zM139 311q3 -54 18 -98.5t42 -76.5t66.5 -49t89.5 -17q43 0 80.5 15.5t67 46t47 76t19.5 103.5h-430z" />
    <glyph glyph-name="uni0473" unicode="&#x473;" horiz-adv-x="545" 
d="M505 256q0 -56 -15.5 -104.5t-46.5 -84.5t-76.5 -56t-102.5 -20q-51 0 -92.5 15.5t-71 46.5t-45 78t-15.5 110q0 56 15.5 104.5t46.5 84.5t76.5 56t103.5 20q51 0 92 -15.5t70.5 -46.5t45 -78t15.5 -110zM413 286q-5 69 -41 110t-99 41q-62 0 -98 -40.5t-42 -110.5h280z
M132 222q3 -76 39.5 -118.5t100.5 -42.5q30 0 55 10t43.5 30t29.5 50.5t13 70.5h-281z" />
    <glyph glyph-name="uni0474" unicode="&#x474;" horiz-adv-x="613" 
d="M254 0l-243 675h102l151 -436q10 -29 22 -66t22 -71h1q6 25 12.5 49.5t25.5 89.5l68 232q18 63 33 100.5t34.5 60.5t47.5 33.5t70 10.5q23 0 42 -2v-79q-20 2 -39 2q-18 0 -30 -5.5t-22.5 -21.5t-21.5 -45t-28 -82l-139 -445h-108z" />
    <glyph glyph-name="uni0475" unicode="&#x475;" horiz-adv-x="501" 
d="M513 424q-6 1 -16.5 2t-18.5 1q-13 0 -22 -4t-16.5 -14.5t-15 -28.5t-17.5 -49l-108 -331h-114l-176 497h100l97 -283q11 -37 20.5 -70t16.5 -61h1q9 35 16.5 63.5t15.5 54.5l46 152q12 43 23.5 70.5t27.5 45.5t40 26.5t60 8.5q19 0 40 -3v-77z" />
    <glyph glyph-name="uni0490" unicode="&#x490;" horiz-adv-x="426" 
d="M177 598v-598h-92v675h252v125h82v-202h-242z" />
    <glyph glyph-name="uni0491" unicode="&#x491;" horiz-adv-x="374" 
d="M175 424v-424h-90v497h185v121h79v-194h-174z" />
    <glyph glyph-name="uni0492" unicode="&#x492;" horiz-adv-x="462" 
d="M97 675h340v-77h-249v-217h189v-75h-189v-306h-91v306h-81v75h81v294z" />
    <glyph glyph-name="uni0493" unicode="&#x493;" horiz-adv-x="384" 
d="M95 497h264v-73h-174v-141h115v-73h-115v-210h-90v210h-75v73h75v214z" />
    <glyph glyph-name="uni0496" unicode="&#x496;" horiz-adv-x="857" 
d="M846 -153h-82v153h-67l-242 334v-334h-91v334l-244 -334h-116l268 345l-259 330h110l241 -318v318h91v-318l242 318h107l-256 -325l219 -273h79v-230z" />
    <glyph glyph-name="uni0497" unicode="&#x497;" horiz-adv-x="721" 
d="M627 -144v144h-61l-170 250v-250h-89v250l-172 -250h-112l191 264l-181 233h109l165 -225v225h89v-225l167 225h107l-182 -231l145 -195h73v-215h-79z" />
    <glyph glyph-name="uni0498" unicode="&#x498;" horiz-adv-x="522" 
d="M472 199q0 -36 -12 -69t-36.5 -60.5t-62.5 -46t-89 -26.5v-150h-82v146q-40 1 -77 5.5t-65 11.5v83q39 -12 80.5 -18.5t84.5 -6.5q45 0 76.5 9.5t50 26.5t27 39t8.5 49q0 34 -14 57.5t-40 37.5t-62.5 20.5t-83.5 6.5h-46v71h48q83 0 130.5 30t47.5 87q0 22 -6.5 41
t-22 34t-43 23.5t-67.5 8.5q-35 0 -71.5 -6.5t-72.5 -18.5v76q42 11 80.5 17t79.5 6q55 0 96.5 -12t68.5 -34.5t40 -53t13 -66.5q0 -56 -31.5 -97t-88.5 -59v-1q35 -7 61.5 -21.5t44.5 -35.5t27 -47.5t9 -56.5z" />
    <glyph glyph-name="uni0499" unicode="&#x499;" horiz-adv-x="441" 
d="M398 151q0 -58 -40.5 -100t-114.5 -55v-140h-79v135q-38 2 -66.5 5.5t-52.5 9.5v76q32 -11 69.5 -17.5t72.5 -6.5q56 0 86 23.5t30 63.5q0 41 -35 61t-103 20h-56v64h56q122 0 122 76q0 35 -27.5 54.5t-83.5 19.5q-26 0 -58.5 -6t-62.5 -16v68q33 10 68 15t71 5
q48 0 84 -10t57.5 -27.5t32 -40.5t10.5 -49q0 -40 -23.5 -70t-64.5 -41v-1q53 -10 80.5 -39.5t27.5 -76.5z" />
    <glyph glyph-name="uni049A" unicode="&#x49a;" horiz-adv-x="606" 
d="M594 -153h-82v153h-68l-267 334v-334h-92v675h92v-318l268 318h112l-284 -326l240 -272h81v-230z" />
    <glyph glyph-name="uni049B" unicode="&#x49b;" horiz-adv-x="504" 
d="M492 -144h-80v144h-56l-181 250v-250h-90v497h90v-224l180 224h107l-195 -231l154 -195h71v-215z" />
    <glyph glyph-name="uni049C" unicode="&#x49c;" horiz-adv-x="697" 
d="M682 0h-118l-224 315h-24v-133h-72v133h-67v-315h-92v675h92v-286h67v129h72v-129h24l224 286h108l-258 -319z" />
    <glyph glyph-name="uni049D" unicode="&#x49d;" horiz-adv-x="618" 
d="M323 223h-35v-106h-67v106h-46v-223h-90v497h90v-202h46v101h67v-101h35l150 202h104l-180 -229l197 -268h-113z" />
    <glyph glyph-name="uni04A0" unicode="&#x4a0;" horiz-adv-x="684" 
d="M544 0l-268 334v-334h-91v599h-167v76h258v-318l269 318h111l-284 -325l296 -350h-124z" />
    <glyph glyph-name="uni04A1" unicode="&#x4a1;" horiz-adv-x="553" 
d="M327 267l202 -267h-114l-180 250v-250h-90v426h-142v71h232v-225l179 225h107z" />
    <glyph glyph-name="uni04A2" unicode="&#x4a2;" horiz-adv-x="713" 
d="M688 77v-230h-82v153h-99v311h-330v-311h-92v675h92v-286h330v286h91v-598h90z" />
    <glyph glyph-name="uni04A3" unicode="&#x4a3;" horiz-adv-x="591" 
d="M565 71v-215h-79v144h-84v219h-227v-219h-90v497h90v-203h227v203h90v-426h73z" />
    <glyph glyph-name="uni04AA" unicode="&#x4aa;" horiz-adv-x="583" 
d="M377 -153h-82v149q-62 8 -108.5 33.5t-78 67.5t-47 99t-15.5 126q0 81 21 147.5t62.5 114t102.5 72.5t139 25q39 0 78.5 -6t73.5 -17v-91q-40 17 -81.5 26t-82.5 9q-33 0 -66 -9t-67 -36t-57.5 -84t-23.5 -141q0 -130 58 -194t162 -64q37 0 81.5 7.5t84.5 19.5v-82
q-37 -11 -76 -17.5t-78 -8.5v-146z" />
    <glyph glyph-name="uni04AB" unicode="&#x4ab;" horiz-adv-x="427" 
d="M392 11q-57 -16 -100 -18v-137h-79v141q-39 6 -70 22t-54 44t-35.5 71t-12.5 100q0 61 15 111t45.5 86t76 55t103.5 19q25 0 51.5 -4.5t55.5 -12.5v-83q-28 12 -55 18t-55 6q-70 0 -106 -49.5t-36 -135.5q-1 -37 6 -69t23 -55t43.5 -36.5t68.5 -13.5q57 0 115 17v-76z
" />
    <glyph glyph-name="uni04AE" unicode="&#x4ae;" horiz-adv-x="537" 
d="M313 259v-259h-91v259l-220 416h101l116 -220q27 -54 50 -111h2q13 32 29 65t25 50l112 216h98z" />
    <glyph glyph-name="uni04AF" unicode="&#x4af;" horiz-adv-x="485" 
d="M284 0v-247h-90v247l-185 497h102l101 -285q11 -34 17.5 -56.5t12.5 -45.5h1q8 28 16.5 55t15.5 47l102 285h98z" />
    <glyph glyph-name="uni04B0" unicode="&#x4b0;" horiz-adv-x="546" 
d="M316 248h164v-74h-164v-174h-91v174h-164v74h164l-209 427h100l106 -223q13 -28 25 -57t25 -61h2q10 28 24.5 60t32.5 69l102 212h97z" />
    <glyph glyph-name="uni04B1" unicode="&#x4b1;" horiz-adv-x="487" 
d="M431 71v-71h-146v-247h-89v247h-146v71h137l-178 426h103l99 -251q22 -57 33 -102h1q6 25 15.5 52.5t18.5 49.5l100 251h98l-183 -426h137z" />
    <glyph glyph-name="uni04B2" unicode="&#x4b2;" horiz-adv-x="625" 
d="M613 77v-230h-82v153h-64l-172 279l-171 -279h-107l222 348l-208 327h106l160 -258l157 258h104l-205 -324l180 -274h80z" />
    <glyph glyph-name="uni04B3" unicode="&#x4b3;" horiz-adv-x="541" 
d="M381 0l-125 191l-126 -191h-109l182 249l-173 248h110l123 -187l125 187h102l-172 -245l133 -181h76v-215h-79v144h-67z" />
    <glyph glyph-name="uni04B6" unicode="&#x4b6;" horiz-adv-x="649" 
d="M624 -153h-82v153h-100v283q-35 -12 -74.5 -19.5t-84.5 -7.5q-71 0 -116.5 17.5t-71 47t-35 69t-9.5 83.5v202h92v-186q0 -36 6.5 -65t24 -49.5t47 -31.5t75.5 -11q41 0 77.5 7t68.5 19v317h92v-598h90v-230z" />
    <glyph glyph-name="uni04B7" unicode="&#x4b7;" horiz-adv-x="541" 
d="M436 -144v144h-83v205q-29 -14 -63.5 -22.5t-73.5 -8.5q-50 0 -82.5 13t-52 35.5t-27.5 51.5t-8 62v161h90v-142q0 -55 20 -83t76 -28q29 0 59.5 7t61.5 24v222h90v-426h73v-215h-80z" />
    <glyph glyph-name="uni04B8" unicode="&#x4b8;" horiz-adv-x="636" 
d="M459 0v283q-29 -11 -58 -17t-63 -8v-123h-71v123q-63 2 -105.5 19t-66.5 46t-34 66.5t-10 83.5v202h92v-188q0 -34 6 -59.5t20 -45t38 -31t60 -14.5v134h71v-138q33 2 62.5 8.5t58.5 17.5v316h92v-675h-92z" />
    <glyph glyph-name="uni04B9" unicode="&#x4b9;" horiz-adv-x="562" 
d="M387 0v206q-43 -22 -93 -28v-94h-66v91q-51 0 -86.5 13t-56.5 35t-30 52t-9 66v156h90v-140q0 -27 4.5 -47t15 -34t28 -21.5t44.5 -8.5v109h66v-109q24 3 47 10.5t46 19.5v221h90v-497h-90z" />
    <glyph glyph-name="uni04BA" unicode="&#x4ba;" horiz-adv-x="647" 
d="M476 0v203q0 38 -7 66.5t-24 48.5t-47 31t-75 11q-20 0 -39 -2t-37.5 -5t-35.5 -8t-34 -11v-334h-92v675h92v-266q37 13 77 20t82 7q69 0 114.5 -17t71 -46.5t36 -67.5t10.5 -86v-219h-92z" />
    <glyph glyph-name="uni04BB" unicode="&#x4bb;" horiz-adv-x="575" 
d="M401 0v320q0 56 -19 84t-66 28q-30 0 -56 -14.5t-45 -41t-29.5 -62t-10.5 -76.5v-238h-90v730h90v-236q0 -28 -2 -54t-7 -45l2 -1q22 52 67 82t106 30q41 0 70.5 -12t47 -33.5t25 -50t7.5 -63.5v-347h-90z" />
    <glyph glyph-name="uni04C1" unicode="&#x4c1;" horiz-adv-x="820" 
d="M364 675h91v-318l242 318h107l-256 -325l269 -350h-120l-242 334v-334h-91v334l-244 -334h-116l268 345l-259 330h110l241 -318v318zM573 849q0 -57 -41.5 -92.5t-121.5 -35.5q-78 0 -119 34t-41 94h82q0 -36 20 -54.5t61 -18.5q38 0 57.5 19t19.5 54h83z" />
    <glyph glyph-name="uni04C2" unicode="&#x4c2;" horiz-adv-x="701" 
d="M306 497h90v-225l169 225h103l-182 -230l193 -267h-114l-169 250v-250h-90v250l-172 -250h-111l192 266l-181 231h104l168 -225v225zM515 715q0 -59 -41 -95t-122 -36q-78 0 -119 34.5t-41 96.5h81q0 -37 20.5 -56.5t61.5 -19.5q38 0 58 20t20 56h82z" />
    <glyph glyph-name="uni04D8" unicode="&#x4d8;" horiz-adv-x="603" 
d="M33 289q0 18 2 45t5 47h420q-4 55 -20 97t-43.5 69.5t-66 41.5t-87.5 14q-42 0 -85 -10t-86 -28v83q44 17 90 26t95 9q70 0 126.5 -21t96 -63.5t60.5 -107.5t21 -151q0 -81 -19.5 -145.5t-56 -110t-88.5 -69.5t-117 -24q-64 0 -111 21t-77 60.5t-44.5 94t-14.5 122.5z
M132 306v-19q0 -56 11 -97t31.5 -67t49 -38.5t65.5 -12.5q42 0 74 17t54 48t33 74t11 95h-329z" />
    <glyph glyph-name="uni04D9" unicode="&#x4d9;" horiz-adv-x="502" 
d="M41 220q0 18 1 34t3 32h323q-4 75 -44 112.5t-112 37.5q-37 0 -72.5 -7t-66.5 -21v73q34 12 73 18.5t79 6.5q115 0 176 -63t61 -191q0 -59 -15 -107t-43.5 -82.5t-70.5 -53t-95 -18.5q-51 0 -88.5 16.5t-61.5 47.5t-35.5 72.5t-11.5 92.5zM132 205q0 -72 30 -108t83 -36
q30 0 53 12t39 33.5t24 51t8 64.5h-237v-17z" />
    <glyph glyph-name="uni04E2" unicode="&#x4e2;" horiz-adv-x="689" 
d="M512 0v428q0 29 2 60t5 62h-1q-15 -28 -25.5 -46.5t-21.5 -36.5l-292 -467h-94v675h92v-438q0 -23 -1.5 -49.5t-3.5 -56.5h1q9 19 19.5 38.5t22.5 39.5l292 466h97v-675h-92zM208 748v62h276v-62h-276z" />
    <glyph glyph-name="uni04E3" unicode="&#x4e3;" horiz-adv-x="574" 
d="M399 0v261q0 31 2 61.5t5 64.5h-1q-5 -12 -11.5 -25l-13.5 -27t-15 -27t-15 -25l-172 -283h-93v497h90v-254q0 -34 -1.5 -59.5t-4.5 -66.5h1q13 24 28 50.5t30 51.5l168 278h93v-497h-90zM162 616v68h252v-68h-252z" />
    <glyph glyph-name="uni04E8" unicode="&#x4e8;" horiz-adv-x="709" 
d="M667 346q0 -84 -25 -151t-69.5 -112.5t-102.5 -69t-124 -23.5q-73 0 -130 24t-95.5 68.5t-58 107t-19.5 139.5q0 84 25 151t69.5 112.5t102.5 69t124 23.5q72 0 128.5 -23t95.5 -67t59 -107t20 -142zM568 384q-10 106 -65.5 164t-147.5 58q-42 0 -79 -14.5t-66 -43
t-47 -70t-22 -94.5h427zM139 311q3 -54 18 -98.5t42 -76.5t66.5 -49t89.5 -17q43 0 80.5 15.5t67 46t47 76t19.5 103.5h-430z" />
    <glyph glyph-name="uni04E9" unicode="&#x4e9;" horiz-adv-x="545" 
d="M505 256q0 -56 -15.5 -104.5t-46.5 -84.5t-76.5 -56t-102.5 -20q-51 0 -92.5 15.5t-71 46.5t-45 78t-15.5 110q0 56 15.5 104.5t46.5 84.5t76.5 56t103.5 20q51 0 92 -15.5t70.5 -46.5t45 -78t15.5 -110zM413 286q-5 69 -41 110t-99 41q-62 0 -98 -40.5t-42 -110.5h280z
M132 222q3 -76 39.5 -118.5t100.5 -42.5q30 0 55 10t43.5 30t29.5 50.5t13 70.5h-281z" />
    <glyph glyph-name="uni04EE" unicode="&#x4ee;" horiz-adv-x="556" 
d="M338 158q-19 -47 -40 -79t-44 -51.5t-49.5 -28t-57.5 -8.5q-14 0 -32 2.5t-33 6.5v83q34 -13 68 -13q17 0 30 3.5t25 13t23.5 27t23.5 45.5l-230 516h102l127 -298q14 -33 24.5 -61.5t18.5 -53.5l2 -3q8 21 24.5 66.5t24.5 65.5l105 284h96zM149 748v62h276v-62h-276z
" />
    <glyph glyph-name="uni04EF" unicode="&#x4ef;" horiz-adv-x="480" 
d="M278 -25q-23 -65 -48 -119.5t-51 -102.5h-99q31 54 58.5 108.5t47.5 108.5l11 30l-188 497h103l94 -260q12 -36 21 -66.5t18 -60.5h1q7 27 20 67.5t28 86.5l80 233h97zM114 616v68h252v-68h-252z" />
    <glyph glyph-name="uni1E02" unicode="&#x1e02;" horiz-adv-x="571" 
d="M424 194q0 29 -10 51t-31.5 37t-56 23t-81.5 8h-24.5t-24 -0.5t-19.5 -0.5v-236q30 -5 87 -5q80 0 120 34t40 89zM402 498q0 24 -7 43t-23.5 34t-44 23t-67.5 8q-15 0 -36.5 -1t-46.5 -2v-220q9 0 18.5 -0.5t20 -0.5h30.5q77 0 116.5 30t39.5 86zM521 200
q0 -36 -14 -71.5t-45 -65.5t-82.5 -48t-122.5 -18q-27 0 -89 1.5t-83 1.5v675q24 1 76 2.5t108 1.5q115 0 172 -44t57 -123q0 -53 -29.5 -94.5t-82.5 -60.5v-1q31 -6 56 -19t42.5 -33t27 -46.5t9.5 -57.5zM327 785q0 -24 -17 -41t-41 -17t-41 17t-17 41t17 41t41 17
t41 -16.5t17 -41.5z" />
    <glyph glyph-name="uni1E03" unicode="&#x1e03;" horiz-adv-x="558" 
d="M421 264q0 82 -27.5 125t-82.5 43q-32 0 -58 -17t-43 -45t-26 -62t-9 -67v-164q10 -3 33.5 -8t54.5 -5q36 0 65 11.5t50 35.5t32 62.5t11 90.5zM515 272q0 -65 -18 -116.5t-51.5 -88t-81.5 -55.5t-108 -19q-57 0 -104 7.5t-67 12.5v717h90v-241q0 -23 -2.5 -49t-6.5 -44
l2 -1q20 52 63.5 81.5t100.5 29.5q88 0 135.5 -60t47.5 -174zM188 854q0 -24 -17 -41t-41 -17t-41 17t-17 41t17 41t41 17t41 -16.5t17 -41.5z" />
    <glyph glyph-name="uni1E0A" unicode="&#x1e0a;" horiz-adv-x="678" 
d="M535 339q0 130 -63.5 197t-193.5 67q-22 0 -55 -1t-46 -2v-520q18 -3 42.5 -4.5t46.5 -1.5q60 0 109.5 16t85 48.5t55 83t19.5 117.5zM632 345q0 -85 -27 -150.5t-77.5 -110t-119.5 -66.5t-152 -22q-36 0 -92 2t-79 2v674q55 1 106 2.5t96 1.5q82 0 146 -19.5
t108.5 -60.5t67.5 -104t23 -149zM359 785q0 -24 -17 -41t-41 -17t-41 17t-17 41t17 41t41 17t41 -16.5t17 -41.5z" />
    <glyph glyph-name="uni1E0B" unicode="&#x1e0b;" horiz-adv-x="558" 
d="M384 422q-24 5 -46 8t-43 3q-36 0 -65 -11.5t-49.5 -35.5t-31.5 -62t-11 -91q0 -82 27 -125t82 -43q33 0 58.5 17t43 45.5t26.5 62t9 67.5v165zM386 0q0 25 2 53t6 48l-2 1q-21 -51 -64.5 -81t-101.5 -30q-91 0 -137 61.5t-46 172.5q0 65 18 116.5t51.5 88t81 55.5
t106.5 19q19 0 38.5 -1t45.5 -4v231h89v-730h-87zM486 854q0 -24 -17 -41t-41 -17t-41 17t-17 41t17 41t41 17t41 -16.5t17 -41.5z" />
    <glyph glyph-name="uni1E1E" unicode="&#x1e1e;" horiz-adv-x="500" 
d="M177 599v-220h270v-74h-270v-305h-92v675h379v-76h-287zM337 785q0 -24 -17 -41t-41 -17t-41 17t-17 41t17 41t41 17t41 -16.5t17 -41.5z" />
    <glyph glyph-name="uni1E1F" unicode="&#x1e1f;" horiz-adv-x="350" 
d="M371 653q-9 3 -30.5 6.5t-46.5 3.5q-52 0 -73.5 -28t-21.5 -96v-42h138v-70h-138v-427h-90v427h-102v70h102v39q0 104 47 152t139 48q40 0 76 -7v-76zM310 854q0 -24 -17 -41t-41 -17t-41 17t-17 41t17 41t41 17t41 -16.5t17 -41.5z" />
    <glyph glyph-name="uni1E40" unicode="&#x1e40;" horiz-adv-x="894" 
d="M752 0l-53 394q-8 63 -13 112t-6 84h-2q-7 -29 -17 -64.5t-24 -79.5l-156 -446h-84l-148 423q-15 44 -28.5 89t-21.5 78h-1q-1 -41 -5.5 -91t-10.5 -109l-44 -390h-91l87 675h126l150 -426q11 -33 19.5 -63t13.5 -58h1q7 32 15 63t17 58l150 426h130l91 -675h-95z
M504 785q0 -24 -17 -41t-41 -17t-41 17t-17 41t17 41t41 17t41 -16.5t17 -41.5z" />
    <glyph glyph-name="uni1E41" unicode="&#x1e41;" horiz-adv-x="879" 
d="M704 0v319q0 56 -17.5 84.5t-63.5 28.5q-27 0 -52 -13.5t-44.5 -39.5t-31 -62.5t-11.5 -80.5v-236h-89v319q0 26 -3.5 46t-12 35t-24.5 23.5t-41 8.5q-28 0 -53.5 -14.5t-44.5 -41t-30 -62.5t-11 -78v-236h-90v497h87q0 -25 -2 -54.5t-5 -50.5l1 -1q22 53 68 84t105 31
q37 0 63.5 -11t42 -28.5t22.5 -36.5t9 -37q9 20 23 39t35 36t49.5 27.5t62.5 10.5q72 0 110 -40t38 -123v-343h-90zM497 657q0 -24 -17 -41t-41 -17t-41 16.5t-17 41.5q0 24 17 41t41 17t41 -17t17 -41z" />
    <glyph glyph-name="uni1E56" unicode="&#x1e56;" 
d="M518 469q0 -51 -18.5 -94.5t-54 -76t-85.5 -50t-112 -17.5q-22 0 -42 1t-29 2v-234h-92v675q24 1 75 2.5t102 1.5q126 0 191 -59t65 -151zM423 456q0 68 -43 108t-129 40q-22 0 -43 -0.5t-31 -1.5v-290q10 -1 32 -3.5t46 -2.5q81 0 124.5 41.5t43.5 108.5zM325 785
q0 -24 -17 -41t-41 -17t-41 17t-17 41t17 41t41 17t41 -16.5t17 -41.5z" />
    <glyph glyph-name="uni1E57" unicode="&#x1e57;" horiz-adv-x="558" 
d="M421 264q0 82 -27.5 125t-82.5 43q-32 0 -58 -17t-43 -45.5t-26 -62t-9 -67.5v-164q39 -12 88 -12q36 0 65 11.5t50 35.5t32 62.5t11 90.5zM515 272q0 -132 -67.5 -205t-188.5 -73q-25 0 -44.5 1t-39.5 5v-247h-90v744h87q0 -25 -2 -53.5t-6 -47.5l2 -1q21 52 64.5 81.5
t102.5 29.5q87 0 134.5 -60.5t47.5 -173.5zM364 657q0 -24 -17 -41t-41 -17t-41 16.5t-17 41.5q0 24 17 41t41 17t41 -17t17 -41z" />
    <glyph glyph-name="uni1E60" unicode="&#x1e60;" horiz-adv-x="504" 
d="M456 188q0 -43 -16 -79t-47.5 -63t-77 -41t-102.5 -14q-41 0 -81 5t-71 13v90q34 -14 76.5 -21.5t80.5 -7.5q32 0 58 6.5t45 20t29 35t10 49.5q0 34 -18 56.5t-42.5 36.5t-84.5 39.5t-92 47.5t-52 56t-20 83q0 41 16 74.5t47 58.5t75 38t99 13q31 0 60.5 -3t55.5 -8v-83
q-29 8 -62 13t-60 5q-66 0 -101.5 -26.5t-35.5 -74.5q0 -31 16.5 -51.5t40 -34t87.5 -41t97 -51.5t51.5 -58.5t18.5 -82.5zM310 788q0 -24 -17 -41t-41 -17t-41 17t-17 41t17 41t41 17t41 -16.5t17 -41.5z" />
    <glyph glyph-name="uni1E61" unicode="&#x1e61;" horiz-adv-x="425" 
d="M376 142q0 -32 -12.5 -59t-37.5 -48t-62.5 -32.5t-86.5 -11.5q-33 0 -62.5 3.5t-56.5 9.5v80q29 -9 61.5 -15t63.5 -6q50 0 75 18.5t25 52.5q0 26 -15 41t-32 23t-60.5 23.5t-68.5 31.5t-41 42t-16 67q0 63 50 103.5t144 40.5q24 0 49 -2t46 -6v-76q-21 7 -48.5 10.5
t-52.5 3.5q-47 0 -71.5 -17.5t-24.5 -48.5q0 -25 15.5 -41t48 -28.5t60.5 -22.5t53 -26t41 -42.5t16 -67.5zM270 657q0 -24 -17 -41t-41 -17t-41 16.5t-17 41.5q0 24 17 41t41 17t41 -17t17 -41z" />
    <glyph glyph-name="uni1E6A" unicode="&#x1e6a;" horiz-adv-x="516" 
d="M304 598v-598h-92v598h-194v77h481v-77h-195zM316 785q0 -24 -17 -41t-41 -17t-41 17t-17 41t17 41t41 17t41 -16.5t17 -41.5z" />
    <glyph glyph-name="uni1E6B" unicode="&#x1e6b;" horiz-adv-x="371" 
d="M335 2q-24 -5 -47 -7.5t-45 -2.5q-39 0 -65 8.5t-41.5 26t-22.5 46t-7 70.5v284h-100v70h100v161l90 25v-186h138v-70h-138v-262q0 -29 3 -47.5t11 -29.5t20.5 -15.5t32.5 -4.5q33 0 71 9v-75zM210 785q0 -24 -17 -41t-41 -17t-41 17t-17 41t17 41t41 17t41 -16.5
t17 -41.5z" />
    <glyph glyph-name="Wgrave" unicode="&#x1e80;" horiz-adv-x="955" 
d="M742 0h-115l-128 444q-6 22 -11.5 47.5t-10.5 56.5h-2q-7 -52 -20 -104l-125 -444h-116l-180 675h98l116 -438q10 -40 17 -75t12 -70h2q16 88 30 141l125 442h92l130 -448q10 -34 18 -69t13 -66h1q7 40 12 68.5t12 56.5l119 458h90zM526 725l-190 56l26 70l181 -74z" />
    <glyph glyph-name="wgrave" unicode="&#x1e81;" horiz-adv-x="793" 
d="M617 0h-103l-98 295q-8 26 -15 52t-13 50h-1q-7 -30 -15.5 -61.5t-18.5 -66.5l-83 -269h-102l-152 497h100l78 -274q9 -33 18.5 -68.5t14.5 -58.5h1q7 30 15.5 63t17.5 65l86 273h97l87 -273q7 -23 12.5 -41t9.5 -33t7.5 -28t6.5 -27h1q5 25 13 53.5t20 74.5l81 274h95z
M410 569l-140 128l55 54l129 -139z" />
    <glyph glyph-name="Wacute" unicode="&#x1e82;" horiz-adv-x="955" 
d="M742 0h-115l-128 444q-6 22 -11.5 47.5t-10.5 56.5h-2q-7 -52 -20 -104l-125 -444h-116l-180 675h98l116 -438q10 -40 17 -75t12 -70h2q16 88 30 141l125 442h92l130 -448q10 -34 18 -69t13 -66h1q7 40 12 68.5t12 56.5l119 458h90zM431 725l-17 52l182 74l25 -70z" />
    <glyph glyph-name="wacute" unicode="&#x1e83;" horiz-adv-x="793" 
d="M617 0h-103l-98 295q-8 26 -15 52t-13 50h-1q-7 -30 -15.5 -61.5t-18.5 -66.5l-83 -269h-102l-152 497h100l78 -274q9 -33 18.5 -68.5t14.5 -58.5h1q7 30 15.5 63t17.5 65l86 273h97l87 -273q7 -23 12.5 -41t9.5 -33t7.5 -28t6.5 -27h1q5 25 13 53.5t20 74.5l81 274h95z
M374 569l-44 43l129 139l55 -53z" />
    <glyph glyph-name="Wdieresis" unicode="&#x1e84;" horiz-adv-x="955" 
d="M742 0h-115l-128 444q-6 22 -11.5 47.5t-10.5 56.5h-2q-7 -52 -20 -104l-125 -444h-116l-180 675h98l116 -438q10 -40 17 -75t12 -70h2q16 88 30 141l125 442h92l130 -448q10 -34 18 -69t13 -66h1q7 40 12 68.5t12 56.5l119 458h90zM641 782q0 -22 -15.5 -38t-38.5 -16
q-22 0 -37.5 15.5t-15.5 38.5t15.5 38.5t37.5 15.5q23 0 38.5 -16t15.5 -38zM428 782q0 -22 -15.5 -38t-38.5 -16t-38.5 16t-15.5 38q0 23 16 38.5t38 15.5q23 0 38.5 -16t15.5 -38z" />
    <glyph glyph-name="wdieresis" unicode="&#x1e85;" horiz-adv-x="793" 
d="M617 0h-103l-98 295q-8 26 -15 52t-13 50h-1q-7 -30 -15.5 -61.5t-18.5 -66.5l-83 -269h-102l-152 497h100l78 -274q9 -33 18.5 -68.5t14.5 -58.5h1q7 30 15.5 63t17.5 65l86 273h97l87 -273q7 -23 12.5 -41t9.5 -33t7.5 -28t6.5 -27h1q5 25 13 53.5t20 74.5l81 274h95z
M353 654q0 -23 -16 -38.5t-38 -15.5q-23 0 -38.5 16t-15.5 38q0 23 16 38.5t38 15.5q23 0 38.5 -16t15.5 -38zM545 654q0 -23 -16 -38.5t-38 -15.5q-23 0 -38.5 16t-15.5 38q0 23 16 38.5t38 15.5q23 0 38.5 -16t15.5 -38z" />
    <glyph glyph-name="uni1E9E" unicode="&#x1e9e;" horiz-adv-x="688" 
d="M417 383q106 -5 164 -54t58 -134q0 -40 -16 -77t-47 -66t-76 -45t-101 -16q-28 0 -58.5 3.5t-61.5 9.5v84q30 -9 62.5 -14.5t63.5 -5.5q62 0 99.5 32t37.5 87q0 58 -43.5 90.5t-133.5 32.5h-52v63l175 225q-32 5 -65 7.5t-67 2.5q-91 0 -135 -44t-44 -132v-432h-92v430
q0 127 70 191t206 64q53 0 111.5 -5t117.5 -14v-63z" />
    <glyph glyph-name="Ygrave" unicode="&#x1ef2;" horiz-adv-x="537" 
d="M313 259v-259h-91v259l-220 416h101l116 -220q27 -54 50 -111h2q13 32 29 65t25 50l112 216h98zM262 725l-190 56l26 70l181 -74z" />
    <glyph glyph-name="ygrave" unicode="&#x1ef3;" horiz-adv-x="480" 
d="M278 -25q-23 -65 -48 -119.5t-51 -102.5h-99q31 54 58.5 108.5t47.5 108.5l11 30l-188 497h103l94 -260q12 -36 21 -66.5t18 -60.5h1q7 27 20 67.5t28 86.5l80 233h97zM223 569l-140 128l55 54l129 -139z" />
    <glyph glyph-name="endash" unicode="&#x2013;" 
d="M0 259v78h550v-78h-550z" />
    <glyph glyph-name="emdash" unicode="&#x2014;" horiz-adv-x="1000" 
d="M118 259v78h764v-78h-764z" />
    <glyph glyph-name="uni2015" unicode="&#x2015;" horiz-adv-x="1000" 
d="M118 259v78h764v-78h-764z" />
    <glyph glyph-name="quoteleft" unicode="&#x2018;" horiz-adv-x="244" 
d="M203 715q-48 -52 -54.5 -86.5t11.5 -56.5q10 -14 11.5 -29.5t-4.5 -29t-19.5 -22.5t-31.5 -9q-27 0 -45 22t-16.5 59.5t26.5 85.5t83 101l39 -35v0z" />
    <glyph glyph-name="quoteright" unicode="&#x2019;" horiz-adv-x="244" 
d="M126 743q28 0 45.5 -22t16 -60.5t-28 -87t-81.5 -98.5l-39 35q45 49 53.5 84t-10.5 59q-10 13 -11.5 29t5 30t19.5 22.5t31 8.5z" />
    <glyph glyph-name="quotesinglbase" unicode="&#x201a;" horiz-adv-x="244" 
d="M126 113q27 0 45 -22t17 -58.5t-26.5 -85t-83.5 -101.5l-39 34q48 53 54.5 87.5t-11.5 56.5q-11 13 -12 28.5t5 29t19.5 22.5t31.5 9z" />
    <glyph glyph-name="quotedblleft" unicode="&#x201c;" horiz-adv-x="433" 
d="M203 715q-45 -49 -53.5 -84t10.5 -59q10 -13 11.5 -29t-5 -30t-19.5 -22.5t-31 -8.5q-28 0 -45.5 22t-16 60.5t28 87t81.5 98.5zM393 715q-45 -49 -53.5 -84t10.5 -59q10 -13 11.5 -29t-5 -30t-19.5 -22.5t-31 -8.5q-28 0 -45.5 22t-16 60.5t28 87t81.5 98.5z" />
    <glyph glyph-name="quotedblright" unicode="&#x201d;" horiz-adv-x="433" 
d="M126 743q27 0 45 -22t16.5 -59t-26.5 -85.5t-83 -101.5l-39 35q48 52 54 86.5t-11 56.5q-11 13 -12 29t5 29.5t19.5 22.5t31.5 9zM316 743q27 0 45 -22t16.5 -59t-26.5 -85.5t-83 -101.5l-39 35q48 52 54 86.5t-11 56.5q-11 13 -12 29t5 29.5t19.5 22.5t31.5 9z" />
    <glyph glyph-name="quotedblbase" unicode="&#x201e;" horiz-adv-x="433" 
d="M126 113q27 0 45 -22t17 -58.5t-26.5 -85t-83.5 -101.5l-39 34q48 54 54.5 88t-11.5 56q-11 13 -12 28.5t5 29t19.5 22.5t31.5 9zM316 113q27 0 45 -22t17 -58.5t-26.5 -85t-83.5 -101.5l-39 34q48 53 54.5 87.5t-11.5 56.5q-11 13 -12 28.5t5 29t19.5 22.5t31.5 9z" />
    <glyph glyph-name="dagger" unicode="&#x2020;" horiz-adv-x="449" 
d="M260 557l17 -98l-19 -251h-67l-19 251l16 98h-140v70h140l-16 137h105l-17 -137h140v-70h-140z" />
    <glyph glyph-name="daggerdbl" unicode="&#x2021;" horiz-adv-x="449" 
d="M261 295l16 -130h-106l17 130h-140v70h140l-16 100l16 99h-140v70h140l-16 130h105l-16 -130h139v-70h-139l16 -99l-16 -100h139v-70h-139z" />
    <glyph glyph-name="bullet" unicode="&#x2022;" horiz-adv-x="420" 
d="M331 297q0 -25 -9.5 -47t-26 -38.5t-38.5 -26t-47 -9.5t-47 9.5t-38.5 26t-26 38.5t-9.5 47t9.5 47t26 38.5t38.5 26t47 9.5t47 -9.5t38.5 -26t26 -38.5t9.5 -47z" />
    <glyph glyph-name="perthousand" unicode="&#x2030;" horiz-adv-x="1026" 
d="M321 539q0 -37 -11 -67t-30.5 -50.5t-45.5 -31.5t-55 -11q-62 0 -97 36.5t-35 110.5q0 36 11 65.5t30.5 50t45 31.5t54.5 11q61 0 97 -35.5t36 -109.5zM249 532q0 47 -15.5 69.5t-48.5 22.5q-31 0 -48.5 -25t-17.5 -68q0 -47 15.5 -69.5t48.5 -22.5q31 0 48.5 25t17.5 68
zM112 -16l-55 42l527 665l56 -44zM651 151q0 -37 -11 -67t-30.5 -51t-45.5 -32t-55 -11q-62 0 -97 36.5t-35 110.5q0 36 11 66t30.5 50.5t45 31t54.5 10.5q61 0 97 -35t36 -109zM580 144q0 47 -15.5 69t-49.5 22q-31 0 -48.5 -25t-17.5 -67q0 -48 15 -70t49 -22q31 0 49 25
t18 68zM969 151q0 -37 -11 -67.5t-30.5 -51t-45 -31.5t-54.5 -11q-62 0 -97 36.5t-35 110.5q0 36 11 66t30.5 50.5t45 31t54.5 10.5q61 0 96.5 -35t35.5 -109zM898 144q0 47 -15.5 69t-48.5 22q-31 0 -49 -25t-18 -67q0 -92 65 -92q31 0 48.5 25t17.5 68z" />
    <glyph glyph-name="guilsinglleft" unicode="&#x2039;" horiz-adv-x="313" 
d="M172 115l-119 178l120 181l66 -36l-96 -144l97 -142z" />
    <glyph glyph-name="guilsinglright" unicode="&#x203a;" horiz-adv-x="313" 
d="M139 115l-66 36l98 144l-97 142l68 37l118 -178z" />
    <glyph glyph-name="fraction" unicode="&#x2044;" horiz-adv-x="183" 
d="M-206 -135l-58 41l636 901l59 -41z" />
    <glyph glyph-name="fraction" unicode="&#x2215;" horiz-adv-x="183" 
d="M-206 -135l-58 41l636 901l59 -41z" />
    <glyph glyph-name="zero.superior" unicode="&#x2070;" horiz-adv-x="466" 
d="M420 575q0 -52 -12 -95t-36.5 -74t-61 -47.5t-83.5 -16.5q-48 0 -82.5 15.5t-56.5 44.5t-32 70.5t-10 94.5q0 52 12 95t36 74t60.5 48t84.5 17t82.5 -15.5t56.5 -45t32 -71t10 -94.5zM333 569q0 36 -5 66t-16.5 53t-31 35.5t-47.5 12.5q-27 0 -46.5 -12.5t-31 -34.5
t-17 -51.5t-5.5 -64.5q0 -36 5 -65.5t16.5 -52.5t31 -35.5t47.5 -12.5q27 0 46.5 12.5t31 34.5t17 51t5.5 64z" />
    <glyph glyph-name="four.superior" unicode="&#x2074;" horiz-adv-x="413" 
d="M318 449v-99h-84v99h-207l-6 57l174 286h123v-275h69v-68h-69zM234 734l-133 -219q12 1 30 1.5t37 0.5h34.5h31.5v217z" />
    <glyph glyph-name="five.superior" unicode="&#x2075;" horiz-adv-x="366" 
d="M55 418q20 -6 45 -10t46 -4q47 0 70.5 22t23.5 57t-26.5 55.5t-91.5 20.5q-12 0 -27 -0.5t-29 -2.5v236h232v-70h-153v-101h15q79 0 123 -34t44 -95q0 -69 -49 -109.5t-134 -40.5q-21 0 -45 2t-44 7v67z" />
    <glyph glyph-name="six.superior" unicode="&#x2076;" horiz-adv-x="430" 
d="M347 732q-14 3 -32.5 4.5t-33.5 1.5q-68 0 -103 -35q-15 -15 -23 -32.5t-12 -34t-5.5 -29t-4.5 -18.5q15 20 43 31.5t60 11.5q68 0 109.5 -35t41.5 -99q0 -37 -13.5 -66t-36.5 -49t-54 -30.5t-66 -10.5q-36 0 -67 11t-51 32q-23 23 -36 61t-13 98q0 128 61 192.5
t174 64.5q15 0 31.5 -1.5t30.5 -3.5v-64zM303 488q0 43 -24.5 63.5t-57.5 20.5q-41 0 -63 -24t-22 -58q0 -37 21.5 -62t64.5 -25q35 0 58 23.5t23 61.5z" />
    <glyph glyph-name="seven.superior" unicode="&#x2077;" horiz-adv-x="353" 
d="M321 730q-19 -40 -38 -87t-36.5 -97.5t-31.5 -100.5t-24 -95h-96q13 50 30.5 104t37 104.5t38.5 93.5t35 71q-11 -1 -32.5 -1.5t-49.5 -0.5h-56h-69v71h292v-62z" />
    <glyph glyph-name="eight.superior" unicode="&#x2078;" horiz-adv-x="428" 
d="M384 466q0 -28 -11 -51t-33 -39.5t-55 -25.5t-76 -9q-81 0 -123 30t-42 85q0 38 24.5 66t67.5 50q-39 19 -61 45t-22 65q0 27 11 49t31.5 37.5t52 24t71.5 8.5q76 0 116 -28t40 -80q0 -35 -22 -61t-62 -48q43 -18 68 -46.5t25 -71.5zM292 689q0 26 -20 40.5t-58 14.5
t-58 -15t-20 -40q0 -26 21.5 -43.5t62.5 -33.5q35 18 53.5 36t18.5 41zM299 459q0 29 -23.5 48t-68.5 36q-38 -19 -58.5 -38.5t-20.5 -44.5q0 -30 22 -45.5t64 -15.5t63.5 16t21.5 44z" />
    <glyph glyph-name="nine.superior" unicode="&#x2079;" horiz-adv-x="430" 
d="M70 413q17 -4 38.5 -6.5t41.5 -2.5q34 0 60 9t43 26q15 15 23 33t11.5 34t5 29t4.5 19q-16 -20 -43.5 -31.5t-59.5 -11.5q-67 0 -109 35t-42 98q0 37 13.5 66t36.5 49.5t54 31t66 10.5q41 0 71 -13t48 -31q23 -23 35.5 -61t12.5 -98q0 -128 -60.5 -192t-174.5 -64
q-20 0 -39 1.5t-36 4.5v65zM294 652q0 39 -23.5 63.5t-61.5 24.5q-36 0 -59 -24t-23 -61q0 -39 22.5 -62t59.5 -23q38 0 61.5 22.5t23.5 59.5z" />
    <glyph glyph-name="uni207A" unicode="&#x207a;" horiz-adv-x="450" 
d="M261 518v-130h-72v130h-133v62h133v130h72v-130h133v-62h-133z" />
    <glyph glyph-name="uni207B" unicode="&#x207b;" horiz-adv-x="450" 
d="M56 518v62h338v-62h-338z" />
    <glyph glyph-name="uni207C" unicode="&#x207c;" horiz-adv-x="450" 
d="M56 434v62h338v-62h-338zM56 602v62h338v-62h-338z" />
    <glyph glyph-name="parenleft.superior" unicode="&#x207d;" horiz-adv-x="295" 
d="M172 190q-50 88 -75 178.5t-25 190.5q0 99 25.5 192.5t75.5 180.5l74 -20q-90 -159 -90 -349q0 -96 22.5 -183.5t67.5 -169.5z" />
    <glyph glyph-name="parenright.superior" unicode="&#x207e;" horiz-adv-x="295" 
d="M48 210q90 159 90 349q0 96 -23 183.5t-68 169.5l76 20q50 -88 74.5 -178.5t24.5 -190.5q0 -99 -25 -192.5t-75 -180.5z" />
    <glyph glyph-name="zero.inferior" unicode="&#x2080;" horiz-adv-x="466" 
d="M420 105q0 -52 -12 -95t-36.5 -74t-61 -47.5t-83.5 -16.5q-48 0 -82.5 15.5t-56.5 44.5t-32 70.5t-10 94.5q0 52 12 95t36 74t60.5 48t84.5 17t82.5 -15.5t56.5 -45t32 -71t10 -94.5zM333 99q0 36 -5 66t-16.5 53t-31 35.5t-47.5 12.5q-27 0 -46.5 -12.5t-31 -34.5
t-17 -51.5t-5.5 -64.5q0 -36 5 -65.5t16.5 -52.5t31 -35.5t47.5 -12.5q27 0 46.5 12.5t31 34.5t17 51t5.5 64z" />
    <glyph glyph-name="one.inferior" unicode="&#x2081;" horiz-adv-x="292" 
d="M213 -120h-85v366l-103 -35v70l118 41h70v-442z" />
    <glyph glyph-name="two.inferior" unicode="&#x2082;" horiz-adv-x="379" 
d="M42 -120v65l110 113q41 41 58.5 72t17.5 60q0 33 -19.5 52.5t-55.5 19.5q-24 0 -48 -6.5t-52 -19.5v69q28 12 58 19t61 7q69 0 107.5 -34.5t38.5 -92.5q0 -45 -22.5 -85.5t-70.5 -87.5l-80 -81q35 1 87 2t107 1v-73h-297z" />
    <glyph glyph-name="three.inferior" unicode="&#x2083;" horiz-adv-x="369" 
d="M319 15q0 -32 -13 -58.5t-37.5 -45.5t-59.5 -29t-79 -10q-21 0 -44 2t-42 5v68q20 -6 43.5 -9.5t44.5 -3.5q50 0 74.5 20.5t24.5 53.5q0 40 -39 58t-123 11v60q78 0 113 19t35 55q0 27 -19 42.5t-56 15.5q-18 0 -43.5 -5t-48.5 -13v61q24 9 53 14t57 5q67 0 104.5 -28.5
t37.5 -81.5q0 -38 -20 -62.5t-56 -38.5q45 -10 69 -38.5t24 -66.5z" />
    </font>
</defs>
</svg>
